osu file format v14

[General]
AudioFilename: Elite Beat Agents Stage 13 - The Anthem.mp3
AudioLeadIn: 0
PreviewTime: 48509
Countdown: 1
SampleSet: Normal
StackLeniency: 0.7
Mode: 0
LetterboxInBreaks: 0
SkinPreference:ebo-hd
WidescreenStoryboard: 0

[Editor]
DistanceSpacing: 0.8
BeatDivisor: 4
GridSize: 8
TimelineZoom: 1

[Metadata]
Title:The Anthem
TitleUnicode:The Anthem
Artist:Kevin Ridel
ArtistUnicode:Kevin Ridel
Creator:Nitroz
Version:Cruisin'
Source:Elite Beat Agents
Tags:eba ouendan inis nintendo good charlotte cover rock pop punk
BeatmapID:1531598
BeatmapSetID:725385

[Difficulty]
HPDrainRate:3
CircleSize:3
OverallDifficulty:5
ApproachRate:5
SliderMultiplier:1.4
SliderTickRate:2

[Events]
//Background and Video events
0,0,"bg.png",0,0
//Break Periods
2,37338,46949
2,59582,68016
2,113339,122454
//Storyboard Layer 0 (Background)
//Storyboard Layer 1 (Fail)
//Storyboard Layer 2 (Pass)
//Storyboard Layer 3 (Foreground)
//Storyboard Sound Samples

[TimingPoints]
65,337.031315826429,4,1,0,70,1,0
48593,-100,4,1,0,80,0,1
59546,-100,4,1,0,70,0,0
91729,-100,4,1,0,80,0,1
102682,-100,4,1,0,70,0,0
151042,-100,4,1,0,80,0,1
156434,-100,4,1,0,70,0,0

[Colours]
Combo1 : 255,192,0
Combo2 : 0,202,0
Combo3 : 18,124,255
Combo4 : 242,24,57

[HitObjects]
96,40,15905,53,0,0:0:0:0:
256,40,16242,1,0,0:0:0:0:
416,40,16579,1,2,0:0:0:0:
256,192,17253,5,2,0:0:0:0:
128,248,17590,2,2,P|256:296|384:248,1,280
416,40,18601,5,0,0:0:0:0:
256,40,18938,1,0,0:0:0:0:
96,40,19275,1,2,0:0:0:0:
256,192,19949,5,2,0:0:0:0:
344,288,20286,2,2,P|256:336|168:288,1,210
256,20,21635,5,0,0:0:0:0:
256,20,21803,1,0,0:0:0:0:
176,110,22140,1,0,0:0:0:0:
336,110,22477,1,0,0:0:0:0:
416,200,22814,1,2,0:0:0:0:
256,200,23151,1,0,0:0:0:0:
96,200,23488,1,0,0:0:0:0:
400,288,23994,5,2,0:0:0:0:
400,368,24331,2,10,B|112:368,3,280
96,40,26690,5,0,0:0:0:0:
256,40,27027,1,0,0:0:0:0:
416,40,27364,1,2,0:0:0:0:
256,192,27870,5,10,0:0:0:0:
256,192,28038,1,2,0:0:0:0:
128,248,28375,2,2,P|256:296|384:248,1,280
416,40,29386,5,0,0:0:0:0:
256,40,29723,1,0,0:0:0:0:
96,40,30060,1,2,0:0:0:0:
256,192,30566,5,2,0:0:0:0:
256,192,30734,1,2,0:0:0:0:
344,288,31071,2,2,P|256:336|168:288,1,210
496,100,32251,5,0,0:0:0:0:
496,100,32420,1,0,0:0:0:0:
336,100,32757,1,0,0:0:0:0:
176,100,33094,1,0,0:0:0:0:
16,100,33431,1,2,0:0:0:0:
96,210,33768,1,2,0:0:0:0:
256,210,34105,1,10,0:0:0:0:
256,210,34273,1,8,0:0:0:0:
416,210,34610,1,0,0:0:0:0:
476,370,34947,5,2,0:0:0:0:
400,370,35116,2,2,B|112:370,3,280
128,50,48597,6,10,B|256:-38|392:50,2,280
0,180,50451,1,10,0:0:0:0:
0,180,50619,1,2,0:0:0:0:
116,180,50956,1,2,0:0:0:0:
256,90,51293,5,10,0:0:0:0:
256,230,51630,1,8,0:0:0:0:
256,370,51967,1,0,0:0:0:0:
356,20,52810,5,0,0:0:0:0:
356,20,52978,1,2,0:0:0:0:
476,70,53315,1,2,0:0:0:0:
480,200,53652,1,0,0:0:0:0:
368,128,53990,2,0,L|256:128,1,105
272,240,54495,1,10,0:0:0:0:
352,240,54664,1,10,0:0:0:0:
256,360,55001,1,10,0:0:0:0:
176,360,55169,2,10,B|24:328|72:160|96:136,1,280
176,140,56012,1,10,0:0:0:0:
336,140,56349,1,2,0:0:0:0:
386,50,56686,6,10,B|258:-38|122:50,2,280
256,120,58539,1,10,0:0:0:0:
256,120,58708,1,2,0:0:0:0:
256,240,59045,1,8,0:0:0:0:
256,360,59382,1,0,0:0:0:0:
156,20,69661,5,10,0:0:0:0:
156,20,69830,1,0,0:0:0:0:
16,90,70167,1,0,0:0:0:0:
156,160,70504,1,2,0:0:0:0:
16,320,71010,5,10,0:0:0:0:
16,320,71178,1,2,0:0:0:0:
136,380,71515,2,2,B|352:380,1,210
356,20,72526,5,0,0:0:0:0:
496,90,72863,1,0,0:0:0:0:
356,160,73200,1,2,0:0:0:0:
496,320,73706,5,10,0:0:0:0:
496,320,73874,1,2,0:0:0:0:
376,260,74211,2,2,B|160:260,1,210
256,20,75560,5,0,0:0:0:0:
256,20,75728,1,0,0:0:0:0:
336,110,76065,1,0,0:0:0:0:
176,110,76402,1,0,0:0:0:0:
96,200,76739,1,8,0:0:0:0:
256,200,77076,1,0,0:0:0:0:
416,200,77413,1,2,0:0:0:0:
336,290,77750,1,0,0:0:0:0:
176,290,78087,1,0,0:0:0:0:
116,370,78256,6,2,B|404:370,3,280
356,20,80952,5,2,0:0:0:0:
456,80,81289,1,0,0:0:0:0:
512,180,81626,1,8,0:0:0:0:
496,360,82132,5,10,0:0:0:0:
376,280,82469,1,0,0:0:0:0:
256,200,82806,1,0,0:0:0:0:
256,20,83311,5,8,0:0:0:0:
144,32,83648,1,2,0:0:0:0:
56,96,83985,1,0,0:0:0:0:
16,184,84322,1,8,0:0:0:0:
16,360,84828,5,10,0:0:0:0:
136,280,85165,1,0,0:0:0:0:
256,200,85502,1,0,0:0:0:0:
496,100,86345,5,2,0:0:0:0:
406,180,86682,1,0,0:0:0:0:
316,260,87019,1,2,0:0:0:0:
196,260,87356,5,0,0:0:0:0:
136,320,87524,2,0,B|192:408|256:368|320:408|384:312,1,280
16,100,89041,5,2,0:0:0:0:
106,180,89378,1,2,0:0:0:0:
196,260,89715,1,0,0:0:0:0:
196,260,89883,1,0,0:0:0:0:
496,100,90389,5,2,0:0:0:0:
406,180,90726,1,2,0:0:0:0:
316,260,91063,1,0,0:0:0:0:
316,260,91231,1,0,0:0:0:0:
316,260,91400,1,2,0:0:0:0:
386,50,91737,6,10,B|258:-38|122:50,2,280
507,180,93591,1,10,0:0:0:0:
507,180,93759,1,2,0:0:0:0:
396,180,94096,1,2,0:0:0:0:
256,90,94433,5,10,0:0:0:0:
256,230,94770,1,8,0:0:0:0:
256,370,95107,1,0,0:0:0:0:
156,20,95950,5,0,0:0:0:0:
156,20,96118,1,2,0:0:0:0:
36,70,96455,1,2,0:0:0:0:
16,200,96792,1,0,0:0:0:0:
144,136,97130,2,0,L|256:136,1,105
240,240,97635,1,10,0:0:0:0:
160,240,97804,1,10,0:0:0:0:
256,360,98141,1,10,0:0:0:0:
336,360,98309,2,10,B|488:328|440:160|416:136,1,280
336,140,99152,1,10,0:0:0:0:
176,140,99489,1,2,0:0:0:0:
128,50,99826,6,10,B|256:-38|392:50,2,280
256,120,101679,1,10,0:0:0:0:
256,120,101848,1,2,0:0:0:0:
256,240,102185,1,8,0:0:0:0:
256,360,102522,1,0,0:0:0:0:
116,140,103196,5,0,0:0:0:0:
116,140,103365,1,2,0:0:0:0:
256,160,103702,1,0,0:0:0:0:
396,140,104039,1,0,0:0:0:0:
496,40,104376,2,8,B|576:184|528:304|400:328,1,350
400,144,105892,5,0,0:0:0:0:
400,144,106061,1,2,0:0:0:0:
264,144,106398,1,0,0:0:0:0:
128,144,106735,1,0,0:0:0:0:
0,144,107072,1,2,0:0:0:0:
0,300,107409,2,2,B|40:364|128:372|192:364,1,210
96,256,108589,5,0,0:0:0:0:
96,256,108757,1,2,0:0:0:0:
256,216,109094,1,0,0:0:0:0:
416,256,109431,2,8,B|376:376|256:368,1,210
256,140,110274,5,2,0:0:0:0:
396,60,110611,1,2,0:0:0:0:
396,60,110779,1,0,0:0:0:0:
256,20,111116,1,0,0:0:0:0:
116,60,111453,1,0,0:0:0:0:
116,60,111622,1,2,0:0:0:0:
0,160,111959,2,2,B|-8:264|56:328|184:328,1,280
256,180,112970,1,0,0:0:0:0:
256,180,113139,1,0,0:0:0:0:
476,140,124092,6,8,B|388:-52|252:28|116:-52|20:140,1,560
56,280,125946,1,10,0:0:0:0:
56,280,126114,1,0,0:0:0:0:
166,170,126451,1,2,0:0:0:0:
296,90,126788,1,2,0:0:0:0:
296,230,127125,1,0,0:0:0:0:
296,370,127462,1,8,0:0:0:0:
216,90,128473,5,2,0:0:0:0:
216,230,128810,1,2,0:0:0:0:
216,230,128979,1,0,0:0:0:0:
216,230,129147,1,10,0:0:0:0:
326,10,129485,6,8,B|494:18|502:194,1,280
396,280,130496,1,10,0:0:0:0:
396,280,130664,1,2,0:0:0:0:
256,380,131001,1,0,0:0:0:0:
116,280,131338,1,10,0:0:0:0:
116,280,131507,1,10,0:0:0:0:
256,200,131844,1,10,0:0:0:0:
186,10,132181,6,8,B|18:18|10:194,1,280
116,280,133192,1,10,0:0:0:0:
116,280,133360,1,2,0:0:0:0:
256,380,133697,1,0,0:0:0:0:
396,280,134034,1,10,0:0:0:0:
396,280,134203,1,10,0:0:0:0:
256,200,134540,1,2,0:0:0:0:
36,140,134877,6,8,B|124:-52|260:28|396:-52|492:140,1,560
456,280,136731,1,10,0:0:0:0:
456,280,136899,1,2,0:0:0:0:
346,180,137236,1,2,0:0:0:0:
216,90,137573,1,10,0:0:0:0:
216,230,137910,1,8,0:0:0:0:
216,370,138247,1,0,0:0:0:0:
296,90,138921,5,2,0:0:0:0:
296,230,139258,1,8,0:0:0:0:
296,370,139595,1,10,0:0:0:0:
326,10,140270,6,8,B|494:18|502:194,1,280
396,280,141281,1,10,0:0:0:0:
396,280,141449,1,2,0:0:0:0:
256,380,141786,1,0,0:0:0:0:
116,280,142123,1,10,0:0:0:0:
116,280,142292,1,10,0:0:0:0:
256,200,142629,1,10,0:0:0:0:
186,10,142966,6,8,B|18:18|10:194,1,280
116,280,143977,1,10,0:0:0:0:
116,280,144145,1,2,0:0:0:0:
256,380,144482,1,0,0:0:0:0:
396,280,144819,1,10,0:0:0:0:
396,280,144988,1,10,0:0:0:0:
256,200,145325,1,2,0:0:0:0:
56,140,145662,5,0,0:0:0:0:
176,40,145999,1,0,0:0:0:0:
336,40,146336,1,0,0:0:0:0:
456,140,146673,1,8,0:0:0:0:
256,360,147347,1,2,0:0:0:0:
256,360,147684,1,0,0:0:0:0:
456,140,148358,5,0,0:0:0:0:
336,40,148695,1,0,0:0:0:0:
176,40,149032,1,0,0:0:0:0:
56,140,149369,1,8,0:0:0:0:
256,360,150043,1,2,0:0:0:0:
256,360,150380,1,0,0:0:0:0:
256,192,151055,12,10,156279,0:0:0:0:
