osu file format v14

[General]
AudioFilename: Elite Beat Agents Stage 13 - The Anthem.mp3
AudioLeadIn: 0
PreviewTime: 48509
Countdown: 1
SampleSet: Normal
StackLeniency: 0.2
Mode: 0
LetterboxInBreaks: 0
WidescreenStoryboard: 0

[Editor]
DistanceSpacing: 0.8
BeatDivisor: 4
GridSize: 8
TimelineZoom: 1

[Metadata]
Title:The Anthem
TitleUnicode:The Anthem
Artist:Kevin Ridel
ArtistUnicode:Kevin Ridel
Creator:Nitroz
Version:Breezin'
Source:Elite Beat Agents
Tags:eba ouendan inis nintendo good charlotte cover rock pop punk
BeatmapID:1531597
BeatmapSetID:725385

[Difficulty]
HPDrainRate:0
CircleSize:3
OverallDifficulty:3
ApproachRate:3
SliderMultiplier:1.23
SliderTickRate:2

[Events]
//Background and Video events
0,0,"bg.png",0,0
//Break Periods
2,37338,47048
2,59582,68279
2,113339,122537
//Storyboard Layer 0 (Background)
//Storyboard Layer 1 (Fail)
//Storyboard Layer 2 (Pass)
//Storyboard Layer 3 (Foreground)
//Storyboard Sound Samples

[TimingPoints]
65,337.031315826429,4,1,0,100,1,0

[Colours]
Combo1 : 255,192,0
Combo2 : 0,202,0
Combo3 : 18,124,255
Combo4 : 242,24,57

[HitObjects]
256,144,15905,53,0,0:0:0:0:
192,48,16242,1,0,0:0:0:0:
320,48,16579,1,2,0:0:0:0:
256,240,17253,5,2,0:0:0:0:
304,352,17590,2,2,B|560:352,1,246
256,160,18601,5,0,0:0:0:0:
320,48,18938,1,0,0:0:0:0:
192,48,19275,1,2,0:0:0:0:
256,240,19949,5,2,0:0:0:0:
208,352,20286,2,2,B|0:352,1,184.5
256,80,21635,5,0,0:0:0:0:
32,176,22140,1,0,0:0:0:0:
128,256,22477,1,0,0:0:0:0:
256,288,22814,1,2,0:0:0:0:
384,256,23151,1,0,0:0:0:0:
480,176,23488,1,2,0:0:0:0:
368,64,24331,6,8,P|258:16|147:60,3,246
128,176,26690,5,0,0:0:0:0:
256,176,27027,1,0,0:0:0:0:
384,176,27364,1,2,0:0:0:0:
208,352,28038,5,2,0:0:0:0:
208,352,28375,2,2,B|16:352,1,184.5
144,80,29386,5,0,0:0:0:0:
256,80,29723,1,0,0:0:0:0:
368,80,30060,1,2,0:0:0:0:
256,240,30734,5,2,0:0:0:0:
288,352,31071,2,2,B|480:352,1,184.5
448,96,32420,5,0,0:0:0:0:
320,96,32757,1,0,0:0:0:0:
192,96,33094,1,0,0:0:0:0:
64,96,33431,1,2,0:0:0:0:
160,208,33768,1,2,0:0:0:0:
352,208,34273,1,8,0:0:0:0:
376,352,35116,6,2,B|120:352,3,246
136,48,48597,6,10,B|256:-8|376:48,2,246
16,176,50619,1,2,0:0:0:0:
136,176,50956,1,2,0:0:0:0:
256,80,51293,5,10,0:0:0:0:
256,224,51630,1,8,0:0:0:0:
256,368,51967,1,0,0:0:0:0:
496,352,52810,2,0,B|568:160|376:112,1,307.5
256,88,53990,5,0,0:0:0:0:
256,192,54242,1,0,0:0:0:0:
192,352,54664,1,2,0:0:0:0:
16,352,55001,1,0,0:0:0:0:
16,352,55169,2,0,B|-56:160|136:112,1,307.5
376,40,56686,6,10,B|256:-16|136:40,2,246
256,192,58708,1,2,0:0:0:0:
320,320,59045,1,8,0:0:0:0:
192,320,59382,1,0,0:0:0:0:
368,176,69830,5,0,0:0:0:0:
480,240,70167,1,0,0:0:0:0:
480,112,70504,1,2,0:0:0:0:
288,176,71178,5,2,0:0:0:0:
348,40,71515,2,2,B|156:40,1,184.5
144,176,72526,5,0,0:0:0:0:
32,240,72863,1,0,0:0:0:0:
32,112,73200,1,2,0:0:0:0:
224,176,73874,5,2,0:0:0:0:
160,320,74211,2,2,B|352:320,1,184.5
256,16,75560,5,0,0:0:0:0:
128,144,76065,1,0,0:0:0:0:
128,256,76402,1,0,0:0:0:0:
256,192,76739,1,2,0:0:0:0:
384,144,77076,1,0,0:0:0:0:
384,256,77413,1,8,0:0:0:0:
384,368,78256,6,2,B|128:368,3,246
256,64,80952,5,2,0:0:0:0:
376,64,81289,1,0,0:0:0:0:
496,64,81626,1,8,0:0:0:0:
496,280,82132,5,10,0:0:0:0:
384,232,82469,1,0,0:0:0:0:
256,192,82806,1,0,0:0:0:0:
256,64,83648,5,2,0:0:0:0:
136,64,83985,1,0,0:0:0:0:
16,64,84322,1,8,0:0:0:0:
16,280,84828,5,10,0:0:0:0:
128,232,85165,1,0,0:0:0:0:
256,192,85502,1,0,0:0:0:0:
384,112,86345,5,2,0:0:0:0:
256,112,86682,1,0,0:0:0:0:
128,112,87019,1,2,0:0:0:0:
128,336,87524,5,10,0:0:0:0:
256,336,87861,1,0,0:0:0:0:
384,336,88198,1,0,0:0:0:0:
64,48,89041,5,2,0:0:0:0:
144,160,89378,1,2,0:0:0:0:
224,272,89715,1,0,0:0:0:0:
448,48,90389,5,2,0:0:0:0:
368,160,90726,1,2,0:0:0:0:
288,272,91063,1,0,0:0:0:0:
256,144,91400,1,2,0:0:0:0:
376,40,91737,6,10,B|256:-16|136:40,2,246
496,176,93759,1,2,0:0:0:0:
368,176,94096,1,2,0:0:0:0:
256,96,94433,5,10,0:0:0:0:
256,224,94770,1,8,0:0:0:0:
256,368,95107,1,0,0:0:0:0:
16,352,95950,2,0,B|-56:160|136:112,1,307.5
256,88,97130,5,0,0:0:0:0:
256,192,97382,1,0,0:0:0:0:
336,352,97804,1,2,0:0:0:0:
496,352,98309,2,0,B|568:160|376:112,1,307.5
136,40,99826,6,10,B|256:-16|376:40,2,246
256,192,101848,1,2,0:0:0:0:
192,320,102185,1,8,0:0:0:0:
320,320,102522,1,0,0:0:0:0:
48,144,103196,5,0,0:0:0:0:
256,144,103702,1,0,0:0:0:0:
320,240,104039,1,2,0:0:0:0:
192,240,104376,1,2,0:0:0:0:
464,144,105892,5,0,0:0:0:0:
256,160,106398,1,0,0:0:0:0:
336,240,106735,1,2,0:0:0:0:
256,320,107072,1,0,0:0:0:0:
176,240,107409,1,2,0:0:0:0:
256,144,108589,5,0,0:0:0:0:
176,336,109094,1,0,0:0:0:0:
336,336,109431,1,2,0:0:0:0:
192,56,110274,5,2,0:0:0:0:
320,56,110611,1,2,0:0:0:0:
256,216,111116,1,2,0:0:0:0:
256,216,111453,1,2,0:0:0:0:
128,368,111959,2,0,B|384:368,1,246
256,180,112970,1,2,0:0:0:0:
256,180,113139,1,0,0:0:0:0:
464,120,124092,6,8,P|256:8|48:120,1,492
16,272,126114,1,0,0:0:0:0:
112,192,126451,1,2,0:0:0:0:
208,112,126788,1,2,0:0:0:0:
208,240,127125,1,0,0:0:0:0:
208,352,127462,1,8,0:0:0:0:
304,112,128473,5,2,0:0:0:0:
304,240,128810,1,2,0:0:0:0:
304,352,129147,1,10,0:0:0:0:
496,352,129485,6,8,B|536:272|504:224|536:176|496:112,1,246
320,112,130664,1,2,0:0:0:0:
192,112,131001,1,0,0:0:0:0:
336,352,131507,1,10,0:0:0:0:
192,352,131844,1,10,0:0:0:0:
16,352,132181,6,8,B|-24:272|8:224|-24:176|16:112,1,246
192,112,133360,1,2,0:0:0:0:
320,112,133697,1,0,0:0:0:0:
192,352,134203,1,10,0:0:0:0:
320,352,134540,1,2,0:0:0:0:
461,120,134877,6,8,B|376:-16|256:16|136:-16|40:128,1,492
16,272,136899,1,2,0:0:0:0:
112,192,137236,1,2,0:0:0:0:
208,112,137573,1,10,0:0:0:0:
208,240,137910,1,8,0:0:0:0:
208,352,138247,1,0,0:0:0:0:
304,112,138921,5,2,0:0:0:0:
304,240,139258,1,8,0:0:0:0:
304,352,139595,1,10,0:0:0:0:
496,352,140270,6,8,B|536:272|504:224|536:176|496:112,1,246
320,112,141449,1,2,0:0:0:0:
192,112,141786,1,0,0:0:0:0:
320,352,142292,1,10,0:0:0:0:
192,352,142629,1,10,0:0:0:0:
16,352,142966,6,8,B|-24:272|8:224|-24:176|16:112,1,246
192,112,144145,1,2,0:0:0:0:
320,112,144482,1,0,0:0:0:0:
192,352,144988,1,10,0:0:0:0:
320,352,145325,1,2,0:0:0:0:
448,224,145662,5,0,0:0:0:0:
320,224,145999,1,0,0:0:0:0:
192,224,146336,1,0,0:0:0:0:
64,224,146673,1,8,0:0:0:0:
192,16,147347,1,2,0:0:0:0:
320,16,147684,1,0,0:0:0:0:
64,144,148358,5,0,0:0:0:0:
192,144,148695,1,0,0:0:0:0:
320,144,149032,1,0,0:0:0:0:
448,144,149369,1,8,0:0:0:0:
320,336,150043,1,2,0:0:0:0:
192,336,150380,1,0,0:0:0:0:
256,192,151055,12,10,156279,0:0:0:0:
