osu file format v14

[General]
AudioFilename: audio.mp3
AudioLeadIn: 0
PreviewTime: 13781
Countdown: 0
SampleSet: Soft
StackLeniency: 1
Mode: 0
LetterboxInBreaks: 0
WidescreenStoryboard: 0

[Editor]
DistanceSpacing: 0.7
BeatDivisor: 4
GridSize: 8
TimelineZoom: 1.3

[Metadata]
Title:Underground River (opening version ft. Raj Ramayya)
TitleUnicode:Underground River (opening version ft. Raj Ramayya)
Artist:Kevin Penkin
ArtistUnicode:Kevin Penkin
Creator:Mishima Yurara
Version:Sulfur's Hadalpelagic
Source:メイドインアビス
Tags:Made in abyss Raj Ramayya opening insert episode 1 su1fu7 sulfur VINXIS
BeatmapID:1369385
BeatmapSetID:645628

[Difficulty]
HPDrainRate:6
CircleSize:4
OverallDifficulty:8
ApproachRate:8.2
SliderMultiplier:2.2
SliderTickRate:1

[Events]
//Background and Video events
Video,300,"Video.flv"
0,0,"19c41c0f-84a3-497e-c951-4e0669e457f7.jpg",0,0
//Break Periods
//Storyboard Layer 0 (Background)
//Storyboard Layer 1 (Fail)
//Storyboard Layer 2 (Pass)
//Storyboard Layer 3 (Foreground)
//Storyboard Sound Samples

[TimingPoints]
-156,500,4,2,1,40,1,0
3344,-125,4,2,1,40,0,0
3719,-125,4,2,1,5,0,0
3844,-125,4,2,1,40,0,0
4344,-125,4,2,1,5,0,0
4844,-125,4,2,1,40,0,0
5219,-125,4,2,1,5,0,0
5344,-125,4,2,1,40,0,0
5719,-125,4,2,1,5,0,0
5844,-125,4,2,1,40,0,0
6219,-125,4,2,1,5,0,0
6344,-125,4,2,1,40,0,0
6844,-125,4,2,1,5,0,0
7844,-125,4,2,1,40,0,0
9219,-125,4,2,1,5,0,0
9344,-125,4,2,1,40,0,0
9719,-125,4,2,1,5,0,0
9844,-125,4,2,1,40,0,0
10219,-125,4,2,1,5,0,0
10344,-125,4,2,1,40,0,0
10719,-125,4,2,1,5,0,0
10844,-125,4,2,1,40,0,0
11219,-125,4,2,1,5,0,0
11344,-125,4,2,1,40,0,0
11844,-125,4,2,1,5,0,0
12844,-125,4,2,1,40,0,0
70844,-111.111111111111,4,2,1,40,0,0
77844,-142.857142857143,4,2,1,40,0,0
81844,498.616339657451,4,2,1,40,1,0
81844,-125,4,2,1,40,0,0
85832,-111.111111111111,4,2,1,40,0,0
89821,501.043841336117,4,2,1,40,1,0
89821,-100,4,2,1,40,0,0
93829,-90.9090909090909,4,2,1,40,0,0
97837,-83.3333333333333,4,2,1,40,0,0
102096,-83.3333333333333,4,2,1,5,0,0

[Colours]
Combo1 : 223,175,32
Combo2 : 159,223,159
Combo3 : 207,142,112
Combo4 : 159,159,223

[HitObjects]
392,304,3344,6,0,P|398:250|466:190,1,132,0|0,0:0|0:0,0:0:0:0:
463,192,3844,6,0,P|405:187|301:261,1,176,2|0,0:0|0:0,0:0:0:0:
135,331,4844,2,0,P|110:283|25:252,1,132,0|0,0:0|0:0,0:0:0:0:
23,263,5344,2,0,P|79:250|178:295,1,132,2|0,0:0|0:0,0:0:0:0:
149,270,5844,6,0,P|214:274|277:255,1,132,0|0,0:0|0:0,0:0:0:0:
291,232,6344,2,0,P|222:259|119:251,1,176,2|0,0:0|0:0,0:0:0:0:
122,252,7844,5,2,0:0:0:0:
16,16,8844,2,0,P|52:64|60:168,1,132,0|0,0:0|0:0,0:0:0:0:
55,152,9344,2,0,P|122:138|207:157,1,132,2|0,0:0|0:0,0:0:0:0:
184,147,9844,6,0,P|254:132|336:161,1,132
327,161,10344,2,0,P|383:207|465:232,1,132,2|0,0:0|0:0,0:0:0:0:
438,227,10844,6,0,P|384:220|308:229,1,132,0|0,0:0|0:0,0:0:0:0:
290,254,11344,2,0,P|369:242|490:260,1,176,2|0,0:0|0:0,0:0:0:0:
464,252,12844,1,2,0:0:0:0:
25,115,13844,5,2,0:0:0:0:
155,148,14344,1,0,0:0:0:0:
277,88,14844,1,0,0:0:0:0:
277,88,15344,5,2,0:0:0:0:
181,195,15844,1,0,0:0:0:0:
44,240,16344,1,0,0:0:0:0:
15,96,16844,5,2,0:0:0:0:
25,115,17094,1,0,0:0:0:0:
35,134,17344,1,0,0:0:0:0:
189,27,17844,6,0,P|104:13|24:47,1,176,0|2,0:0|0:0,0:0:0:0:
368,16,19344,1,0,0:0:0:0:
264,32,19594,1,0,0:0:0:0:
290,147,19844,6,0,P|371:118|454:141,1,176,2|0,0:0|0:0,0:0:0:0:
458,265,20844,2,0,P|377:294|294:271,1,176,0|2,0:0|0:0,0:0:0:0:
157,175,21844,6,0,P|239:202|293:270,1,176,0|2,0:0|0:0,0:0:0:0:
80,336,23094,2,0,P|40:360|-8:368,2,88,0|0|0,0:0|0:0|0:0,0:0:0:0:
160,224,23844,6,0,P|188:129|268:66,2,176,2|0|0,0:0|0:0|0:0,0:0:0:0:
189,334,25094,1,0,0:0:0:0:
338,368,25344,2,0,P|379:354|423:356,1,88,2|0,0:0|0:0,0:0:0:0:
512,240,25844,6,0,L|393:247,1,88,0|0,0:0|0:0,0:0:0:0:
312,251,26344,1,2,0:0:0:0:
193,106,26844,6,0,B|191:148|191:148|209:224,1,88
312,251,27344,1,2,0:0:0:0:
201,192,28344,2,0,P|125:176|92:143,1,88
66,97,28844,1,2,0:0:0:0:
315,202,29594,5,0,0:0:0:0:
353,62,29844,2,0,L|337:237,1,176,6|0,1:2|3:0,0:0:0:0:
336,237,30469,1,0,3:0:0:0:
336,237,30594,1,0,3:0:0:0:
248,40,30844,2,0,L|240:127,1,88,10|0,0:0|0:0,0:0:0:0:
217,210,31344,2,0,P|237:165|236:107,1,88,0|0,0:0|0:0,0:0:0:0:
266,280,31844,6,0,P|247:239|216:210,1,88,2|0,0:0|0:0,0:0:0:0:
112,199,32344,2,0,P|51:187|15:164,1,88,0|0,0:0|0:0,0:0:0:0:
24,303,32844,2,0,P|92:300|200:352,1,176,0|2,0:0|3:2,0:0:0:0:
189,342,33469,1,0,3:2:0:0:
189,342,33594,1,0,3:2:0:0:
305,131,33844,6,0,L|286:338,1,176,0|2,1:0|0:0,0:0:0:0:
216,128,34844,1,8,0:0:0:0:
408,40,35344,2,0,P|456:48|495:76,1,88,0|0,0:0|0:0,0:0:0:0:
417,143,35844,2,0,P|359:151|237:231,2,176,0|2|0,0:0|0:0|0:0,0:0:0:0:
512,194,37094,1,0,0:0:0:0:
414,240,37344,2,0,P|376:284|360:336,1,88,0|0,0:0|0:0,0:0:0:0:
168,200,37844,6,0,L|255:207,1,88,0|0,1:0|0:0,0:0:0:0:
129,88,38344,2,0,P|65:64|41:40,1,88,2|0,3:2|0:0,0:0:0:0:
48,176,38844,2,0,P|58:218|55:262,1,88,8|0,0:0|0:0,0:0:0:0:
85,368,39344,2,0,P|117:337|156:318,1,88,2|0,0:0|0:0,0:0:0:0:
222,94,39844,6,0,L|230:181,1,88,2|0,1:2|0:0,0:0:0:0:
247,296,40344,2,0,B|296:308|333:289|333:289|376:269|420:283,2,176,2|0|2,0:0|0:0|0:0,0:0:0:0:
247,296,42344,5,2,0:0:0:0:
0,193,42844,2,0,B|53:161|53:161|172:167,1,176,8|2,0:0|0:0,0:0:0:0:
120,293,43594,1,0,3:0:0:0:
120,293,43719,1,0,3:0:0:0:
120,293,43844,6,0,L|21:290,1,88,0|0,1:0|0:0,0:0:0:0:
232,272,44344,2,0,P|302:290|335:325,1,88,2|0,0:0|0:0,0:0:0:0:
378,248,44844,2,0,P|307:202|208:193,1,176,8|2,0:0|0:0,0:0:0:0:
479,282,45844,6,0,P|489:237|486:177,1,88,0|0,1:0|0:0,0:0:0:0:
480,72,46344,2,0,B|387:50|401:115|295:85,1,176,2|8,0:0|0:0,0:0:0:0:
261,259,47344,2,0,P|310:233|366:226,1,88,2|0,0:0|0:0,0:0:0:0:
248,360,47844,6,0,B|172:348|172:348|69:287,1,176,0|2,1:0|0:0,0:0:0:0:
21,136,48844,2,0,L|173:232,1,176
352,52,49844,5,6,1:2:0:0:
204,71,50344,1,2,3:2:0:0:
359,218,50844,5,0,1:0:0:0:
211,199,51344,1,2,3:2:0:0:
427,134,51844,5,0,1:0:0:0:
408,282,52344,1,2,3:2:0:0:
211,199,52844,5,0,1:0:0:0:
192,347,53344,1,2,3:2:0:0:
139,235,53594,1,0,0:0:0:0:
139,235,53719,1,0,0:0:0:0:
139,235,53844,5,0,1:0:0:0:
270,263,54344,1,2,3:2:0:0:
105,253,54844,5,0,1:0:0:0:
253,272,55344,1,2,3:2:0:0:
88,262,55844,5,0,1:0:0:0:
335,358,56344,2,0,P|345:306|345:248,1,88,2|0,3:2|0:0,0:0:0:0:
344,161,56844,2,0,P|258:137|143:149,1,176,2|2,3:2|3:2,0:0:0:0:
9,237,57844,6,0,B|-15:153|-15:153|10:62,1,176,2|0,1:2|0:0,0:0:0:0:
8,67,58469,1,0,3:0:0:0:
8,67,58594,1,0,1:0:0:0:
173,142,58844,2,0,P|229:158|357:134,1,176,8|2,0:0|0:0,0:0:0:0:
432,65,59594,1,0,0:0:0:0:
357,130,59844,5,0,0:0:0:0:
357,130,60344,1,2,0:0:0:0:
257,108,60594,1,0,0:0:0:0:
257,108,60844,2,0,P|214:114|171:106,1,88,0|0,0:0|0:0,0:0:0:0:
97,44,61344,1,2,3:2:0:0:
97,44,61469,1,0,3:2:0:0:
97,44,61594,1,0,3:2:0:0:
223,25,61844,6,0,P|266:18|309:26,1,88,0|0,1:0|0:1,0:0:0:0:
379,99,62344,1,2,0:0:0:0:
435,21,62594,1,0,1:0:0:0:
347,105,62844,2,0,P|317:185|342:308,1,176,8|2,0:0|0:0,0:0:0:0:
494,363,63844,6,0,P|395:337|307:360,1,176,2|0,0:0|0:0,0:0:0:0:
244,201,64844,2,0,P|259:267|331:356,1,176,0|0,0:0|0:0,0:0:0:0:
439,342,65594,1,0,1:0:0:0:
296,346,65844,6,0,L|100:315,1,176,0|2,1:0|3:2,0:0:0:0:
122,318,66469,1,0,3:2:0:0:
122,318,66594,1,0,3:2:0:0:
191,214,66844,2,0,P|191:148|171:85,1,132,8|0,0:0|0:0,0:0:0:0:
153,83,67344,2,0,P|204:85|291:43,1,132,2|0,0:0|0:0,0:0:0:0:
287,39,67844,5,0,0:0:0:0:
280,164,68094,1,0,0:0:0:0:
392,108,68344,5,2,0:0:0:0:
385,234,68594,1,0,0:0:0:0:
280,164,68844,5,8,0:0:0:0:
273,290,69094,1,0,0:0:0:0:
385,234,69344,5,2,0:0:0:0:
379,360,69594,1,0,0:0:0:0:
273,290,69844,5,6,1:2:0:0:
273,290,70094,1,0,1:0:0:0:
379,360,70344,2,0,L|291:368,1,88,2|0,0:0|0:0,0:0:0:0:
152,344,70844,6,0,P|70:289|24:202,2,197.99999395752,0|2|0,0:0|0:0|0:0,0:0:0:0:
360,344,72344,2,0,P|441:289|487:202,2,197.99999395752,2|0|2,0:0|0:0|0:0,0:0:0:0:
256,136,73844,5,0,0:0:0:0:
256,192,73969,12,0,77344,0:0:0:0:
296,144,77844,5,2,0:0:0:0:
216,240,78344,1,0,0:0:0:0:
216,240,78594,1,2,0:0:0:0:
292,233,79594,1,0,0:0:0:0:
292,233,79844,6,0,L|196:241,2,76.9999976501466,2|0|2,0:0|0:0|0:0,0:0:0:0:
379,226,80594,1,0,0:0:0:0:
304,320,80844,1,2,0:0:0:0:
312,336,81094,1,0,0:0:0:0:
423,338,81344,1,2,0:0:0:0:
415,354,81594,1,0,0:0:0:0:
472,192,81844,5,6,0:0:0:0:
472,208,81968,1,0,0:0:0:0:
472,224,82093,1,0,0:0:0:0:
392,112,82342,1,0,0:0:0:0:
472,240,82591,1,0,0:0:0:0:
400,128,82841,1,0,0:0:0:0:
296,160,83090,1,0,0:0:0:0:
191,127,83339,2,0,P|183:85|196:41,1,88,0|0,0:0|0:0,0:0:0:0:
168,152,83838,5,2,0:0:0:0:
153,147,83963,1,0,0:0:0:0:
136,152,84087,1,0,0:0:0:0:
256,88,84337,1,0,0:0:0:0:
124,156,84586,1,0,0:0:0:0:
240,96,84835,2,0,P|255:142|248:183,1,88
184,296,85334,2,0,P|169:250|176:209,1,88
108,327,85832,5,2,0:0:0:0:
142,323,85957,1,0,0:0:0:0:
174,319,86082,1,0,0:0:0:0:
256,240,86331,1,0,0:0:0:0:
205,317,86580,1,0,0:0:0:0:
430,279,86830,5,2,0:0:0:0:
397,290,86954,1,0,0:0:0:0:
362,290,87079,1,0,0:0:0:0:
307,163,87328,1,0,0:0:0:0:
328,282,87578,1,0,0:0:0:0:
100,136,87827,5,2,0:0:0:0:
127,124,87952,1,0,0:0:0:0:
161,128,88076,1,0,0:0:0:0:
256,240,88326,1,0,0:0:0:0:
188,138,88575,1,0,0:0:0:0:
359,54,88824,5,2,0:0:0:0:
370,86,88949,1,0,0:0:0:0:
367,120,89073,1,0,0:0:0:0:
294,239,89323,2,0,P|288:302|316:357,1,98.9999969787599,0|0,0:0|0:0,0:0:0:0:
299,334,89821,6,0,L|172:323,1,110,2|0,0:0|0:0,0:0:0:0:
189,324,90322,2,0,L|184:387,1,55,2|0,0:0|0:0,0:0:0:0:
78,335,90572,2,0,L|24:340,1,55,0|0,0:0|0:0,0:0:0:0:
106,230,90823,2,0,P|80:295|81:357,1,110,2|0,0:0|0:0,0:0:0:0:
106,230,91324,6,0,P|97:196|98:134,1,55,2|0,0:0|0:0,0:0:0:0:
224,96,91574,2,0,P|190:105|128:104,1,55,0|0,0:0|0:0,0:0:0:0:
109,20,91825,2,0,P|165:85|166:148,1,110,2|0,0:0|0:0,0:0:0:0:
108,19,92326,2,0,P|136:22|162:13,1,55,2|0,0:0|0:0,0:0:0:0:
309,100,92576,2,0,P|308:72|295:49,1,55,0|0,0:0|0:0,0:0:0:0:
394,167,92827,5,2,0:0:0:0:
363,164,92952,1,0,0:0:0:0:
334,169,93077,1,0,0:0:0:0:
306,181,93203,1,0,0:0:0:0:
285,196,93328,2,0,P|271:230|248:257,1,55,2|0,0:0|0:0,0:0:0:0:
168,286,93578,2,0,P|190:308|205:340,1,55,2|0,0:0|0:0,0:0:0:0:
431,329,93829,5,2,0:0:0:0:
400,326,93954,1,0,0:0:0:0:
371,331,94079,1,0,0:0:0:0:
343,343,94205,1,0,0:0:0:0:
313,374,94330,2,0,L|302:287,1,60.5000018463135,2|0,0:0|0:0,0:0:0:0:
368,260,94580,2,0,L|379:173,1,60.5000018463135,2|0,0:0|0:0,0:0:0:0:
108,246,94831,5,2,0:0:0:0:
138,251,94956,1,0,0:0:0:0:
165,263,95081,1,0,0:0:0:0:
189,282,95207,1,0,0:0:0:0:
201,328,95332,2,0,P|198:293|212:241,1,60.5000018463135,2|0,0:0|0:0,0:0:0:0:
234,192,95583,2,0,P|233:156|213:106,1,60.5000018463135,2|0,0:0|0:0,0:0:0:0:
512,132,95833,5,2,0:0:0:0:
484,144,95958,1,0,0:0:0:0:
461,163,96084,1,0,0:0:0:0:
443,187,96209,1,0,0:0:0:0:
443,235,96334,2,0,P|437:202|389:165,1,60.5000018463135,2|0,0:0|0:0,0:0:0:0:
327,190,96585,2,0,P|317:153|335:102,1,60.5000018463135,2|0,0:0|0:0,0:0:0:0:
71,89,96835,5,2,0:0:0:0:
94,107,96960,1,0,0:0:0:0:
112,132,97086,1,0,0:0:0:0:
123,159,97211,1,0,0:0:0:0:
110,206,97336,2,0,P|121:174|179:152,1,60.5000018463135,2|0,0:0|0:0,0:0:0:0:
226,131,97587,2,0,P|229:100|215:76,1,60.5000018463135,2|0,0:0|0:0,0:0:0:0:
476,57,97837,5,2,0:0:0:0:
458,80,97962,1,0,0:0:0:0:
447,109,98088,1,2,0:0:0:0:
443,138,98213,1,0,0:0:0:0:
468,180,98338,2,0,P|450:157|406:163,1,65.9999979858399,2|0,0:0|0:0,0:0:0:0:
319,131,98589,2,0,P|301:107|318:66,1,65.9999979858399,2|0,0:0|0:0,0:0:0:0:
31,29,98839,5,2,0:0:0:0:
42,55,98965,1,0,0:0:0:0:
45,86,99090,1,2,0:0:0:0:
41,115,99215,1,0,0:0:0:0:
6,149,99340,2,0,L|92:75,1,65.9999979858399,2|0,0:0|0:0,0:0:0:0:
189,74,99591,2,0,L|103:0,1,65.9999979858399,2|0,0:0|0:0,0:0:0:0:
457,22,99841,5,2,0:0:0:0:
453,49,99967,1,0,0:0:0:0:
458,80,100092,1,0,0:0:0:0:
469,107,100217,1,0,0:0:0:0:
512,131,100342,2,0,P|476:126|409:81,1,65.9999979858399,2|0,0:0|0:0,0:0:0:0:
316,106,100593,2,0,P|333:71|379:12,1,65.9999979858399,2|0,0:0|0:0,0:0:0:0:
55,22,100843,5,2,0:0:0:0:
59,49,100969,1,0,0:0:0:0:
54,80,101094,1,0,0:0:0:0:
43,107,101219,1,0,0:0:0:0:
1,125,101345,2,0,P|37:120|104:75,1,65.9999979858399,2|0,0:0|0:0,0:0:0:0:
195,104,101595,2,0,P|184:72|167:44,1,65.9999979858399,2|0,0:0|0:0,0:0:0:0:
85,223,101846,6,0,L|252:279,1,131.99999597168,6|0,0:0|0:0,0:0:0:0:
