osu file format v14

[General]
AudioFilename: audio.mp3
AudioLeadIn: 0
PreviewTime: 13781
Countdown: 0
SampleSet: Soft
StackLeniency: 0.7
Mode: 0
LetterboxInBreaks: 0
WidescreenStoryboard: 0

[Editor]
DistanceSpacing: 1
BeatDivisor: 8
GridSize: 8
TimelineZoom: 1

[Metadata]
Title:Underground River (opening version ft. Raj Ramayya)
TitleUnicode:Underground River (opening version ft. Raj Ramayya)
Artist:Kevin Penkin
ArtistUnicode:Kevin Penkin
Creator:Mishima Yurara
Version:Mesopelagic
Source:メイドインアビス
Tags:Made in abyss Raj Ramayya opening insert episode 1 su1fu7 sulfur VINXIS
BeatmapID:1369082
BeatmapSetID:645628

[Difficulty]
HPDrainRate:3
CircleSize:3
OverallDifficulty:4
ApproachRate:4
SliderMultiplier:1.6
SliderTickRate:1

[Events]
//Background and Video events
Video,300,"Video.flv"
0,0,"19c41c0f-84a3-497e-c951-4e0669e457f7.jpg",0,0
//Break Periods
2,75844,80344
//Storyboard Layer 0 (Background)
//Storyboard Layer 1 (Fail)
//Storyboard Layer 2 (Pass)
//Storyboard Layer 3 (Foreground)
//Storyboard Sound Samples

[TimingPoints]
-156,500,4,2,1,40,1,0
81844,498.616339657451,4,2,1,40,1,0
89821,501.043841336117,4,2,1,40,1,0

[Colours]
Combo1 : 223,175,32
Combo2 : 159,223,159
Combo3 : 207,142,112
Combo4 : 159,159,223

[HitObjects]
256,192,344,12,0,12844,0:0:0:0:
351,269,13844,6,0,P|377:221|386:109,2,160,2|2|0,0:0|0:0|0:0,0:0:0:0:
211,346,15344,1,2,0:0:0:0:
93,237,15844,1,2,0:0:0:0:
245,187,16344,1,0,0:0:0:0:
130,81,16844,2,0,L|92:240,1,160,2|2,0:0|0:0,0:0:0:0:
326,338,19344,5,2,0:0:0:0:
443,229,19844,2,0,P|456:167|456:62,1,160,2|0,0:0|0:0,0:0:0:0:
300,34,20844,2,0,L|129:49,1,160,2|2,0:0|0:0,0:0:0:0:
111,301,23094,6,0,L|92:223,2,80,0|2|0,0:0|0:0|0:0,0:0:0:0:
130,378,23844,1,2,0:0:0:0:
246,268,24344,1,0,0:0:0:0:
130,156,24844,1,2,0:0:0:0:
38,28,25344,1,2,0:0:0:0:
194,60,25844,6,0,P|262:81|354:65,1,160,2|0,0:0|0:0,0:0:0:0:
323,227,26844,2,0,P|244:212|168:234,1,160,2|2,0:0|0:0,0:0:0:0:
463,108,28344,6,0,L|473:278,1,160,2|2,0:0|0:0,0:0:0:0:
233,238,29594,1,0,0:0:0:0:
233,238,29844,6,0,P|190:230|93:150,2,160,2|0|8,1:2|0:0|0:0,0:0:0:0:
304,381,31344,1,0,0:0:0:0:
365,233,31844,2,0,P|433:193|512:191,2,160
362,312,33094,1,0,0:0:0:0:
413,373,33344,1,0,0:0:0:0:
259,327,33844,6,0,L|101:356,2,160,2|0|8,1:2|0:0|0:0,0:0:0:0:
418,326,35344,2,0,P|423:275|422:244,1,80
357,199,35844,2,0,P|351:150|360:35,2,160
430,231,37094,1,0,0:0:0:0:
501,195,37344,1,0,0:0:0:0:
497,35,37844,5,2,1:2:0:0:
340,2,38344,1,0,0:0:0:0:
195,70,38844,2,0,P|148:60|113:40,2,80,8|0|0,0:0|0:0|0:0,0:0:0:0:
344,128,39844,2,0,P|391:118|426:98,2,80,0|0|0,1:2|0:0|0:0,0:0:0:0:
193,182,40844,1,0,0:0:0:0:
243,334,41344,1,0,0:0:0:0:
88,290,41844,6,0,B|76:228|76:228|82:190|82:190|72:126,2,160,2|0|8,0:0|0:0|0:0,0:0:0:0:
228,212,43344,1,0,0:0:0:0:
373,278,43844,1,0,1:0:0:0:
501,183,44344,2,0,L|509:20,1,160,0|8,0:0|0:0,0:0:0:0:
430,6,45094,1,0,0:0:0:0:
358,41,45344,1,0,0:0:0:0:
198,27,45844,6,0,L|176:111,1,80,2|0,1:2|0:0,0:0:0:0:
181,184,46344,2,0,L|195:348,2,160,0|8|0,0:0|0:0|0:0,0:0:0:0:
106,155,47594,1,0,0:0:0:0:
31,191,47844,6,0,P|26:132|48:31,2,160,2|0|0,1:2|0:0|0:0,0:0:0:0:
84,250,49094,1,0,0:0:0:0:
157,280,49344,2,0,L|316:256,1,160,0|6,0:0|1:2,0:0:0:0:
89,29,50844,5,0,1:0:0:0:
168,167,51344,1,0,0:0:0:0:
278,50,51844,1,0,1:0:0:0:
305,207,52344,1,0,0:0:0:0:
430,107,52844,1,0,1:0:0:0:
435,266,53344,1,0,0:0:0:0:
296,345,53844,6,0,L|126:326,1,160,2|0,1:2|0:0,0:0:0:0:
130,167,54844,2,0,L|289:184,2,160,0|0|0,1:0|0:0|0:0,0:0:0:0:
422,297,56844,2,0,P|467:244|461:141,1,160
342,57,57844,6,0,P|305:57|214:137,1,160,6|0,1:2|0:0,0:0:0:0:
193,209,58594,1,0,1:0:0:0:
121,244,58844,1,8,0:0:0:0:
260,322,59344,2,0,L|348:304,2,80
20,311,60594,1,0,0:0:0:0:
20,311,60844,2,0,L|30:217,1,80
95,187,61344,2,0,L|134:27,1,160,0|2,0:0|1:2,0:0:0:0:
292,23,62344,6,0,L|377:35,2,80,0|0|8,0:0|1:0|0:0,0:0:0:0:
248,336,63844,2,0,P|287:299|300:121,1,240,2|0,0:0|0:0,0:0:0:0:
228,89,64844,2,0,P|184:112|127:283,1,240,2|0,0:0|1:0,0:0:0:0:
171,347,65844,5,2,1:2:0:0:
434,164,66844,2,0,L|444:-4,1,160,8|0,0:0|0:0,0:0:0:0:
288,59,67844,6,0,P|249:60|210:69,1,80
214,149,68344,2,0,P|252:157|292:157,1,80
372,168,68844,2,0,L|382:248,1,80,8|0,0:0|0:0,0:0:0:0:
302,260,69344,2,0,L|292:340,1,80
212,345,69844,5,6,1:2:0:0:
212,345,70094,1,0,1:0:0:0:
256,192,70844,12,2,73844,0:0:0:0:
191,110,81844,6,0,P|244:98|352:109,1,160,6|0,0:0|0:0,0:0:0:0:
350,268,82841,2,0,P|271:279|192:265,1,160,2|0,0:0|0:0,0:0:0:0:
62,172,83838,6,0,L|88:15,2,160,2|0|2,0:0|0:0|0:0,0:0:0:0:
92,329,85334,1,0,0:0:0:0:
250,350,85832,6,0,B|316:343|316:343|419:352,1,160,2|0,0:0|0:0,0:0:0:0:
506,224,86830,2,0,B|440:231|440:231|337:222,1,160,2|0,0:0|0:0,0:0:0:0:
195,169,87827,6,0,B|180:125|188:91|188:91|199:50|186:2,2,160,2|0|2,0:0|0:0|0:0,0:0:0:0:
117,309,89323,1,0,0:0:0:0:
43,166,89821,5,2,0:0:0:0:
197,208,90322,1,2,0:0:0:0:
322,109,90823,1,2,0:0:0:0:
473,159,91324,1,2,0:0:0:0:
379,288,91825,6,2,L|399:122,1,160
262,44,92827,2,2,L|242:202,1,160
256,192,93829,12,6,101846,0:0:0:0:
