osu file format v14

[General]
AudioFilename: audio.mp3
AudioLeadIn: 0
PreviewTime: 34314
Countdown: 0
SampleSet: Soft
StackLeniency: 0.3
Mode: 0
LetterboxInBreaks: 0
WidescreenStoryboard: 0

[Editor]
DistanceSpacing: 1
BeatDivisor: 4
GridSize: 32
TimelineZoom: 2.5

[Metadata]
Title:The First Layer
TitleUnicode:The First Layer
Artist:Kevin Penkin
ArtistUnicode:Kevin Penkin
Creator:Mordred
Version:Scarlet Maw
Source:メイドインアビス
Tags:ost soundtrack instrumental anime made in abyss amb1d3x hishiro chizuru
BeatmapID:2013044
BeatmapSetID:961620

[Difficulty]
HPDrainRate:7
CircleSize:7
OverallDifficulty:7
ApproachRate:7
SliderMultiplier:1.00000000596047
SliderTickRate:1

[Events]
//Background and Video events
0,0,"bg.png",0,0
//Break Periods
//Storyboard Layer 0 (Background)
//Storyboard Layer 1 (Fail)
//Storyboard Layer 2 (Pass)
//Storyboard Layer 3 (Foreground)
//Storyboard Sound Samples

[TimingPoints]
520,352.941176470588,3,2,1,60,1,0
520,-200,3,2,1,20,0,0
872,-200,3,2,1,10,0,0
1578,-200,3,2,1,20,0,0
1931,-200,3,2,1,10,0,0
2637,-200,3,2,1,20,0,0
2990,-200,3,2,1,10,0,0
3696,-200,3,2,1,20,0,0
4049,-200,3,2,1,10,0,0
4755,-200,3,2,1,20,0,0
5108,-200,3,2,1,10,0,0
5814,-200,3,2,1,20,0,0
6167,-200,3,2,1,10,0,0
6872,-200,3,2,1,20,0,0
7225,-200,3,2,1,10,0,0
7931,-200,3,2,1,20,0,0
8284,-200,3,2,1,10,0,0
8990,-200,3,2,1,20,0,0
9343,-200,3,2,1,10,0,0
10049,-200,3,2,1,20,0,0
10402,-200,3,2,1,10,0,0
11108,-200,3,2,1,20,0,0
11461,-200,3,2,1,10,0,0
12167,-200,3,2,1,20,0,0
12519,-200,3,2,1,10,0,0
13225,-200,3,2,1,20,0,0
13578,-200,3,2,1,10,0,0
14284,-200,3,2,1,20,0,0
14637,-200,3,2,1,10,0,0
15343,-200,3,2,1,20,0,0
15696,-200,3,2,1,10,0,0
16402,-200,3,2,1,20,0,0
16755,-200,3,2,1,10,0,0
17461,-166.666666666667,3,2,1,20,0,0
17814,-166.666666666667,3,2,1,5,0,0
17990,-166.666666666667,3,2,1,20,0,0
18519,-166.666666666667,3,2,1,25,0,0
19578,-166.666666666667,3,2,1,30,0,0
19931,-166.666666666667,3,2,1,25,0,0
20284,-166.666666666667,3,2,1,30,0,0
20637,-166.666666666667,3,2,1,20,0,0
20990,-166.666666666667,3,2,1,10,0,0
21696,-166.666666666667,3,2,1,25,0,0
22049,-166.666666666667,3,2,1,5,0,0
22225,-166.666666666667,3,2,1,25,0,0
22755,-166.666666666667,3,2,1,30,0,0
23814,-166.666666666667,3,2,1,35,0,0
24872,-166.666666666667,3,2,1,30,0,0
25578,-166.666666666667,3,2,1,25,0,0
25931,-166.666666666667,3,2,1,20,0,0
26284,-166.666666666667,3,2,1,5,0,0
26461,-166.666666666667,3,2,1,20,0,0
26990,-166.666666666667,3,2,1,25,0,0
28049,-166.666666666667,3,2,1,30,0,0
29108,-166.666666666667,3,2,1,20,0,0
29461,-166.666666666667,3,2,1,10,0,0
29990,-166.666666666667,3,2,1,20,0,0
30519,-166.666666666667,3,2,1,5,0,0
30696,-166.666666666667,3,2,1,20,0,0
31578,-166.666666666667,3,2,1,5,0,0
31755,-166.666666666667,3,2,1,20,0,0
32637,-166.666666666667,3,2,1,5,0,0
32814,-166.666666666667,3,2,1,20,0,0
32990,-166.666666666667,3,2,1,25,0,0
33167,-166.666666666667,3,2,1,30,0,0
33343,-166.666666666667,3,2,1,35,0,0
33696,-166.666666666667,3,2,1,25,0,0
34049,-166.666666666667,3,2,1,20,0,0
34402,-125,3,2,1,30,0,1
35461,-125,3,2,1,35,0,1
36519,-125,3,2,1,40,0,1
37578,-125,3,2,1,30,0,1
37931,-125,3,2,1,20,0,1
38637,-125,3,2,1,30,0,1
39696,-125,3,2,1,35,0,1
40755,-125,3,2,1,40,0,1
41108,-125,3,2,1,45,0,1
41461,-125,3,2,1,50,0,1
41814,-125,3,2,1,45,0,1
42167,-125,3,2,1,40,0,1
42519,-125,3,2,1,35,0,1
42872,-125,3,2,1,30,0,1
43931,-125,3,2,1,35,0,1
44990,-125,3,2,1,40,0,1
45343,-125,3,2,1,35,0,1
45696,-125,3,2,1,30,0,1
46049,-125,3,2,1,25,0,1
46402,-125,3,2,1,20,0,1
47108,-125,3,2,1,30,0,1
47461,-125,3,2,1,10,0,1
47637,-125,3,2,1,30,0,1
48167,-125,3,2,1,35,0,1
48519,-125,3,2,1,25,0,1
49225,-125,3,2,1,35,0,1
49578,-125,3,2,1,20,0,1
49755,-125,3,2,1,25,0,1
49931,-125,3,2,1,30,0,1
50108,-125,3,2,1,35,0,1
50284,-125,3,2,1,40,0,1
50637,-125,3,2,1,30,0,1
50990,-125,3,2,1,20,0,1
51343,-142.857142857143,3,2,1,20,0,0
52402,-142.857142857143,3,2,1,30,0,0
52931,-142.857142857143,3,2,1,10,0,0
55931,-142.857142857143,3,2,1,15,0,0
56284,-142.857142857143,3,2,1,20,0,0
56637,-142.857142857143,3,2,1,25,0,0
57696,-142.857142857143,3,2,1,20,0,0
58049,-142.857142857143,3,2,1,15,0,0
58755,-142.857142857143,3,2,1,10,0,0
59814,-142.857142857143,3,2,1,20,0,0
60872,-142.857142857143,3,2,1,30,0,0
61225,-142.857142857143,3,2,1,10,0,0
61931,-142.857142857143,3,2,1,15,0,0
64049,-142.857142857143,3,2,1,20,0,0
64931,-142.857142857143,3,2,1,30,0,0
65461,-142.857142857143,3,2,1,20,0,0
66167,-142.857142857143,3,2,1,15,0,0
67225,-142.857142857143,3,2,1,10,0,0
68284,-142.857142857143,3,2,1,20,0,0
69343,-142.857142857143,3,2,1,30,0,0
71990,-142.857142857143,3,2,1,40,0,0
72167,-142.857142857143,3,2,1,20,0,0
72519,-142.857142857143,3,2,1,30,0,0
76755,-142.857142857143,3,2,1,20,0,0
78872,-142.857142857143,3,2,1,25,0,0
80990,-142.857142857143,3,2,1,30,0,0
83108,-142.857142857143,3,2,1,35,0,0
85225,-142.857142857143,3,2,1,20,0,0
86284,-142.857142857143,3,2,1,15,0,0
87343,-142.857142857143,3,2,1,20,0,0
88402,-153.846153846154,3,2,1,20,0,0
89461,-166.666666666667,3,2,1,15,0,0
90519,-200,3,2,1,15,0,0
91578,-117.64705882353,3,2,1,10,0,0
92637,-125,3,2,1,10,0,0
93696,-111.111111111111,3,2,1,15,0,0
95814,-111.111111111111,3,2,1,20,0,0
96872,-111.111111111111,3,2,1,15,0,0
100049,-111.111111111111,3,2,1,20,0,0
100402,-111.111111111111,3,2,1,25,0,0
100755,-111.111111111111,3,2,1,30,0,0
101108,-111.111111111111,3,2,1,25,0,0
101461,-111.111111111111,3,2,1,20,0,0
102167,-111.111111111111,3,2,1,15,0,0
104284,-111.111111111111,3,2,1,20,0,0
105343,-111.111111111111,3,2,1,15,0,0
109578,-111.111111111111,3,2,1,30,0,0
109931,-111.111111111111,3,2,1,25,0,0
110284,-111.111111111111,3,2,1,20,0,0
110637,-111.111111111111,3,2,1,15,0,0

[Colours]
Combo1 : 255,159,113
Combo2 : 255,128,128

[HitObjects]
28,184,520,6,0,L|23:130,2,50.0000001490117,2|0|0,0:2|0:2|0:2,0:2:0:0:
57,262,1578,2,0,L|52:316,2,50.0000001490117,2|0|0,0:2|0:2|0:2,0:2:0:0:
165,134,2637,5,2,0:2:0:0:
194,212,2990,1,0,0:2:0:0:
111,198,3343,1,0,0:2:0:0:
277,226,3696,5,2,0:2:0:0:
299,285,4049,1,0,0:2:0:0:
340,237,4402,1,0,0:2:0:0:
236,274,4755,6,0,L|182:279,2,50.0000001490117,2|0|0,0:2|0:2|0:2,0:2:0:0:
362,296,5814,2,0,L|416:301,2,50.0000001490117,2|0|0,0:2|0:2|0:2,0:2:0:0:
192,384,6872,5,2,0:2:0:0:
191,369,7225,1,0,0:2:0:0:
190,354,7578,1,0,0:2:0:0:
299,285,7931,5,2,0:2:0:0:
298,300,8284,1,0,0:2:0:0:
297,315,8637,1,0,0:2:0:0:
405,384,8990,5,2,0:2:0:0:
405,384,9343,2,0,L|469:380,1,50.0000001490117,0|0,0:2|0:2,0:2:0:0:
512,288,10049,5,2,0:2:0:0:
512,288,10402,2,0,L|448:284,1,50.0000001490117,0|0,0:2|0:2,0:2:0:0:
348,234,11108,5,2,0:2:0:0:
387,117,11461,1,0,0:2:0:0:
426,195,11814,1,0,0:2:0:0:
271,273,12167,5,2,0:2:0:0:
296,349,12520,1,0,0:2:0:0:
245,324,12873,1,0,0:2:0:0:
44,308,13225,5,2,0:2:0:0:
33,242,13578,1,0,0:2:0:0:
23,176,13931,1,0,0:2:0:0:
110,35,14284,5,2,0:2:0:0:
99,100,14637,1,0,0:2:0:0:
89,166,14990,1,0,0:2:0:0:
121,363,15343,5,2,0:2:0:0:
186,352,15696,1,0,0:2:0:0:
252,342,16049,1,0,0:2:0:0:
411,216,16402,5,2,0:2:0:0:
280,195,16755,1,0,0:2:0:0:
345,206,17108,1,0,0:2:0:0:
497,96,17461,6,0,L|503:33,1,59.9999983477595,2|0,3:2|0:2,0:2:0:0:
459,0,17990,1,2,0:2:0:0:
445,127,18167,1,2,0:2:0:0:
342,51,18519,5,2,0:2:0:0:
232,101,18872,1,2,0:2:0:0:
220,221,19225,1,2,0:2:0:0:
427,241,19578,5,2,0:2:0:0:
445,127,19931,1,2,0:2:0:0:
317,291,20284,1,2,0:2:0:0:
445,127,20637,6,0,L|451:64,2,59.9999983477595,2|0|0,0:2|0:2|0:2,0:2:0:0:
220,221,21696,6,0,L|157:227,1,59.9999983477595,2|0,3:2|0:2,0:2:0:0:
124,183,22225,1,2,0:2:0:0:
252,173,22402,1,2,0:2:0:0:
196,288,22755,5,2,0:2:0:0:
124,183,23108,1,2,0:2:0:0:
70,298,23461,1,2,0:2:0:0:
252,173,23814,5,2,0:2:0:0:
448,268,24167,1,2,0:2:0:0:
433,51,24519,1,2,0:2:0:0:
351,221,24872,5,2,0:2:0:0:
343,112,25225,1,2,0:2:0:0:
441,160,25578,1,2,0:2:0:0:
347,167,25755,1,2,0:2:0:0:
252,173,25931,6,0,L|189:167,1,59.9999983477595,2|0,3:2|0:2,0:2:0:0:
150,128,26461,1,2,0:2:0:0:
96,256,26637,1,2,0:2:0:0:
32,32,26990,5,2,0:2:0:0:
150,128,27343,1,2,0:2:0:0:
245,10,27696,1,2,0:2:0:0:
268,224,28049,5,2,0:2:0:0:
150,128,28402,1,2,0:2:0:0:
55,246,28755,1,2,0:2:0:0:
262,283,29108,6,0,L|268:224,2,59.9999983477595,2|0|0,0:2|0:2|0:2,0:2:0:0:
230,336,29990,1,2,0:2:0:0:
323,262,30167,6,0,L|328:202,1,59.9999983477595,2|0,3:2|0:2,0:2:0:0:
360,149,30696,1,2,0:2:0:0:
384,288,30872,1,2,0:2:0:0:
480,32,31225,6,0,L|420:37,1,59.9999983477595,2|0,0:2|0:2,0:2:0:0:
368,16,31755,1,2,0:2:0:0:
298,147,31931,1,2,0:2:0:0:
160,32,32284,6,0,L|100:26,1,59.9999983477595,2|0,3:2|0:2,0:2:0:0:
48,48,32814,1,2,0:2:0:0:
32,128,32990,1,2,0:2:0:0:
16,208,33167,1,2,0:2:0:0:
0,288,33343,5,2,0:2:0:0:
16,208,33696,1,2,0:2:0:0:
32,128,34049,1,2,0:2:0:0:
272,16,34402,5,2,3:2:0:0:
272,16,34755,1,0,0:2:0:0:
347,47,34931,1,0,0:2:0:0:
241,91,35108,1,2,0:2:0:0:
422,78,35461,5,2,3:2:0:0:
422,78,35814,1,0,0:2:0:0:
391,153,35990,1,0,0:2:0:0:
497,109,36167,1,2,0:2:0:0:
287,189,36519,5,2,3:2:0:0:
160,64,36872,2,0,L|106:60,1,40.0000001192094,2|0,0:2|0:2,0:2:0:0:
48,80,37225,1,2,0:2:0:0:
0,256,37578,5,2,3:2:0:0:
128,183,37931,2,0,L|130:143,2,40.0000001192094,2|0|2,0:2|0:2|0:2,0:2:0:0:
256,384,38637,5,2,3:2:0:0:
256,384,38990,1,0,0:2:0:0:
192,320,39167,1,0,0:2:0:0:
64,352,39343,1,2,0:2:0:0:
0,128,39696,5,2,3:2:0:0:
0,128,40049,1,0,0:2:0:0:
64,64,40226,1,0,0:2:0:0:
192,96,40402,1,2,0:2:0:0:
448,0,40755,5,2,3:2:0:0:
512,224,41108,1,2,0:2:0:0:
288,288,41461,1,2,0:2:0:0:
224,64,41814,1,2,3:2:0:0:
448,0,42167,2,0,L|454:49,1,40.0000001192094,2|0,0:2|0:2,0:2:0:0:
432,144,42519,1,2,0:2:0:0:
496,93,42696,1,2,0:2:0:0:
512,224,42872,5,2,3:2:0:0:
512,224,43225,1,0,0:2:0:0:
448,288,43402,1,0,0:2:0:0:
432,144,43578,1,2,0:2:0:0:
256,384,43931,5,2,3:2:0:0:
256,384,44284,1,0,0:2:0:0:
192,320,44461,1,0,0:2:0:0:
336,304,44637,1,2,0:2:0:0:
96,384,44990,5,2,3:2:0:0:
0,288,45343,2,0,L|3:232,1,40.0000001192094,2|0,0:2|0:2,0:2:0:0:
32,192,45696,1,2,0:2:0:0:
0,0,46049,1,2,3:2:0:0:
75,87,46402,2,0,L|114:91,1,40.0000001192094,0|0,0:2|0:2,0:2:0:0:
174,182,46755,2,0,L|134:186,1,40.0000001192094,0|0,0:2|0:2,0:2:0:0:
0,288,47108,6,0,L|79:297,1,80.0000002384188,2|0,3:2|0:2,0:2:0:0:
149,351,47637,1,2,0:2:0:0:
288,320,47814,1,2,0:2:0:0:
480,384,48167,5,2,3:2:0:0:
480,384,48519,1,0,0:2:0:0:
420,304,48696,1,0,0:2:0:0:
500,244,48872,1,2,0:2:0:0:
480,32,49225,5,2,3:2:0:0:
480,32,49578,1,2,0:2:0:0:
462,94,49755,1,2,0:2:0:0:
370,17,49931,1,2,0:2:0:0:
357,159,50108,1,2,0:2:0:0:
260,2,50284,1,2,3:2:0:0:
252,224,50637,2,0,L|257:263,2,40.0000001192094,2|0|2,0:2|0:2|0:2,0:2:0:0:
192,32,51343,6,0,L|152:26,1,34.999999036193,2|0,3:2|0:2,0:2:0:0:
106,42,51696,1,2,0:2:0:0:
55,57,51872,1,2,0:2:0:0:
4,72,52049,1,2,0:2:0:0:
32,224,52402,2,0,L|139:238,1,104.999997108579,2|2,0:2|0:2,0:2:0:0:
160,288,53108,1,2,0:2:0:0:
184,339,53461,6,0,L|253:348,1,69.999998072386,2|0,0:2|0:2,0:2:0:0:
303,322,53990,1,2,0:2:0:0:
300,378,54167,1,2,0:2:0:0:
160,288,54519,1,2,0:2:0:0:
403,270,54872,1,2,0:2:0:0:
379,346,55049,1,2,0:2:0:0:
303,322,55225,1,2,0:2:0:0:
477,168,55578,6,0,L|481:133,1,34.999999036193,2|0,0:2|0:2,0:2:0:0:
431,115,55931,1,2,0:2:0:0:
381,97,56108,1,2,0:2:0:0:
349,29,56284,1,2,0:2:0:0:
399,47,56460,1,2,0:2:0:0:
331,79,56637,1,2,0:2:0:0:
263,111,56990,2,0,L|225:107,2,34.999999036193,2|2|2,0:2|0:2|0:2,0:2:0:0:
352,224,57696,5,2,0:2:0:0:
352,224,58049,2,0,L|356:262,1,34.999999036193,2|2,0:2|0:2,0:2:0:0:
352,320,58402,1,2,0:2:0:0:
192,384,58755,1,2,0:2:0:0:
192,384,59108,2,0,L|188:346,1,34.999999036193,2|2,0:2|0:2,0:2:0:0:
192,288,59461,1,2,0:2:0:0:
64,128,59814,6,0,L|60:162,1,34.999999036193,2|0,3:2|0:2,0:2:0:0:
80,240,60167,1,2,0:2:0:0:
31,211,60343,1,2,0:2:0:0:
109,191,60519,2,0,L|143:187,1,34.999999036193,2|0,0:2|0:2,0:2:0:0:
208,208,60872,1,2,0:2:0:0:
320,96,61225,2,0,L|324:62,2,34.999999036193,2|2|2,0:2|0:2|0:2,0:2:0:0:
480,0,61931,6,0,L|488:72,1,69.999998072386,2|2,0:2|0:2,0:2:0:0:
483,122,62461,1,2,0:2:0:0:
477,174,62637,1,2,0:2:0:0:
512,352,62990,1,2,3:2:0:0:
512,352,63343,1,2,0:2:0:0:
457,319,63519,1,2,0:2:0:0:
400,350,63696,1,2,0:2:0:0:
192,384,64049,6,0,L|158:380,1,34.999999036193,2|0,3:2|0:2,0:2:0:0:
147,328,64402,1,2,0:2:0:0:
137,276,64578,1,2,0:2:0:0:
179,214,64755,1,2,0:2:0:0:
211,280,64931,1,2,0:2:0:0:
32,160,65461,2,0,L|28:126,1,34.999999036193,2|2,0:2|0:2,0:2:0:0:
33,72,65814,1,2,0:2:0:0:
0,288,66167,5,2,3:2:0:0:
0,288,66519,2,0,L|4:322,1,34.999999036193,2|2,0:2|0:2,0:2:0:0:
30,368,66872,1,2,0:2:0:0:
224,384,67225,1,2,3:2:0:0:
224,384,67578,2,0,L|258:380,2,34.999999036193,2|2|2,0:2|0:2|0:2,0:2:0:0:
128,320,68284,5,2,3:2:0:0:
180,243,68461,1,2,0:2:0:0:
192,307,68637,1,2,0:2:0:0:
115,255,68814,1,2,0:2:0:0:
167,178,68990,1,2,0:2:0:0:
244,230,69167,1,2,0:2:0:0:
128,320,69343,1,2,0:2:0:0:
128,320,69696,2,0,L|124:354,2,34.999999036193,2|0|2,0:2|0:2|0:2,0:2:0:0:
103,191,70402,6,0,L|99:157,1,34.999999036193,2|0,0:2|0:2,0:2:0:0:
0,160,70755,2,0,L|4:126,1,34.999999036193,2|0,0:2|0:2,0:2:0:0:
64,32,71108,1,2,0:2:0:0:
34,79,71284,1,2,0:2:0:0:
121,19,71461,2,0,L|192:14,1,69.999998072386,2|0,3:2|0:2,0:2:0:0:
384,64,71990,2,0,L|419:66,1,34.999999036193,2|0,0:2|0:2,0:2:0:0:
512,256,72519,6,0,L|442:260,1,69.999998072386,2|0,3:2|0:2,0:2:0:0:
352,288,73049,1,2,0:2:0:0:
475,202,73225,2,0,L|479:132,2,69.999998072386,2|0|2,0:2|0:2|0:2,0:2:0:0:
352,288,74108,1,2,0:2:0:0:
301,314,74284,1,2,3:2:0:0:
276,327,74461,1,2,0:2:0:0:
250,340,74637,5,2,3:2:0:0:
96,352,74990,1,2,0:2:0:0:
32,320,75167,1,2,0:2:0:0:
128,288,75343,2,0,L|163:290,1,34.999999036193,2|0,0:2|0:2,0:2:0:0:
250,340,75696,1,2,3:2:0:0:
480,256,76049,2,0,L|482:291,2,34.999999036193,0|0|0,0:2|0:2|0:2,0:2:0:0:
496,80,76755,5,2,3:2:0:0:
496,80,77108,2,0,L|461:78,1,34.999999036193,2|0,0:2|0:2,0:2:0:0:
399,57,77461,1,2,0:2:0:0:
288,256,77814,1,2,0:2:0:0:
288,256,78167,2,0,L|253:258,1,34.999999036193,2|0,0:2|0:2,0:2:0:0:
176,272,78520,1,2,0:2:0:0:
32,352,78872,5,2,0:2:0:0:
32,352,79225,2,0,L|30:317,1,34.999999036193,2|0,0:2|0:2,0:2:0:0:
0,256,79578,1,2,0:2:0:0:
32,128,79931,1,2,0:2:0:0:
32,128,80284,2,0,L|34:93,1,34.999999036193,2|0,0:2|0:2,0:2:0:0:
64,32,80637,1,2,0:2:0:0:
224,0,80990,5,2,0:2:0:0:
225,13,81343,1,2,0:2:0:0:
226,26,81696,1,2,0:2:0:0:
346,71,82049,5,2,0:2:0:0:
344,90,82402,1,2,0:2:0:0:
342,109,82755,1,2,0:2:0:0:
448,227,83108,5,2,0:2:0:0:
436,179,83461,2,0,L|439:136,1,34.999999036193,2|0,0:2|0:2,0:2:0:0:
463,101,83814,1,2,0:2:0:0:
320,0,84167,1,2,0:2:0:0:
224,32,84519,2,0,L|179:28,1,34.999999036193,2|0,0:2|0:2,0:2:0:0:
96,64,84872,1,2,0:2:0:0:
0,253,85225,5,2,3:2:0:0:
0,253,85578,1,0,0:2:0:0:
14,323,85755,1,2,0:2:0:0:
68,276,85931,1,2,0:2:0:0:
224,342,86284,5,2,0:2:0:0:
224,342,86637,1,2,0:2:0:0:
214,292,86814,1,2,0:2:0:0:
176,325,86990,1,2,0:2:0:0:
128,192,87343,5,2,0:2:0:0:
128,192,87696,2,0,L|125:148,1,34.999999036193,2|0,0:2|0:2,0:2:0:0:
133,103,88049,1,2,0:2:0:0:
192,0,88402,1,2,0:2:0:0:
192,0,88755,2,0,L|236:3,1,32.4999986091258,2|0,0:2|0:2,0:2:0:0:
264,28,89108,1,2,0:2:0:0:
416,16,89461,5,2,0:2:0:0:
416,16,89814,2,0,L|419:57,2,29.9999991738797,2|0|2,0:2|0:2|0:2,0:2:0:0:
512,128,90519,1,2,0:2:0:0:
512,128,90872,2,0,L|509:169,2,25.0000000745059,2|0|2,0:2|0:2|0:2,0:2:0:0:
416,160,91578,5,2,0:2:0:0:
415,177,91931,1,0,0:2:0:0:
415,193,92284,1,0,0:2:0:0:
320,256,92637,5,2,0:2:0:0:
319,248,92990,1,0,0:2:0:0:
318,240,93343,1,0,0:2:0:0:
320,128,93696,5,2,0:2:0:0:
320,128,94225,1,2,0:2:0:0:
268,119,94402,1,2,0:2:0:0:
63,128,94755,5,2,0:2:0:0:
21,162,95108,1,2,0:2:0:0:
21,216,95461,1,2,0:2:0:0:
116,238,95814,5,2,0:2:0:0:
139,189,96167,1,2,0:2:0:0:
116,140,96520,1,2,0:2:0:0:
63,250,96872,5,2,0:2:0:0:
63,250,97931,5,2,0:2:0:0:
63,250,98461,1,2,0:2:0:0:
70,303,98637,1,2,0:2:0:0:
224,352,98990,1,2,0:2:0:0:
277,359,99343,1,2,0:2:0:0:
330,366,99696,1,2,0:2:0:0:
298,196,100049,5,2,0:2:0:0:
224,352,100402,1,2,0:2:0:0:
375,268,100755,1,2,0:2:0:0:
205,247,101108,1,2,0:2:0:0:
330,366,101461,1,2,0:2:0:0:
375,268,101814,1,2,0:2:0:0:
337,233,101990,1,2,0:2:0:0:
298,196,102167,5,2,0:2:0:0:
298,196,102696,1,2,0:2:0:0:
337,233,102872,1,2,0:2:0:0:
480,160,103225,5,2,0:2:0:0:
503,111,103578,1,2,0:2:0:0:
480,62,103931,1,2,0:2:0:0:
385,82,104284,5,2,0:2:0:0:
385,136,104637,1,2,0:2:0:0:
426,171,104990,1,2,0:2:0:0:
428,49,105342,5,2,0:2:0:0:
428,49,106225,1,2,0:2:0:0:
385,82,106402,1,2,0:2:0:0:
428,49,106931,1,2,0:2:0:0:
385,82,107108,1,2,0:2:0:0:
224,32,107461,1,2,0:2:0:0:
224,32,107990,1,2,0:2:0:0:
181,65,108167,1,2,0:2:0:0:
224,224,108519,5,2,0:2:0:0:
224,224,109049,1,2,0:2:0:0:
241,288,109225,1,2,0:2:0:0:
177,270,109402,1,2,0:2:0:0:
288,242,109578,1,2,0:2:0:0:
258,352,109931,1,2,0:2:0:0:
177,270,110284,1,2,0:2:0:0:
369,324,110637,5,2,0:2:0:0:
