osu file format v14

[General]
AudioFilename: audio.mp3
AudioLeadIn: 0
PreviewTime: 34314
Countdown: 0
SampleSet: Soft
StackLeniency: 0.3
Mode: 0
LetterboxInBreaks: 0
WidescreenStoryboard: 0

[Editor]
DistanceSpacing: 1
BeatDivisor: 4
GridSize: 32
TimelineZoom: 1.1

[Metadata]
Title:The First Layer
TitleUnicode:The First Layer
Artist:Kevin Penkin
ArtistUnicode:Kevin Penkin
Creator:Mordred
Version:Normal
Source:メイドインアビス
Tags:ost soundtrack instrumental anime made in abyss amb1d3x hishiro chizuru
BeatmapID:2015644
BeatmapSetID:961620

[Difficulty]
HPDrainRate:3
CircleSize:3
OverallDifficulty:3
ApproachRate:5
SliderMultiplier:1.10000000596047
SliderTickRate:1

[Events]
//Background and Video events
0,0,"bg.png",0,0
//Break Periods
//Storyboard Layer 0 (Background)
//Storyboard Layer 1 (Fail)
//Storyboard Layer 2 (Pass)
//Storyboard Layer 3 (Foreground)
//Storyboard Sound Samples

[TimingPoints]
520,352.941176470588,3,2,1,60,1,0
520,-125,3,2,1,20,0,0
872,-125,3,2,1,10,0,0
1578,-125,3,2,1,20,0,0
1931,-125,3,2,1,10,0,0
2637,-125,3,2,1,20,0,0
2990,-125,3,2,1,10,0,0
3696,-125,3,2,1,20,0,0
4049,-125,3,2,1,10,0,0
4755,-125,3,2,1,20,0,0
5108,-125,3,2,1,10,0,0
5814,-125,3,2,1,20,0,0
6167,-125,3,2,1,10,0,0
6872,-125,3,2,1,20,0,0
7225,-125,3,2,1,10,0,0
7931,-125,3,2,1,20,0,0
8284,-125,3,2,1,10,0,0
8990,-125,3,2,1,20,0,0
9343,-125,3,2,1,10,0,0
10049,-125,3,2,1,20,0,0
10402,-125,3,2,1,10,0,0
11108,-125,3,2,1,20,0,0
11461,-125,3,2,1,10,0,0
12167,-125,3,2,1,20,0,0
12519,-125,3,2,1,10,0,0
13225,-125,3,2,1,20,0,0
13578,-125,3,2,1,10,0,0
14284,-125,3,2,1,20,0,0
14637,-125,3,2,1,10,0,0
15343,-125,3,2,1,20,0,0
15696,-125,3,2,1,10,0,0
16402,-125,3,2,1,20,0,0
16755,-125,3,2,1,10,0,0
17461,-111.111111111111,3,2,1,20,0,0
17814,-111.111111111111,3,2,1,5,0,0
17990,-111.111111111111,3,2,1,20,0,0
18519,-111.111111111111,3,2,1,25,0,0
19578,-111.111111111111,3,2,1,30,0,0
19931,-111.111111111111,3,2,1,25,0,0
20284,-111.111111111111,3,2,1,30,0,0
20637,-111.111111111111,3,2,1,20,0,0
20990,-111.111111111111,3,2,1,10,0,0
21696,-111.111111111111,3,2,1,25,0,0
22049,-111.111111111111,3,2,1,5,0,0
22225,-111.111111111111,3,2,1,25,0,0
22755,-111.111111111111,3,2,1,30,0,0
23814,-111.111111111111,3,2,1,35,0,0
24872,-111.111111111111,3,2,1,30,0,0
25578,-111.111111111111,3,2,1,25,0,0
25931,-111.111111111111,3,2,1,20,0,0
26284,-111.111111111111,3,2,1,5,0,0
26461,-111.111111111111,3,2,1,20,0,0
26990,-111.111111111111,3,2,1,25,0,0
28049,-111.111111111111,3,2,1,30,0,0
29108,-111.111111111111,3,2,1,20,0,0
29461,-111.111111111111,3,2,1,10,0,0
29990,-111.111111111111,3,2,1,20,0,0
30519,-111.111111111111,3,2,1,5,0,0
30696,-111.111111111111,3,2,1,20,0,0
31578,-111.111111111111,3,2,1,5,0,0
31755,-111.111111111111,3,2,1,20,0,0
32637,-111.111111111111,3,2,1,5,0,0
32814,-111.111111111111,3,2,1,20,0,0
32990,-111.111111111111,3,2,1,25,0,0
33167,-111.111111111111,3,2,1,30,0,0
33343,-111.111111111111,3,2,1,35,0,0
33696,-111.111111111111,3,2,1,25,0,0
34049,-111.111111111111,3,2,1,20,0,0
34402,-100,3,2,1,30,0,1
35461,-100,3,2,1,35,0,1
36519,-100,3,2,1,40,0,1
37578,-100,3,2,1,30,0,1
37931,-100,3,2,1,20,0,1
38637,-100,3,2,1,30,0,1
39696,-100,3,2,1,35,0,1
40755,-100,3,2,1,40,0,1
41108,-100,3,2,1,45,0,1
41461,-100,3,2,1,50,0,1
41814,-100,3,2,1,45,0,1
42167,-100,3,2,1,40,0,1
42519,-100,3,2,1,35,0,1
42872,-100,3,2,1,30,0,1
43931,-100,3,2,1,35,0,1
44990,-100,3,2,1,40,0,1
45343,-100,3,2,1,35,0,1
45696,-100,3,2,1,30,0,1
46049,-100,3,2,1,25,0,1
46402,-100,3,2,1,20,0,1
47108,-100,3,2,1,30,0,1
47461,-100,3,2,1,10,0,1
47637,-100,3,2,1,30,0,1
48167,-100,3,2,1,35,0,1
48519,-100,3,2,1,25,0,1
49225,-100,3,2,1,35,0,1
49578,-100,3,2,1,20,0,1
49755,-100,3,2,1,25,0,1
49931,-100,3,2,1,30,0,1
50108,-100,3,2,1,35,0,1
50284,-100,3,2,1,40,0,1
50637,-100,3,2,1,30,0,1
50990,-100,3,2,1,20,0,1
51343,-111.111111111111,3,2,1,20,0,0
52402,-111.111111111111,3,2,1,30,0,0
52931,-111.111111111111,3,2,1,10,0,0
55931,-111.111111111111,3,2,1,15,0,0
56284,-111.111111111111,3,2,1,20,0,0
56637,-111.111111111111,3,2,1,25,0,0
57696,-111.111111111111,3,2,1,20,0,0
58049,-111.111111111111,3,2,1,15,0,0
58755,-111.111111111111,3,2,1,10,0,0
59814,-111.111111111111,3,2,1,20,0,0
60872,-111.111111111111,3,2,1,30,0,0
61225,-111.111111111111,3,2,1,10,0,0
61931,-111.111111111111,3,2,1,15,0,0
64049,-111.111111111111,3,2,1,20,0,0
64931,-111.111111111111,3,2,1,30,0,0
65461,-111.111111111111,3,2,1,20,0,0
66167,-111.111111111111,3,2,1,15,0,0
67225,-111.111111111111,3,2,1,10,0,0
68284,-111.111111111111,3,2,1,20,0,0
69343,-111.111111111111,3,2,1,30,0,0
71990,-111.111111111111,3,2,1,40,0,0
72167,-111.111111111111,3,2,1,20,0,0
72519,-111.111111111111,3,2,1,30,0,0
76755,-111.111111111111,3,2,1,20,0,0
78872,-111.111111111111,3,2,1,25,0,0
80990,-111.111111111111,3,2,1,30,0,0
83108,-111.111111111111,3,2,1,35,0,0
85225,-111.111111111111,3,2,1,20,0,0
86284,-111.111111111111,3,2,1,15,0,0
87343,-111.111111111111,3,2,1,20,0,0
88402,-111.111111111111,3,2,1,20,0,0
89461,-111.111111111111,3,2,1,15,0,0
90519,-111.111111111111,3,2,1,15,0,0
91578,-111.111111111111,3,2,1,10,0,0
92637,-111.111111111111,3,2,1,10,0,0
93696,-125,3,2,1,15,0,0
95814,-125,3,2,1,20,0,0
96872,-125,3,2,1,15,0,0
100049,-125,3,2,1,20,0,0
100402,-125,3,2,1,25,0,0
100755,-125,3,2,1,30,0,0
101108,-125,3,2,1,25,0,0
101461,-125,3,2,1,20,0,0
102167,-125,3,2,1,15,0,0
104284,-125,3,2,1,20,0,0
105343,-125,3,2,1,15,0,0
109578,-125,3,2,1,30,0,0
109931,-125,3,2,1,25,0,0
110284,-125,3,2,1,20,0,0
110637,-125,3,2,1,15,0,0

[Colours]
Combo1 : 255,159,113
Combo2 : 255,128,128

[HitObjects]
58,175,520,6,0,L|52:64,2,88.0000002384188,2|0|0,0:2|0:2|0:2,0:0:0:0:
98,253,1578,2,0,L|93:340,2,88.0000002384188,2|0|0,0:2|0:2|0:2,0:0:0:0:
172,205,2637,1,2,0:2:0:0:
251,246,2990,1,0,0:2:0:0:
254,334,3343,1,0,0:2:0:0:
333,375,3696,2,0,L|444:366,2,88.0000002384188,2|0|0,0:2|0:2|0:2,0:0:0:0:
254,334,4755,5,2,0:2:0:0:
251,246,5108,2,0,L|263:138,1,88.0000002384188,0|0,0:2|0:2,0:0:0:0:
332,106,5814,1,2,0:2:0:0:
395,166,6167,2,0,L|506:157,1,88.0000002384188,0|0,0:2|0:2,0:0:0:0:
511,75,6872,2,0,L|519:-21,2,88.0000002384188,2|0|0,0:2|0:2|0:2,0:0:0:0:
482,158,7931,2,0,L|395:166,1,88.0000002384188,2|0,0:2|0:2,0:0:0:0:
312,134,8637,1,0,0:2:0:0:
229,102,8990,6,0,P|222:58|223:9,2,88.0000002384188,2|0|0,0:2|0:2|0:2,0:0:0:0:
173,170,10049,1,2,0:2:0:0:
86,156,10402,1,0,0:2:0:0:
30,224,10755,1,0,0:2:0:0:
60,306,11108,2,0,L|157:311,1,88.0000002384188,2|0,0:2|0:2,0:0:0:0:
219,361,11814,1,0,0:2:0:0:
289,308,12167,2,0,L|293:220,2,88.0000002384188,2|0|0,0:2|0:2|0:2,0:0:0:0:
219,361,13225,5,2,0:2:0:0:
147,310,13578,2,0,L|151:222,1,88.0000002384188,0|0,0:2|0:2,0:0:0:0:
86,167,14284,1,2,0:2:0:0:
21,113,14637,2,0,L|25:25,1,88.0000002384188,0|0,0:2|0:2,0:0:0:0:
113,19,15343,1,2,0:2:0:0:
200,13,15696,1,0,0:2:0:0:
287,8,16049,1,0,0:2:0:0:
353,66,16402,2,0,L|460:56,2,88.0000002384188,2|0|0,0:2|0:2|0:2,0:0:0:0:
300,150,17461,6,0,L|288:313,1,148.499995870472,2|2,3:2|0:2,0:0:0:0:
302,345,18167,1,2,0:2:0:0:
209,379,18519,1,2,0:2:0:0:
130,318,18872,1,2,0:2:0:0:
35,346,19225,1,2,0:2:0:0:
8,250,19578,2,0,L|0:151,1,98.999997246981,2|2,0:2|0:2,0:0:0:0:
30,56,20284,1,2,0:2:0:0:
120,15,20637,1,2,0:2:0:0:
416,23,21696,6,0,L|428:186,1,148.499995870472,2|2,3:2|0:2,0:0:0:0:
414,218,22402,1,2,0:2:0:0:
322,256,22755,1,2,0:2:0:0:
255,182,23108,2,0,L|130:175,1,98.999997246981,2|2,0:2|0:2,0:0:0:0:
64,213,23814,1,2,0:2:0:0:
50,311,24167,1,2,0:2:0:0:
128,373,24519,1,2,0:2:0:0:
221,337,24872,2,0,L|346:330,1,98.999997246981,2|2,0:2|0:2,0:0:0:0:
427,348,25578,1,2,0:2:0:0:
427,348,25755,1,2,0:2:0:0:
427,348,25931,6,0,L|435:189,1,148.499995870472,2|2,3:2|0:2,0:0:0:0:
471,165,26637,1,2,0:2:0:0:
486,67,26990,1,2,0:2:0:0:
398,23,27343,1,2,0:2:0:0:
329,94,27696,1,2,0:2:0:0:
241,51,28049,2,0,P|166:44|110:46,2,98.999997246981,2|2|2,0:2|0:2|0:2,0:0:0:0:
329,94,29108,1,2,0:2:0:0:
399,331,29990,5,2,0:2:0:0:
399,331,30167,2,0,L|236:320,1,148.499995870472,2|2,3:2|0:2,0:0:0:0:
209,348,30872,1,2,0:2:0:0:
113,322,31225,2,0,L|99:158,1,148.499995870472,2|2,0:2|0:2,0:0:0:0:
59,146,31931,1,2,0:2:0:0:
90,52,32284,2,0,L|253:41,1,148.499995870472,2|2,3:2|0:2,0:0:0:0:
280,69,32989,1,2,0:2:0:0:
280,69,33167,1,2,0:2:0:0:
280,69,33343,2,0,L|406:57,2,98.999997246981,2|2|2,0:2|0:2|0:2,0:0:0:0:
210,154,34402,5,2,3:2:0:0:
263,250,34755,2,0,L|246:323,2,55.0000001490118,0|0|2,0:2|0:2|0:2,0:0:0:0:
365,210,35461,1,2,3:2:0:0:
480,246,35814,1,0,0:2:0:0:
480,246,35990,1,0,0:2:0:0:
480,246,36167,1,2,0:2:0:0:
504,139,36519,5,2,3:2:0:0:
436,51,36872,1,2,0:2:0:0:
348,117,37225,1,2,0:2:0:0:
246,74,37578,1,2,3:2:0:0:
161,144,37931,2,0,L|158:209,2,55.0000001490118,2|0|2,0:2|0:2|0:2,0:0:0:0:
86,62,38637,5,2,3:2:0:0:
23,152,38990,2,0,L|20:217,1,55.0000001490118,0|0,0:2|0:2,0:0:0:0:
29,261,39343,1,2,0:2:0:0:
90,352,39696,1,2,3:2:0:0:
196,310,40049,1,0,0:2:0:0:
196,310,40225,1,0,0:2:0:0:
196,310,40402,1,2,0:2:0:0:
301,342,40755,6,0,P|364:352|447:349,2,110.000000298024,2|2|2,3:2|0:2|0:2,0:0:0:0:
273,235,41814,2,0,L|283:105,1,110.000000298024,2|2,3:2|0:2,0:0:0:0:
344,35,42519,1,2,0:2:0:0:
344,35,42696,1,2,0:2:0:0:
344,35,42872,5,2,3:2:0:0:
432,99,43225,2,0,L|494:95,2,55.0000001490118,0|0|2,0:2|0:2|0:2,0:0:0:0:
373,192,43931,1,2,3:2:0:0:
449,271,44284,2,0,L|455:332,1,55.0000001490118,0|0,0:2|0:2,0:0:0:0:
427,373,44637,1,2,0:2:0:0:
328,324,44990,5,2,3:2:0:0:
227,369,45343,1,2,0:2:0:0:
182,268,45696,1,2,0:2:0:0:
283,223,46049,1,2,3:2:0:0:
328,324,46402,2,0,L|322:382,2,55.0000001490118,0|0|0,0:2|0:2|0:2,0:0:0:0:
375,295,46931,1,0,0:2:0:0:
375,295,47108,6,0,L|387:174,1,110.000000298024,2|0,3:2|0:2,0:0:0:0:
425,146,47637,1,2,0:2:0:0:
425,146,47814,1,2,0:2:0:0:
382,44,48167,1,2,3:2:0:0:
281,88,48519,2,0,L|219:82,1,55.0000001490118,0|0,0:2|0:2,0:0:0:0:
179,112,48872,1,2,0:2:0:0:
79,65,49225,5,2,3:2:0:0:
23,160,49578,2,0,L|29:223,1,55.0000001490118,2|2,0:2|0:2,0:0:0:0:
51,264,49931,1,2,0:2:0:0:
51,264,50108,1,2,0:2:0:0:
51,264,50284,2,0,L|171:256,2,110.000000298024,2|2|2,3:2|0:2|0:2,0:0:0:0:
16,362,51343,6,0,L|125:369,1,98.999997246981,2|2,3:2|0:2,0:0:0:0:
164,366,51872,1,2,0:2:0:0:
164,366,52049,1,2,0:2:0:0:
255,327,52402,2,0,L|413:337,1,148.499995870472,2|2,0:2|0:2,0:0:0:0:
449,318,53108,1,2,0:2:0:0:
495,230,53461,1,2,0:2:0:0:
452,140,53814,2,0,L|459:88,2,49.4999986234905,0|2|2,0:2|0:2|0:2,0:0:0:0:
374,201,54519,1,2,0:2:0:0:
287,153,54872,2,0,L|226:162,1,49.4999986234905,2|2,0:2|0:2,0:0:0:0:
207,199,55225,1,2,0:2:0:0:
164,288,55578,6,0,P|112:298|45:282,1,98.999997246981,2|2,0:2|0:2,0:0:0:0:
34,253,56108,1,2,0:2:0:0:
34,253,56284,2,0,L|26:188,1,49.4999986234905,2|2,0:2|0:2,0:0:0:0:
37,155,56637,1,2,0:2:0:0:
92,73,56990,2,0,L|84:8,2,49.4999986234905,2|2|2,0:2|0:2|0:2,0:0:0:0:
165,139,57696,6,0,L|290:128,1,98.999997246981,2|2,0:2|0:2,0:0:0:0:
300,163,58225,1,2,0:2:0:0:
300,163,58402,1,2,0:2:0:0:
280,260,58755,1,2,0:2:0:0:
357,322,59108,2,0,L|361:376,2,49.4999986234905,2|2|2,0:2|0:2|0:2,0:0:0:0:
434,259,59814,6,0,P|446:220|443:157,1,98.999997246981,2|2,3:2|0:2,0:0:0:0:
422,117,60343,1,2,0:2:0:0:
422,117,60519,1,2,0:2:0:0:
437,19,60872,2,0,L|288:11,1,148.499995870472,2|2,0:2|0:2,0:0:0:0:
255,48,61578,1,2,0:2:0:0:
160,18,61931,1,2,0:2:0:0:
79,74,62284,2,0,L|19:66,2,49.4999986234905,2|2|2,0:2|0:2|0:2,0:0:0:0:
131,158,62990,1,2,3:2:0:0:
60,227,63343,2,0,L|53:282,1,49.4999986234905,2|2,0:2|0:2,0:0:0:0:
69,323,63696,1,2,0:2:0:0:
157,366,64049,6,0,P|205:354|253:360,1,98.999997246981,2|2,3:2|0:2,0:0:0:0:
301,345,64578,1,2,0:2:0:0:
301,345,64755,1,2,0:2:0:0:
301,345,64931,1,2,0:2:0:0:
446,316,65461,2,0,L|508:320,2,49.4999986234905,2|2|2,0:2|0:2|0:2,0:0:0:0:
376,245,66167,5,2,3:2:0:0:
422,157,66519,2,0,L|431:93,1,49.4999986234905,2|2,0:2|0:2,0:0:0:0:
421,58,66872,1,2,0:2:0:0:
328,21,67225,1,2,3:2:0:0:
261,94,67578,2,0,L|267:143,2,49.4999986234905,2|2|2,0:2|0:2|0:2,0:0:0:0:
174,45,68284,5,2,3:2:0:0:
174,45,68461,1,2,0:0:0:0:
79,75,68814,1,2,0:0:0:0:
79,75,68990,2,0,L|70:137,1,49.4999986234905,2|2,0:2|0:2,0:0:0:0:
68,173,69343,1,2,0:2:0:0:
72,275,69696,2,0,L|64:328,2,49.4999986234905,2|0|2,0:2|0:2|0:2,0:0:0:0:
163,235,70402,1,2,0:2:0:0:
242,294,70755,2,0,L|250:347,2,49.4999986234905,2|0|2,0:2|0:2|0:2,0:0:0:0:
301,214,71461,2,0,P|359:208|431:208,1,98.999997246981,2|0,3:2|0:2,0:0:0:0:
445,226,71990,2,0,L|455:107,1,98.999997246981,2|0,0:2|0:0,0:0:0:0:
472,81,72519,6,0,P|412:89|316:92,1,148.499995870472,2|2,3:2|0:2,0:0:0:0:
278,72,73225,1,2,0:2:0:0:
209,143,73578,2,0,L|217:266,1,98.999997246981,0|2,0:2|0:2,0:0:0:0:
196,287,74108,1,2,0:2:0:0:
196,287,74284,2,0,L|134:291,1,49.4999986234905,2|2,3:2|0:2,0:0:0:0:
107,320,74637,5,2,3:2:0:0:
15,280,74990,1,2,0:2:0:0:
15,280,75167,2,0,L|8:169,1,98.999997246981,2|0,0:2|0:2,0:0:0:0:
18,132,75696,1,2,3:2:0:0:
93,68,76049,2,0,L|85:5,2,49.4999986234905,0|0|0,0:2|0:2|0:2,0:0:0:0:
182,111,76755,6,0,L|301:101,2,98.999997246981,2|2|2,3:2|0:2|0:2,0:0:0:0:
113,182,77814,2,0,L|14:173,2,98.999997246981,2|2|2,0:2|0:2|0:2,0:0:0:0:
194,238,78872,1,2,0:2:0:0:
281,191,79225,2,0,P|352:189|387:192,1,98.999997246981,2|2,0:2|0:2,0:0:0:0:
448,263,79931,1,2,0:2:0:0:
361,310,80284,2,0,P|290:312|255:309,1,98.999997246981,2|2,0:2|0:2,0:0:0:0:
194,238,80990,6,0,P|144:235|91:251,2,98.999997246981,2|2|2,0:2|0:2|0:2,0:0:0:0:
281,191,82049,2,0,P|328:203|377:201,2,98.999997246981,2|2|2,0:2|0:2|0:2,0:0:0:0:
220,112,83108,1,2,0:2:0:0:
258,20,83461,1,2,0:2:0:0:
357,7,83814,1,2,0:2:0:0:
418,87,84167,1,2,0:2:0:0:
380,180,84519,2,0,L|393:244,2,49.4999986234905,2|0|2,0:2|0:2|0:2,0:0:0:0:
287,144,85225,5,2,3:2:0:0:
201,194,85578,2,0,L|130:188,1,49.4999986234905,0|2,0:2|0:2,0:0:0:0:
113,158,85931,1,2,0:2:0:0:
28,209,86284,1,2,0:2:0:0:
47,306,86637,2,0,L|118:312,1,49.4999986234905,2|2,0:2|0:2,0:0:0:0:
135,342,86990,1,2,0:2:0:0:
217,287,87343,5,2,0:2:0:0:
312,313,87696,2,0,L|307:367,2,49.4999986234905,2|0|2,0:2|0:2|0:2,0:0:0:0:
388,249,88402,2,0,L|378:112,2,98.999997246981,2|2|2,0:2|0:2|0:2,0:0:0:0:
312,313,89461,2,0,B|260:306|222:274|222:274|145:363|19:322,2,296.999991740943,2|2|2,0:2|0:2|0:2,0:0:0:0:
504,86,92637,1,2,0:2:0:0:
256,0,93696,5,2,0:2:0:0:
152,81,94225,2,0,L|156:131,1,44.0000001192094,2|2,0:2|0:2,0:0:0:0:
102,195,94755,2,0,P|59:188|-16:189,2,88.0000002384188,2|2|2,0:2|0:2|0:2,0:0:0:0:
178,238,95814,2,0,P|221:231|296:232,2,88.0000002384188,2|2|2,0:2|0:2|0:2,0:0:0:0:
103,284,96872,1,2,0:2:0:0:
352,371,97931,5,2,0:2:0:0:
470,311,98461,2,0,L|477:258,1,44.0000001192094,2|2,0:2|0:2,0:0:0:0:
444,185,98990,2,0,L|437:91,2,88.0000002384188,2|2|2,0:2|0:2|0:2,0:0:0:0:
377,243,100049,1,2,0:2:0:0:
298,202,100402,1,2,0:2:0:0:
232,261,100755,1,2,0:2:0:0:
155,217,101108,2,0,L|59:226,1,88.0000002384188,2|2,0:2|0:2,0:0:0:0:
13,155,101814,1,2,0:2:0:0:
13,155,101990,1,2,0:2:0:0:
13,155,102167,5,2,0:2:0:0:
67,34,102696,2,0,L|128:27,1,44.0000001192094,2|2,0:2|0:2,0:0:0:0:
174,89,103225,2,0,P|181:134|182:194,2,88.0000002384188,2|2|2,0:2|0:2|0:2,0:0:0:0:
238,28,104284,2,0,P|296:27|362:31,2,88.0000002384188,2|2|2,0:2|0:2|0:2,0:0:0:0:
174,89,105343,1,2,0:2:0:0:
41,264,106225,5,2,0:2:0:0:
41,264,106402,1,2,0:2:0:0:
116,371,106931,1,2,0:2:0:0:
116,371,107108,1,2,0:2:0:0:
187,320,107461,2,0,P|239:313|330:313,1,132.000000357628,2|2,0:2|0:2,0:0:0:0:
353,338,108167,1,2,0:2:0:0:
440,326,108519,1,2,0:2:0:0:
497,207,109049,5,2,0:2:0:0:
497,207,109225,2,0,L|503:152,1,44.0000001192094,2|2,0:2|0:2,0:0:0:0:
466,136,109578,1,2,0:2:0:0:
396,81,109931,1,2,0:2:0:0:
326,27,110284,1,2,0:2:0:0:
270,95,110637,1,2,0:2:0:0:
