osu file format v14

[General]
AudioFilename: audio.mp3
AudioLeadIn: 0
PreviewTime: 14626
Countdown: 0
SampleSet: Soft
StackLeniency: 0.3
Mode: 0
LetterboxInBreaks: 0
WidescreenStoryboard: 1

[Editor]
Bookmarks: 47901
DistanceSpacing: 0.8
BeatDivisor: 4
GridSize: 4
TimelineZoom: 1

[Metadata]
Title:Made in Abyss
TitleUnicode:Made in Abyss
Artist:Kevin Penkin
ArtistUnicode:Kevin Penkin
Creator:Chompy
Version:Resilience
Source:メイドインアビス
Tags:bgm background music soundtrack ost anime instrumental Zer0-g Zero-g
BeatmapID:2524332
BeatmapSetID:1212828

[Difficulty]
HPDrainRate:5
CircleSize:5.5
OverallDifficulty:6.5
ApproachRate:7
SliderMultiplier:1.8
SliderTickRate:1

[Events]
//Background and Video events
0,0,"mia.jpg",0,0
//Break Periods
//Storyboard Layer 0 (Background)
//Storyboard Layer 1 (Fail)
//Storyboard Layer 2 (Pass)
//Storyboard Layer 3 (Foreground)
Sprite,Foreground,Centre,"sb\glow.png",0,0 C,0,3764,,219,252,141 M,0,3764,4108,64,178 F,0,3764,4164,1,0
Sprite,Foreground,Centre,"sb\glow.png",0,0 C,0,4453,,219,252,141 M,0,4453,4797,165,261 F,0,4453,4853,1,0
Sprite,Foreground,Centre,"sb\glow.png",0,0 C,0,5143,,219,252,141 F,0,5143,5543,1,0 M,0,5143,5832,300,171
Sprite,Foreground,Centre,"sb\glow.png",0,0 C,0,6522,,255,228,149 M,0,6522,6866,576,178 F,0,6522,6922,1,0
Sprite,Foreground,Centre,"sb\glow.png",0,0 C,0,7212,,255,228,149 M,0,7212,7556,475,261 F,0,7212,7612,1,0
Sprite,Foreground,Centre,"sb\glow.png",0,0 C,0,7901,,255,228,149 F,0,7901,8301,1,0 M,0,7901,8590,339,171
Sprite,Foreground,Centre,"sb\glow.png",0,0 M,0,8936,,477,112 C,0,8936,,255,228,149 F,0,8936,9336,1,0
Sprite,Foreground,Centre,"sb\glow.png",0,0 C,0,9281,,79,251,87 M,0,9281,9625,544,182 F,0,9281,9681,1,0
Sprite,Foreground,Centre,"sb\glow.png",0,0 C,0,9970,,79,251,87 M,0,9970,10314,447,274 F,0,9970,10370,1,0
Sprite,Foreground,Centre,"sb\glow.png",0,0 C,0,10660,,79,251,87 F,0,10660,11060,1,0 M,0,10660,11349,383,407
Sprite,Foreground,Centre,"sb\glow.png",0,0 M,0,11695,,255,409 C,0,11695,,79,251,87 F,0,11695,12095,1,0
Sprite,Foreground,Centre,"sb\glow.png",0,0 C,0,12039,,219,252,141 M,0,12039,12383,128,410 F,0,12039,12439,1,0
Sprite,Foreground,Centre,"sb\glow.png",0,0 C,0,12729,,219,252,141 M,0,12729,13073,225,318 F,0,12729,13129,1,0
Sprite,Foreground,Centre,"sb\glow.png",0,0 C,0,13419,,219,252,141 F,0,13419,13819,1,0 M,0,13419,14108,64,178
Sprite,Foreground,Centre,"sb\glow.png",0,0 C,0,14798,,255,228,149 M,0,14798,15142,234,139 F,0,14798,15198,1,0
Sprite,Foreground,Centre,"sb\glow.png",0,0 C,0,15488,,255,228,149 M,0,15488,15832,268,208 F,0,15488,15888,1,0
Sprite,Foreground,Centre,"sb\glow.png",0,0 C,0,16177,,255,228,149 M,0,16177,16521,213,263 F,0,16177,16577,1,0
Sprite,Foreground,Centre,"sb\glow.png",0,0 M,0,16867,,385,246 C,0,16867,,255,228,149 F,0,16867,17267,1,0
Sprite,Foreground,Centre,"sb\glow.png",0,0 M,0,17212,,467,306 C,0,17212,,255,228,149 F,0,17212,17612,1,0
Sprite,Foreground,Centre,"sb\glow.png",0,0 C,0,17557,,255,228,149 F,0,17557,17957,1,0 M,0,17557,18246,482,235
Sprite,Foreground,Centre,"sb\glow.png",0,0 M,0,18591,,418,248 C,0,18591,,255,228,149 F,0,18591,18991,1,0
Sprite,Foreground,Centre,"sb\glow.png",0,0 C,0,20315,,79,251,87 F,0,20315,20715,1,0 M,0,20315,21004,157,191
Sprite,Foreground,Centre,"sb\glow.png",0,0 M,0,21350,,177,126 C,0,21350,,79,251,87 F,0,21350,21750,1,0
Sprite,Foreground,Centre,"sb\glow.png",0,0 C,0,21695,,79,251,87 M,0,21695,22039,131,272 F,0,21695,22095,1,0
Sprite,Foreground,Centre,"sb\glow.png",0,0 C,0,22384,,79,251,87 M,0,22384,22728,184,333 F,0,22384,22784,1,0
Sprite,Foreground,Centre,"sb\glow.png",0,0 C,0,23074,,79,251,87 F,0,23074,23474,1,0 M,0,23074,23763,64,397
Sprite,Foreground,Centre,"sb\glow.png",0,0 M,0,24108,,222,397 C,0,24108,,79,251,87 F,0,24108,24508,1,0
Sprite,Foreground,Centre,"sb\glow.png",0,0 M,0,24453,,275,342 C,0,24453,,79,251,87 F,0,24453,24853,1,0
Sprite,Foreground,Centre,"sb\glow.png",0,0 C,0,25143,,219,252,141 M,0,25143,25315,492,409 F,0,25143,25543,1,0
Sprite,Foreground,Centre,"sb\glow.png",0,0 C,0,25488,,219,252,141 M,0,25488,25660,473,343 F,0,25488,25888,1,0
Sprite,Foreground,Centre,"sb\glow.png",0,0 M,0,25832,,520,293 C,0,25832,,255,228,149 F,0,25832,26232,1,0
Sprite,Foreground,Centre,"sb\glow.png",0,0 M,0,26177,,520,293 C,0,26177,,255,228,149 F,0,26177,26577,1,0
Sprite,Foreground,Centre,"sb\glow.png",0,0 C,0,26522,,255,228,149 M,0,26522,26866,566,178 F,0,26522,26922,1,0
Sprite,Foreground,Centre,"sb\glow.png",0,0 C,0,27212,,255,228,149 M,0,27212,27556,423,184 F,0,27212,27612,1,0
Sprite,Foreground,Centre,"sb\glow.png",0,0 M,0,27901,,320,82 C,0,27901,,255,228,149 F,0,27901,28301,1,0
Sprite,Foreground,Centre,"sb\glow.png",0,0 M,0,28246,,239,152 C,0,28246,,255,228,149 F,0,28246,28646,1,0
Sprite,Foreground,Centre,"sb\glow.png",0,0 C,0,28591,,79,251,87 F,0,28591,28991,1,0 M,0,28591,29280,128,120
Sprite,Foreground,Centre,"sb\glow.png",0,0 C,0,29626,,79,251,87 F,0,29626,30026,1,0 M,0,29626,30660,80,342
Sprite,Foreground,Centre,"sb\glow.png",0,0 M,0,31005,,147,401 C,0,31005,,79,251,87 F,0,31005,31405,1,0
Sprite,Foreground,Centre,"sb\glow.png",0,0 C,0,31350,,219,252,141 M,0,31350,31694,282,424 F,0,31350,31750,1,0
Sprite,Foreground,Centre,"sb\glow.png",0,0 M,0,32039,,336,307 C,0,32039,,219,252,141 F,0,32039,32439,1,0
Sprite,Foreground,Centre,"sb\glow.png",0,0 M,0,32384,,310,227 C,0,32384,,219,252,141 F,0,32384,32784,1,0
Sprite,Foreground,Centre,"sb\glow.png",0,0 M,0,33074,,541,370 C,0,33074,,255,228,149 F,0,33074,33474,1,0
Sprite,Foreground,Centre,"sb\glow.png",0,0 M,0,33419,,463,399 C,0,33419,,255,228,149 F,0,33419,33819,1,0
Sprite,Foreground,Centre,"sb\glow.png",0,0 M,0,33764,,551,365 C,0,33764,,255,228,149 F,0,33764,34164,1,0
Sprite,Foreground,Centre,"sb\glow.png",0,0 C,0,34108,,255,228,149 M,0,34108,34452,453,404 F,0,34108,34508,1,0
Sprite,Foreground,Centre,"sb\glow.png",0,0 C,0,34798,,255,228,149 M,0,34798,35142,378,401 F,0,34798,35198,1,0
Sprite,Foreground,Centre,"sb\glow.png",0,0 M,0,35488,,287,423 C,0,35488,,255,228,149 F,0,35488,35888,1,0
Sprite,Foreground,Centre,"sb\glow.png",0,0 M,0,36867,,162,155 C,0,36867,,79,251,87 F,0,36867,37267,1,0
Sprite,Foreground,Centre,"sb\glow.png",0,0 M,0,37212,,108,224 C,0,37212,,79,251,87 F,0,37212,37612,1,0
Sprite,Foreground,Centre,"sb\glow.png",0,0 M,0,37557,,156,296 C,0,37557,,79,251,87 F,0,37557,37957,1,0
Sprite,Foreground,Centre,"sb\glow.png",0,0 M,0,37901,,239,272 C,0,37901,,79,251,87 F,0,37901,38301,1,0
Sprite,Foreground,Centre,"sb\glow.png",0,0 M,0,38246,,241,185 C,0,38246,,79,251,87 F,0,38246,38646,1,0
Sprite,Foreground,Centre,"sb\glow.png",0,0 M,0,39626,,478,155 C,0,39626,,219,252,141 F,0,39626,40026,1,0
Sprite,Foreground,Centre,"sb\glow.png",0,0 M,0,39971,,532,224 C,0,39971,,219,252,141 F,0,39971,40371,1,0
Sprite,Foreground,Centre,"sb\glow.png",0,0 M,0,40314,,484,296 C,0,40314,,219,252,141 F,0,40314,40714,1,0
Sprite,Foreground,Centre,"sb\glow.png",0,0 M,0,40660,,401,272 C,0,40660,,219,252,141 F,0,40660,41060,1,0
Sprite,Foreground,Centre,"sb\glow.png",0,0 M,0,41005,,399,185 C,0,41005,,219,252,141 F,0,41005,41405,1,0
Sprite,Foreground,Centre,"sb\glow.png",0,0 M,0,42039,,399,185 C,0,42039,,219,252,141 F,0,42039,42439,1,0
Sprite,Foreground,Centre,"sb\glow.png",0,0 C,0,42384,,255,228,149 M,0,42384,42728,347,114 F,0,42384,42784,1,0
Sprite,Foreground,Centre,"sb\glow.png",0,0 C,0,43074,,255,228,149 M,0,43074,43418,245,205 F,0,43074,43474,1,0
Sprite,Foreground,Centre,"sb\glow.png",0,0 M,0,43763,,191,259 C,0,43763,,255,228,149 F,0,43763,44163,1,0
Sprite,Foreground,Centre,"sb\glow.png",0,0 M,0,44798,,191,259 C,0,44798,,255,228,149 F,0,44798,45198,1,0
Sprite,Foreground,Centre,"sb\glow.png",0,0 C,0,45143,,79,251,87 M,0,45143,45487,92,351 F,0,45143,45543,1,0
Sprite,Foreground,Centre,"sb\glow.png",0,0 C,0,45832,,79,251,87 M,0,45832,46176,229,353 F,0,45832,46232,1,0
Sprite,Foreground,Centre,"sb\glow.png",0,0 M,0,46522,,335,290 C,0,46522,,79,251,87 F,0,46522,46922,1,0
Sprite,Foreground,Centre,"sb\glow.png",0,0 C,0,47901,,219,252,141 M,0,47901,48245,419,312 F,0,47901,48301,1,0
Sprite,Foreground,Centre,"sb\glow.png",0,0 C,0,48591,,219,252,141 M,0,48591,48935,385,243 F,0,48591,48991,1,0
Sprite,Foreground,Centre,"sb\glow.png",0,0 C,0,49281,,219,252,141 M,0,49281,49625,440,188 F,0,49281,49681,1,0
Sprite,Foreground,Centre,"sb\glow.png",0,0 M,0,49970,,279,228 C,0,49970,,219,252,141 F,0,49970,50370,1,0
Sprite,Foreground,Centre,"sb\glow.png",0,0 M,0,50315,,194,170 C,0,50315,,219,252,141 F,0,50315,50715,1,0
Sprite,Foreground,Centre,"sb\glow.png",0,0 C,0,50660,,219,252,141 F,0,50660,51060,1,0 M,0,50660,51349,158,235
Sprite,Foreground,Centre,"sb\glow.png",0,0 M,0,51695,,257,207 C,0,51695,,219,252,141 F,0,51695,52095,1,0
Sprite,Foreground,Centre,"sb\glow.png",0,0 C,0,53419,,255,228,149 F,0,53419,53819,1,0 M,0,53419,54108,483,191
Sprite,Foreground,Centre,"sb\glow.png",0,0 M,0,54452,,463,126 C,0,54452,,255,228,149 F,0,54452,54852,1,0
Sprite,Foreground,Centre,"sb\glow.png",0,0 C,0,54797,,255,228,149 M,0,54797,55141,509,272 F,0,54797,55197,1,0
Sprite,Foreground,Centre,"sb\glow.png",0,0 C,0,55488,,255,228,149 M,0,55488,55832,456,333 F,0,55488,55888,1,0
Sprite,Foreground,Centre,"sb\glow.png",0,0 C,0,56177,,255,228,149 F,0,56177,56577,1,0 M,0,56177,56866,411,428
Sprite,Foreground,Centre,"sb\glow.png",0,0 M,0,57212,,315,409 C,0,57212,,255,228,149 F,0,57212,57612,1,0
Sprite,Foreground,Centre,"sb\glow.png",0,0 M,0,57557,,265,359 C,0,57557,,255,228,149 F,0,57557,57957,1,0
Sprite,Foreground,Centre,"sb\glow.png",0,0 C,0,58246,,79,251,87 M,0,58246,58418,64,201 F,0,58246,58646,1,0
Sprite,Foreground,Centre,"sb\glow.png",0,0 C,0,58591,,79,251,87 M,0,58591,58763,128,220 F,0,58591,58991,1,0
Sprite,Foreground,Centre,"sb\glow.png",0,0 M,0,58935,,179,173 C,0,58935,,219,252,141 F,0,58935,59335,1,0
Sprite,Foreground,Centre,"sb\glow.png",0,0 M,0,59280,,179,173 C,0,59280,,219,252,141 F,0,59280,59680,1,0
Sprite,Foreground,Centre,"sb\glow.png",0,0 C,0,59626,,219,252,141 M,0,59626,59970,228,68 F,0,59626,60026,1,0
Sprite,Foreground,Centre,"sb\glow.png",0,0 C,0,60315,,219,252,141 M,0,60315,60659,412,156 F,0,60315,60715,1,0
Sprite,Foreground,Centre,"sb\glow.png",0,0 M,0,61005,,463,216 C,0,61005,,219,252,141 F,0,61005,61405,1,0
Sprite,Foreground,Centre,"sb\glow.png",0,0 M,0,61350,,487,112 C,0,61350,,219,252,141 F,0,61350,61750,1,0
Sprite,Foreground,Centre,"sb\glow.png",0,0 C,0,61695,,255,228,149 F,0,61695,62095,1,0 M,0,61695,62384,372,56
Sprite,Foreground,Centre,"sb\glow.png",0,0 C,0,62729,,255,228,149 F,0,62729,63129,1,0 M,0,62729,63763,485,249
Sprite,Foreground,Centre,"sb\glow.png",0,0 M,0,64108,,455,182 C,0,64108,,255,228,149 F,0,64108,64508,1,0
Sprite,Foreground,Centre,"sb\glow.png",0,0 C,0,64453,,255,228,149 M,0,64453,64797,499,317 F,0,64453,64853,1,0
Sprite,Foreground,Centre,"sb\glow.png",0,0 M,0,65143,,367,289 C,0,65143,,255,228,149 F,0,65143,65543,1,0
Sprite,Foreground,Centre,"sb\glow.png",0,0 M,0,65488,,298,349 C,0,65488,,255,228,149 F,0,65488,65888,1,0
Sprite,Foreground,Centre,"sb\glow.png",0,0 M,0,66177,,226,159 C,0,66177,,79,251,87 F,0,66177,66577,1,0
Sprite,Foreground,Centre,"sb\glow.png",0,0 M,0,66522,,148,188 C,0,66522,,79,251,87 F,0,66522,66922,1,0
Sprite,Foreground,Centre,"sb\glow.png",0,0 M,0,66867,,236,154 C,0,66867,,79,251,87 F,0,66867,67267,1,0
Sprite,Foreground,Centre,"sb\glow.png",0,0 C,0,67212,,79,251,87 M,0,67212,67556,138,193 F,0,67212,67612,1,0
Sprite,Foreground,Centre,"sb\glow.png",0,0 C,0,67901,,79,251,87 M,0,67901,68245,160,267 F,0,67901,68301,1,0
Sprite,Foreground,Centre,"sb\glow.png",0,0 M,0,68591,,182,341 C,0,68591,,79,251,87 F,0,68591,68991,1,0
Sprite,Foreground,Centre,"sb\glow.png",0,0 M,0,69281,,320,141 C,0,69281,,79,251,87 F,0,69281,69681,1,0
Sprite,Foreground,Centre,"sb\glow.png",0,0 C,0,69970,,219,252,141 M,0,69970,70314,458,341 F,0,69970,70370,1,0
Sprite,Foreground,Centre,"sb\glow.png",0,0 C,0,70660,,219,252,141 M,0,70660,71004,470,215 F,0,70660,71060,1,0
Sprite,Foreground,Centre,"sb\glow.png",0,0 C,0,71350,,219,252,141 M,0,71350,71694,501,147 F,0,71350,71750,1,0
Sprite,Foreground,Centre,"sb\glow.png",0,0 C,0,72039,,219,252,141 M,0,72039,72383,447,97 F,0,72039,72439,1,0
Sprite,Foreground,Centre,"sb\glow.png",0,0 C,0,72729,,219,252,141 M,0,72729,73073,382,133 F,0,72729,73129,1,0
Sprite,Foreground,Centre,"sb\glow.png",0,0 C,0,73419,,219,252,141 M,0,73419,73763,397,206 F,0,73419,73819,1,0
Sprite,Foreground,Centre,"sb\glow.png",0,0 M,0,74108,,412,279 C,0,74108,,219,252,141 F,0,74108,74508,1,0
Sprite,Foreground,Centre,"sb\glow.png",0,0 C,0,74798,,255,228,149 M,0,74798,75142,201,370 F,0,74798,75198,1,0
Sprite,Foreground,Centre,"sb\glow.png",0,0 M,0,75315,,182,341 C,0,75315,,255,228,149 F,0,75315,75715,1,0
Sprite,Foreground,Centre,"sb\glow.png",0,0 C,0,75488,,79,251,87 M,0,75488,75832,182,341 F,0,75488,75888,1,0
Sprite,Foreground,Centre,"sb\glow.png",0,0 C,0,76178,,79,251,87 M,0,76178,76522,170,215 F,0,76178,76578,1,0
Sprite,Foreground,Centre,"sb\glow.png",0,0 C,0,76866,,79,251,87 M,0,76866,77210,139,147 F,0,76866,77266,1,0
Sprite,Foreground,Centre,"sb\glow.png",0,0 C,0,77557,,79,251,87 M,0,77557,77901,193,97 F,0,77557,77957,1,0
Sprite,Foreground,Centre,"sb\glow.png",0,0 C,0,78245,,79,251,87 M,0,78245,78589,258,133 F,0,78245,78645,1,0
Sprite,Foreground,Centre,"sb\glow.png",0,0 M,0,78936,,243,206 C,0,78936,,219,252,141 F,0,78936,79336,1,0
Sprite,Foreground,Centre,"sb\glow.png",0,0 M,0,79281,,353,133 C,0,79281,,219,252,141 F,0,79281,79681,1,0
Sprite,Foreground,Centre,"sb\glow.png",0,0 M,0,79453,,368,154 C,0,79453,,219,252,141 F,0,79453,79853,1,0
Sprite,Foreground,Centre,"sb\glow.png",0,0 M,0,79626,,394,150 C,0,79626,,255,228,149 F,0,79626,80026,1,0
Sprite,Foreground,Centre,"sb\glow.png",0,0 M,0,79970,,388,261 C,0,79970,,255,228,149 F,0,79970,80370,1,0
Sprite,Foreground,Centre,"sb\glow.png",0,0 M,0,80315,,487,210 C,0,80315,,255,228,149 F,0,80315,80715,1,0
Sprite,Foreground,Centre,"sb\glow.png",0,0 M,0,80660,,538,309 C,0,80660,,255,228,149 F,0,80660,81060,1,0
Sprite,Foreground,Centre,"sb\glow.png",0,0 M,0,80832,,499,301 C,0,80832,,255,228,149 F,0,80832,81232,1,0
Sprite,Foreground,Centre,"sb\glow.png",0,0 C,0,81005,,79,251,87 M,0,81005,81349,474,331 F,0,81005,81405,1,0
Sprite,Foreground,Centre,"sb\glow.png",0,0 C,0,81695,,79,251,87 M,0,81695,82039,340,377 F,0,81695,82095,1,0
Sprite,Foreground,Centre,"sb\glow.png",0,0 C,0,82384,,79,251,87 M,0,82384,82728,260,269 F,0,82384,82784,1,0
Sprite,Foreground,Centre,"sb\glow.png",0,0 C,0,83074,,79,251,87 M,0,83074,83418,330,162 F,0,83074,83474,1,0
Sprite,Foreground,Centre,"sb\glow.png",0,0 C,0,83764,,79,251,87 M,0,83764,84108,276,110 F,0,83764,84164,1,0
Sprite,Foreground,Centre,"sb\glow.png",0,0 C,0,84453,,79,251,87 M,0,84453,84797,205,131 F,0,84453,84853,1,0
Sprite,Foreground,Centre,"sb\glow.png",0,0 C,0,85143,,79,251,87 M,0,85143,85487,188,203 F,0,85143,85543,1,0
Sprite,Foreground,Centre,"sb\glow.png",0,0 M,0,85832,,241,254 C,0,85832,,79,251,87 F,0,85832,86232,1,0
Sprite,Foreground,Centre,"sb\glow.png",0,0 M,0,86177,,241,254 C,0,86177,,79,251,87 F,0,86177,86577,1,0
Sprite,Foreground,Centre,"sb\glow.png",0,0 C,0,86522,,219,252,141 M,0,86522,86866,165,331 F,0,86522,86922,1,0
Sprite,Foreground,Centre,"sb\glow.png",0,0 C,0,87212,,219,252,141 M,0,87212,87556,299,377 F,0,87212,87612,1,0
Sprite,Foreground,Centre,"sb\glow.png",0,0 C,0,87901,,219,252,141 M,0,87901,88245,380,269 F,0,87901,88301,1,0
Sprite,Foreground,Centre,"sb\glow.png",0,0 C,0,88591,,219,252,141 M,0,88591,88935,310,162 F,0,88591,88991,1,0
Sprite,Foreground,Centre,"sb\glow.png",0,0 C,0,89281,,219,252,141 M,0,89281,89625,364,110 F,0,89281,89681,1,0
Sprite,Foreground,Centre,"sb\glow.png",0,0 C,0,89970,,219,252,141 M,0,89970,90314,435,131 F,0,89970,90370,1,0
Sprite,Foreground,Centre,"sb\glow.png",0,0 C,0,90660,,219,252,141 M,0,90660,91004,453,204 F,0,90660,91060,1,0
Sprite,Foreground,Centre,"sb\glow.png",0,0 M,0,91350,,400,255 C,0,91350,,219,252,141 F,0,91350,91750,1,0
Sprite,Foreground,Centre,"sb\glow.png",0,0 M,0,92039,,400,255 C,0,92039,,255,228,149 F,0,92039,92439,1,0
Sprite,Foreground,Centre,"sb\glow.png",0,0 M,0,92384,,479,285 C,0,92384,,255,228,149 F,0,92384,92784,1,0
Sprite,Foreground,Centre,"sb\glow.png",0,0 M,0,92729,,533,216 C,0,92729,,255,228,149 F,0,92729,93129,1,0
Sprite,Foreground,Centre,"sb\glow.png",0,0 M,0,93074,,485,144 C,0,93074,,255,228,149 F,0,93074,93474,1,0
Sprite,Foreground,Centre,"sb\glow.png",0,0 M,0,93418,,402,168 C,0,93418,,255,228,149 F,0,93418,93818,1,0
Sprite,Foreground,Centre,"sb\glow.png",0,0 M,0,94798,,242,255 C,0,94798,,79,251,87 F,0,94798,95198,1,0
Sprite,Foreground,Centre,"sb\glow.png",0,0 M,0,95143,,163,285 C,0,95143,,79,251,87 F,0,95143,95543,1,0
Sprite,Foreground,Centre,"sb\glow.png",0,0 M,0,95488,,109,216 C,0,95488,,79,251,87 F,0,95488,95888,1,0
Sprite,Foreground,Centre,"sb\glow.png",0,0 M,0,95833,,157,144 C,0,95833,,79,251,87 F,0,95833,96233,1,0
Sprite,Foreground,Centre,"sb\glow.png",0,0 M,0,96177,,240,168 C,0,96177,,79,251,87 F,0,96177,96577,1,0
Sprite,Foreground,Centre,"sb\glow.png",0,0 M,0,97212,,392,86 C,0,97212,,219,252,141 F,0,97212,97612,1,0
Sprite,Foreground,Centre,"sb\glow.png",0,0 C,0,97557,,219,252,141 M,0,97557,97901,392,86 F,0,97557,97957,1,0
Sprite,Foreground,Centre,"sb\glow.png",0,0 C,0,98246,,219,252,141 M,0,98246,98590,538,105 F,0,98246,98646,1,0
Sprite,Foreground,Centre,"sb\glow.png",0,0 M,0,98936,,460,227 C,0,98936,,219,252,141 F,0,98936,99336,1,0
Sprite,Foreground,Centre,"sb\glow.png",0,0 M,0,99970,,248,86 C,0,99970,,255,228,149 F,0,99970,100370,1,0
Sprite,Foreground,Centre,"sb\glow.png",0,0 C,0,100315,,255,228,149 M,0,100315,100659,248,86 F,0,100315,100715,1,0
Sprite,Foreground,Centre,"sb\glow.png",0,0 C,0,101005,,255,228,149 M,0,101005,101349,102,105 F,0,101005,101405,1,0
Sprite,Foreground,Centre,"sb\glow.png",0,0 M,0,101694,,179,227 C,0,101694,,255,228,149 F,0,101694,102094,1,0
Sprite,Foreground,Centre,"sb\glow.png",0,0 C,0,103098,,79,251,87 M,0,103098,103446,287,332 F,0,103098,103498,1,0
Sprite,Foreground,Centre,"sb\glow.png",0,0 C,0,103795,,79,251,87 M,0,103795,103969,353,385 F,0,103795,104195,1,0
Sprite,Foreground,Centre,"sb\glow.png",0,0 C,0,104493,,79,251,87 M,0,104493,104841,287,438 F,0,104493,104893,1,0
Sprite,Foreground,Centre,"sb\glow.png",0,0 C,0,105888,,219,252,141 M,0,105888,106236,353,385 F,0,105888,106288,1,0
Sprite,Foreground,Centre,"sb\glow.png",0,0 C,0,106586,,219,252,141 M,0,106586,106761,287,332 F,0,106586,106986,1,0
Sprite,Foreground,Centre,"sb\glow.png",0,0 M,0,108345,,353,217 C,0,108345,,255,228,149 F,0,108345,108745,1,0
Sprite,Foreground,Centre,"sb\glow.png",0,0 C,0,108697,,255,228,149 M,0,108697,108876,287,164 F,0,108697,109097,1,0
Sprite,Foreground,Centre,"sb\glow.png",0,0 C,0,109415,,255,228,149 M,0,109415,109594,353,111 F,0,109415,109815,1,0
Sprite,Foreground,Centre,"sb\glow.png",0,0 C,0,110134,,255,228,149 M,0,110134,110332,287,58 F,0,110134,110534,1,0
Sprite,Foreground,Centre,"sb\glow.png",0,0 M,0,111322,,353,111 C,0,111322,,79,251,87 F,0,111322,111722,1,0
Sprite,Foreground,Centre,"sb\glow.png",0,0 M,0,111679,,353,111 C,0,111679,,79,251,87 F,0,111679,112079,1,0
Sprite,Foreground,Centre,"sb\glow.png",0,0 C,0,112443,,79,251,87 F,0,112443,112843,1,0 M,0,112443,125436,251,137
//Storyboard Layer 4 (Overlay)
//Storyboard Sound Samples

[TimingPoints]
-1754,689.655172413793,4,2,1,5,1,0
659,-100,4,2,1,5,0,0
1349,-100,4,2,1,10,0,0
2039,-100,4,2,1,15,0,0
2728,-100,4,2,1,25,0,0
3764,-133.333333333333,4,2,1,35,0,0
4453,-105.263157894737,4,2,1,35,0,0
5832,-105.263157894737,4,2,69,5,0,0
6522,-133.333333333333,4,2,1,35,0,0
7211,-105.263157894737,4,2,1,35,0,0
8591,-105.263157894737,4,2,69,5,0,0
8936,-105.263157894737,4,2,1,35,0,0
9281,-133.333333333333,4,2,1,35,0,0
9970,-105.263157894737,4,2,1,35,0,0
11350,-105.263157894737,4,2,69,5,0,0
11695,-105.263157894737,4,2,1,35,0,0
12039,-133.333333333333,4,2,1,35,0,0
12728,-105.263157894737,4,2,1,35,0,0
14108,-105.263157894737,4,2,69,5,0,0
14798,-105.263157894737,4,2,1,35,0,0
20315,-117.64705882353,4,2,1,35,0,0
21695,-105.263157894737,4,2,1,35,0,0
29626,-86.9565217391306,4,2,1,35,0,0
31005,-105.263157894737,4,2,1,35,0,0
31350,-133.333333333333,4,2,1,35,0,0
38246,-133.333333333333,4,2,2,35,0,0
39626,-133.333333333333,4,2,1,35,0,0
41005,-133.333333333333,4,2,2,35,0,0
42039,-133.333333333333,4,2,1,35,0,0
43763,-133.333333333333,4,2,2,35,0,0
44798,-133.333333333333,4,2,1,35,0,0
46522,-133.333333333333,4,2,2,35,0,0
47901,-105.263157894737,4,2,1,40,0,0
50660,-105.263157894737,4,2,1,45,0,0
53419,-117.64705882353,4,2,1,40,0,0
54797,-105.263157894737,4,2,1,40,0,0
56177,-105.263157894737,4,2,1,45,0,0
57557,-105.263157894737,4,2,1,40,0,0
61695,-105.263157894737,4,2,1,50,0,0
62729,-86.9565217391306,4,2,1,50,0,0
63074,-86.9565217391306,4,2,1,50,0,0
64108,-105.263157894737,4,2,1,50,0,0
64453,-133.333333333333,4,2,1,55,0,0
69970,-105.263157894737,4,2,2,60,0,0
70315,-105.263157894737,4,2,1,60,0,0
70660,-117.64705882353,4,2,1,60,0,0
71350,-133.333333333334,4,2,1,60,0,0
72729,-133.333333333334,4,2,2,60,0,0
73074,-133.333333333334,4,2,1,60,0,0
75488,-105.263157894737,4,2,2,60,0,0
75832,-105.263157894737,4,2,1,60,0,0
76178,-117.64705882353,4,2,1,60,0,0
76866,-133.333333333334,4,2,1,60,0,0
78245,-133.333333333334,4,2,2,60,0,0
78591,-133.333333333334,4,2,1,60,0,0
79281,-133.333333333334,4,2,2,60,0,0
79970,-133.333333333334,4,2,1,60,0,0
80660,-133.333333333334,4,2,2,60,0,0
81005,-105.263157894737,4,2,2,60,0,0
81350,-105.263157894737,4,2,1,60,0,0
81695,-117.64705882353,4,2,1,60,0,0
82384,-133.333333333334,4,2,1,60,0,0
83764,-133.333333333334,4,2,2,60,0,0
84108,-133.333333333334,4,2,1,60,0,0
86522,-105.263157894737,4,2,2,60,0,0
86867,-105.263157894737,4,2,1,60,0,0
87212,-117.64705882353,4,2,1,60,0,0
87901,-133.333333333334,4,2,1,60,0,0
89281,-133.333333333334,4,2,2,60,0,0
89626,-133.333333333334,4,2,1,60,0,0
92039,-133.333333333334,4,2,1,45,0,0
93419,-133.333333333334,4,2,2,40,0,0
94798,-133.333333333334,4,2,1,35,0,0
96177,-133.333333333334,4,2,2,35,0,0
97212,-133.333333333334,4,2,1,35,0,0
98936,-133.333333333334,4,2,2,35,0,0
99970,-133.333333333334,4,2,1,35,0,0
101695,701.754385964912,4,2,2,35,1,0
103098,697.674418604651,4,2,1,35,1,0
103098,-133.333333333333,4,2,1,35,0,0
106586,703.812316715542,4,2,1,35,1,0
106586,-133.333333333333,4,2,1,35,0,0
108697,718.562874251497,4,2,1,35,1,0
108697,-133.333333333333,4,2,1,35,0,0
110134,792.079207920792,4,2,1,35,1,0
110134,-133.333333333333,4,2,1,35,0,0
111322,714.285714285714,4,2,1,35,1,0
111322,-133.333333333333,4,2,1,35,0,0
111679,764.331210191083,4,2,1,30,1,0
111679,-133.333333333333,4,2,1,30,0,0
112443,-222.222222222221,4,2,1,30,0,0
125436,-222.222222222221,4,2,69,5,0,0

[Colours]
Combo1 : 79,251,87
Combo2 : 219,252,141
Combo3 : 255,228,149
SliderTrackOverride : 237,245,235
SliderBorder : 204,255,153

[HitObjects]
256,192,660,12,0,3074,0:0:0:0:
0,122,3764,6,0,P|29:138|62:133,1,67.5000025749208,2|0,0:0|0:0,0:0:0:0:
101,205,4453,2,0,P|135:180|145:140,1,85.4999977169038
236,115,5143,2,0,P|189:57|85:65,1,170.999995433807,2|0,0:0|0:0,0:0:0:0:
512,122,6522,6,0,P|483:138|450:133,1,67.5000025749208,2|0,0:0|0:0,0:0:0:0:
411,205,7212,2,0,P|377:180|367:140,1,85.4999977169038
275,115,7901,2,0,P|331:53|413:56,1,170.999995433807,2|0,0:0|0:0,0:0:0:0:
413,56,8936,1,2,0:0:0:0:
480,126,9281,6,0,P|459:151|459:185,1,67.5000025749208,2|0,0:0|0:0,0:0:0:0:
383,218,9970,2,0,P|404:254|443:269,1,85.4999977169037
319,351,10660,2,0,P|254:304|191:352,1,170.999995433807,2|0,0:0|0:0,0:0:0:0:
191,353,11695,1,2,0:0:0:0:
64,354,12039,6,0,P|85:329|85:295,1,67.5000025749208,2|0,0:0|0:0,0:0:0:0:
161,262,12729,2,0,P|140:226|101:211,1,85.4999977169037
0,122,13419,2,0,B|19:146|58:149|90:130|92:98|92:98|73:119|40:117,1,170.999995433807,2|0,0:0|0:0,0:0:0:0:
170,83,14798,6,0,P|155:43|119:22,1,85.4999977169037,2|0,0:0|0:0,0:0:0:0:
204,152,15488,2,0,P|236:125|245:84,1,85.4999977169037,2|2,0:0|0:0,0:0:0:0:
149,207,16177,2,0,P|184:230|225:226,1,85.4999977169037,2|2,0:0|0:0,0:0:0:0:
321,190,16867,1,2,0:0:0:0:
403,250,17212,1,2,0:0:0:0:
418,179,17557,2,0,B|423:135|368:117|368:117|330:160|354:192,1,170.999995433807,2|2,0:0|0:0,0:0:0:0:
354,192,18591,1,2,0:0:0:0:
93,135,20315,6,0,P|130:138|161:117,2,76.5000014591217,2|2|2,0:0|0:0|0:0,0:0:0:0:
113,70,21350,1,2,0:0:0:0:
67,216,21695,2,0,P|44:180|5:169,1,85.4999977169037,2|2,0:0|0:0,0:0:0:0:
120,277,22384,2,0,P|146:244|144:202,1,85.4999977169037,2|2,0:0|0:0,0:0:0:0:
0,341,23074,2,0,B|38:309|78:333|78:341|78:349|118:373|158:341,1,170.999995433807,2|2,0:0|0:0,0:0:0:0:
158,341,24108,1,2,0:0:0:0:
211,286,24453,1,0,0:0:0:0:
428,353,25143,6,0,P|410:340|402:321,1,42.7499988584519,2|0,0:0|0:0,0:0:0:0:
409,287,25488,2,0,P|411:265|424:249,1,42.7499988584519,2|0,0:0|0:0,0:0:0:0:
456,237,25832,5,2,0:0:0:0:
456,237,26177,1,0,0:0:0:0:
502,122,26522,2,0,P|460:125|429:97,1,85.4999977169037,2|2,0:0|0:0,0:0:0:0:
359,128,27212,2,0,P|343:89|360:51,1,85.4999977169037,2|2,0:0|0:0,0:0:0:0:
256,26,27901,1,2,0:0:0:0:
175,96,28246,1,2,0:0:0:0:
64,64,28591,6,0,P|142:89|162:168,1,170.999995433807,2|2,0:0|0:0,0:0:0:0:
16,286,29626,2,0,B|54:238|114:216|177:227|205:273|205:273|173:288|128:280|110:249,1,310.500005922318,2|2,0:0|0:0,0:0:0:0:
83,345,31005,1,2,0:0:0:0:
218,368,31350,6,0,P|204:331|212:289,1,67.5000025749208
272,251,32039,1,0,0:0:0:0:
246,171,32384,1,0,0:0:0:0:
477,314,33074,5,2,0:0:0:0:
399,343,33419,1,2,0:0:0:0:
487,309,33764,1,2,0:0:0:0:
389,348,34108,2,0,P|381:315|388:282,1,67.5000025749208,2|0,0:0|0:0,0:0:0:0:
314,345,34798,2,0,P|285:327|267:299,1,67.5000025749208,2|0,0:0|0:0,0:0:0:0:
223,367,35488,1,2,0:0:0:0:
98,99,36867,5,2,0:0:0:0:
44,168,37212,1,0,0:0:0:0:
92,240,37557,1,0,0:0:0:0:
175,216,37901,1,0,0:0:0:0:
177,129,38246,1,2,0:0:0:0:
414,99,39626,5,2,0:0:0:0:
468,168,39971,1,0,0:0:0:0:
420,240,40314,1,0,0:0:0:0:
337,216,40660,1,0,0:0:0:0:
335,129,41005,1,2,0:0:0:0:
335,129,42039,1,2,0:0:0:0:
283,58,42384,6,0,P|256:78|223:79,1,67.5000025749208,2|0,0:0|0:0,0:0:0:0:
181,149,43074,2,0,P|153:130|141:98,1,67.5000025749208
127,203,43763,1,2,0:0:0:0:
127,203,44798,1,2,0:0:0:0:
28,295,45143,6,0,P|51:271|83:263,1,67.5000025749208,2|0,0:0|0:0,0:0:0:0:
165,297,45832,2,0,P|197:305|219:329,1,67.5000025749208
271,234,46522,1,2,0:0:0:0:
355,256,47901,6,0,P|370:296|406:317,1,85.4999977169037,2|0,0:0|0:0,0:0:0:0:
321,187,48591,2,0,P|289:214|280:255,1,85.4999977169037,2|2,0:0|0:0,0:0:0:0:
376,132,49281,2,0,P|341:109|300:113,1,85.4999977169037,2|2,0:0|0:0,0:0:0:0:
215,172,49970,1,2,0:0:0:0:
130,114,50315,1,2,0:0:0:0:
94,179,50660,2,0,B|130:180|160:227|160:227|162:173|193:151,1,170.999995433807,2|2,0:0|0:0,0:0:0:0:
193,151,51695,1,2,0:0:0:0:
419,135,53419,6,0,P|382:138|351:117,2,76.5000014591217,2|2|2,0:0|0:0|0:0,0:0:0:0:
399,70,54452,1,2,0:0:0:0:
445,216,54797,2,0,P|468:180|507:169,1,85.4999977169037,2|2,0:0|0:0,0:0:0:0:
392,277,55488,2,0,P|366:244|368:202,1,85.4999977169037,2|2,0:0|0:0,0:0:0:0:
347,372,56177,2,0,B|349:341|334:313|303:302|270:305|270:305|271:335|251:353,1,170.999995433807,2|2,0:0|0:0,0:0:0:0:
251,353,57212,1,2,0:0:0:0:
201,303,57557,1,0,0:0:0:0:
0,145,58246,6,0,P|12:162|30:170,1,42.7499988584519,2|0,0:0|0:0,0:0:0:0:
64,164,58591,2,0,P|85:161|101:149,1,42.7499988584519,2|0,0:0|0:0,0:0:0:0:
115,117,58935,5,2,0:0:0:0:
115,117,59280,1,0,0:0:0:0:
164,12,59626,2,0,P|185:47|225:61,1,85.4999977169037,2|2,0:0|0:0,0:0:0:0:
348,100,60315,2,0,P|306:100|274:128,1,85.4999977169037,2|2,0:0|0:0,0:0:0:0:
399,160,61005,1,2,0:0:0:0:
423,56,61350,1,2,0:0:0:0:
308,0,61695,6,0,P|370:36|461:3,1,170.999995433807,2|2,0:0|0:0,0:0:0:0:
421,193,62729,2,0,B|461:185|499:203|507:253|507:253|503:209|475:179|454:155|454:106|480:75,1,310.500005922318,2|2,0:0|0:0,0:0:0:0:
391,126,64108,1,2,0:0:0:0:
435,261,64453,2,0,P|411:283|377:286,1,67.5000025749208
303,233,65143,1,0,0:0:0:0:
234,293,65488,1,0,0:0:0:0:
162,103,66177,5,2,0:0:0:0:
84,132,66522,1,2,0:0:0:0:
172,98,66867,1,2,0:0:0:0:
74,137,67212,2,0,P|60:106|64:72,1,67.5000025749208,2|0,0:0|0:0,0:0:0:0:
96,211,67901,2,0,P|62:213|32:200,1,67.5000025749208,2|0,0:0|0:0,0:0:0:0:
118,285,68591,1,2,0:0:0:0:
256,85,69281,1,2,0:0:0:0:
394,285,69970,6,0,P|352:288|315:266,1,85.4999977169037,2|0,0:0|0:0,0:0:0:0:
406,159,70660,2,0,P|397:195|369:220,1,76.5000014591217,2|0,0:0|0:0,0:0:0:0:
437,91,71350,2,0,P|465:108|477:138,1,67.5000025749208,2|0,0:0|0:0,0:0:0:0:
383,41,72039,2,0,P|408:19|441:17,1,67.5000025749208,2|0,0:0|0:0,0:0:0:0:
318,77,72729,2,0,P|305:46|313:14,1,67.5000025749208,2|0,0:0|0:0,0:0:0:0:
333,150,73419,2,0,P|299:152|271:135,1,67.5000025749208,2|0,0:0|0:0,0:0:0:0:
348,223,74108,1,2,0:0:0:0:
137,314,74798,6,0,P|153:318|167:327,2,33.7500012874604,2|0|0,0:0|0:0|0:0,0:0:0:0:
118,285,75315,1,0,0:0:0:0:
118,285,75488,6,0,P|160:288|197:266,1,85.4999977169037,2|0,0:0|0:0,0:0:0:0:
106,159,76178,2,0,P|115:195|143:220,1,76.5000014591217,2|0,0:0|0:0,0:0:0:0:
75,91,76866,2,0,P|47:108|35:138,1,67.5000025749208,2|0,0:0|0:0,0:0:0:0:
129,41,77557,2,0,P|104:19|71:17,1,67.5000025749208,2|0,0:0|0:0,0:0:0:0:
194,77,78245,2,0,P|207:46|199:14,1,67.5000025749208,2|0,0:0|0:0,0:0:0:0:
179,150,78936,5,2,0:0:0:0:
289,77,79281,1,2,0:0:0:0:
304,98,79453,1,0,0:0:0:0:
330,94,79626,5,2,0:0:0:0:
324,205,79970,1,0,0:0:0:0:
423,154,80315,1,2,0:0:0:0:
474,253,80660,1,2,0:0:0:0:
435,245,80832,1,0,0:0:0:0:
410,275,81005,6,0,P|369:286|331:271,1,85.4999977169037,2|0,0:0|0:0,0:0:0:0:
276,321,81695,2,0,P|256:290|258:253,1,76.5000014591217,2|0,0:0|0:0,0:0:0:0:
196,213,82384,2,0,P|216:186|248:178,1,67.5000025749208,2|0,0:0|0:0,0:0:0:0:
266,106,83074,2,0,P|297:117|314:145,1,67.5000025749208,2|0,0:0|0:0,0:0:0:0:
212,54,83764,2,0,P|237:32|270:31,1,67.5000025749208,2|0,0:0|0:0,0:0:0:0:
141,75,84453,2,0,P|135:42|150:12,1,67.5000025749208,2|0,0:0|0:0,0:0:0:0:
124,147,85143,2,0,P|92:135|75:107,1,67.5000025749208,2|0,0:0|0:0,0:0:0:0:
177,198,85832,1,2,0:0:0:0:
177,198,86177,1,2,0:0:0:0:
101,275,86522,6,0,P|142:286|181:271,1,85.4999977169037,2|0,0:0|0:0,0:0:0:0:
235,321,87212,2,0,P|255:290|253:253,1,76.5000014591217,2|0,0:0|0:0,0:0:0:0:
316,213,87901,2,0,P|295:186|263:178,1,67.5000025749208,2|0,0:0|0:0,0:0:0:0:
246,106,88591,2,0,P|214:117|197:145,1,67.5000025749208,2|0,0:0|0:0,0:0:0:0:
300,54,89281,2,0,P|274:32|241:31,1,67.5000025749208,2|0,0:0|0:0,0:0:0:0:
371,75,89970,2,0,P|376:42|361:12,1,67.5000025749208,2|0,0:0|0:0,0:0:0:0:
389,148,90660,2,0,P|420:136|437:108,1,67.5000025749208,2|0,0:0|0:0,0:0:0:0:
336,199,91350,1,2,0:0:0:0:
336,199,92039,5,2,0:0:0:0:
415,229,92384,1,0,0:0:0:0:
469,160,92729,1,0,0:0:0:0:
421,88,93074,1,0,0:0:0:0:
338,112,93418,1,2,0:0:0:0:
178,199,94798,5,2,0:0:0:0:
99,229,95143,1,0,0:0:0:0:
45,160,95488,1,0,0:0:0:0:
93,88,95833,1,0,0:0:0:0:
176,112,96177,1,2,0:0:0:0:
328,30,97212,5,2,0:0:0:0:
328,30,97557,2,0,P|353:51|386:52,1,67.5000025749208,2|0,0:0|0:0,0:0:0:0:
474,49,98246,2,0,P|452:74|450:107,1,67.5000025749208
396,171,98936,1,2,0:0:0:0:
184,30,99970,5,2,0:0:0:0:
184,30,100315,2,0,P|158:51|125:52,1,67.5000025749208,2|0,0:0|0:0,0:0:0:0:
38,49,101005,2,0,P|59:74|61:107,1,67.5000025749208
115,171,101694,1,2,0:0:0:0:
223,276,103098,6,0,P|221:256|213:238,2,33.7500012874604,2|0|0,0:0|0:0|0:0,0:0:0:0:
289,329,103795,2,0,P|291:309|299:291,1,33.7500012874604
223,382,104493,2,0,P|221:362|213:344,2,33.7500012874604,2|0|0,0:0|0:0|0:0,0:0:0:0:
289,329,105888,6,0,P|291:309|299:291,2,33.7500012874604,2|0|0,0:0|0:0|0:0,0:0:0:0:
223,276,106586,2,0,P|221:256|213:238,1,33.7500012874604
289,161,108345,5,2,0:0:0:0:
223,108,108697,2,0,P|221:128|213:146,1,33.7500012874604,2|0,0:0|0:0,0:0:0:0:
289,55,109415,2,0,P|291:75|299:93,1,33.7500012874604
223,2,110134,2,0,P|221:22|213:40,1,33.7500012874604,2|0,0:0|0:0,0:0:0:0:
289,55,111322,5,2,0:0:0:0:
289,55,111679,1,2,0:0:0:0:
187,81,112443,2,0,B|172:127|202:175|247:185|247:185|247:185|247:185|292:195|323:162|323:162|281:136|239:153|239:153|206:169|186:199|181:232|181:232|181:283|101:309|60:225|113:178|154:194|154:194|200:215|229:270|188:327|119:323|119:323|74:320|42:289|25:246|32:200|70:155|70:155|-32:228|-6:369|104:402|179:372,1,1376.9999579773
