osu file format v14

[General]
AudioFilename: audio.mp3
AudioLeadIn: 0
PreviewTime: 141500
Countdown: 0
SampleSet: Soft
StackLeniency: 0.8
Mode: 0
LetterboxInBreaks: 0
WidescreenStoryboard: 1

[Editor]
Bookmarks: 105500
DistanceSpacing: 1
BeatDivisor: 4
GridSize: 4
TimelineZoom: 1

[Metadata]
Title:Hanezeve Caradinha (ft. Takeshi Saito)
TitleUnicode:Hanezeve Caradinha (ft. Takeshi Saito)
Artist:Kevin Penkin
ArtistUnicode:Kevin Penkin
Creator:Sylvarus
Version:Easy
Source:メイドインアビス
Tags:made in abyss ost
BeatmapID:1450975
BeatmapSetID:676528

[Difficulty]
HPDrainRate:2
CircleSize:3
OverallDifficulty:2
ApproachRate:2
SliderMultiplier:0.8
SliderTickRate:1

[Events]
//Background and Video events
0,0,"stretched-1920-1080-863998.png",0,0
//Break Periods
2,69712,85952
2,104212,112952
//Storyboard Layer 0 (Background)
//Storyboard Layer 1 (Fail)
//Storyboard Layer 2 (Pass)
//Storyboard Layer 3 (Foreground)
//Storyboard Sound Samples

[TimingPoints]
21512,375,4,2,0,20,1,0
22637,-100,4,2,0,20,0,0
45512,-100,4,2,0,20,0,0
90512,-100,4,2,0,20,0,0
117512,-100,4,2,1,50,0,1
166637,-100,4,2,0,20,0,0

[Colours]
Combo1 : 215,107,0
Combo2 : 191,0,0
Combo3 : 128,64,64
Combo4 : 128,64,0

[HitObjects]
89,65,22637,5,0,0:0:0:0:
168,62,23012,2,0,B|259:71,1,80
324,92,23762,2,0,P|360:128|364:164,1,80
336,228,24512,2,0,P|264:256|176:226,1,160
115,198,25637,1,0,0:0:0:0:
58,254,26012,2,0,B|21:341,1,80
103,349,26762,6,0,P|139:337|195:349,2,80
508,105,29387,5,0,0:0:0:0:
436,67,29762,2,0,B|355:52,1,80
279,68,30512,2,0,P|246:109|277:216,1,160
327,260,31637,2,0,B|367:282|367:282|391:315,1,80
228,332,32762,6,0,P|196:296|156:184,1,160
156,112,33887,1,0,0:0:0:0:
224,152,34262,2,0,P|224:72|84:144,1,320
106,218,36137,1,0,0:0:0:0:
83,294,36512,6,0,L|179:330,1,80
200,256,37262,2,0,L|296:220,1,80
308,300,38012,2,0,P|395:311|442:254,1,160
359,230,39137,1,0,0:0:0:0:
343,151,39512,6,0,B|349:58,1,80
270,52,40262,2,0,L|264:134,1,80
245,210,41012,2,0,P|189:226|125:147,1,160
167,90,42137,1,0,0:0:0:0:
87,77,42512,6,0,B|11:130,1,80
40,203,43262,2,0,L|93:277,1,80
146,325,44012,2,0,P|272:324|293:222,1,240
75,85,46637,5,0,0:0:0:0:
142,42,47012,2,0,B|315:39,1,160
379,61,48137,1,0,0:0:0:0:
454,88,48512,2,0,P|486:153|463:262,1,160
417,291,49637,2,0,B|377:309|377:309|315:282,1,80
220,192,50762,6,0,L|219:101,2,80
207,295,53387,6,0,B|165:321|165:321|49:260,1,160
47,192,54512,2,0,P|89:98|143:61,1,160
212,54,55637,2,0,B|257:58|257:58|279:106,1,80
294,248,56762,6,0,P|341:294|400:215,1,160
419,166,57887,1,0,0:0:0:0:
420,86,58262,1,0,0:0:0:0:
264,49,59012,1,0,0:0:0:0:
109,8,59762,2,0,P|81:51|75:96,1,80
135,131,60512,6,0,P|140:180|118:222,1,80
109,285,61262,1,0,0:0:0:0:
263,321,62012,1,0,0:0:0:0:
418,359,62762,2,0,P|431:309|430:258,1,80
434,200,63512,5,0,0:0:0:0:
280,164,64262,1,0,0:0:0:0:
124,128,65012,2,0,L|91:220,2,80
157,55,66137,1,0,0:0:0:0:
232,27,66512,6,0,P|367:66|368:157,1,240
343,221,68012,2,0,P|371:330|483:340,1,240
495,261,69512,5,0,0:0:0:0:
256,192,87512,12,0,89012,0:0:0:0:
153,96,90512,6,0,P|212:72|287:71,2,120
93,150,92012,2,0,P|82:188|80:228,1,80
34,293,92762,2,0,P|76:308|120:297,1,80
256,192,93512,12,0,96512,0:0:0:0:
328,144,98012,2,0,P|275:111|209:115,2,120
256,192,99512,12,0,100824,0:0:0:0:
295,283,102137,6,0,P|337:249|338:196,1,80
348,145,102887,2,0,P|314:103|261:102,1,80
210,96,103637,2,0,P|168:130|167:183,1,80
256,192,114512,12,0,116012,0:0:0:0:
121,101,117512,5,4,0:0:0:0:
188,58,117887,2,8,P|242:52|279:55,1,80
346,66,118637,2,8,L|362:165,2,80
421,40,119762,1,0,0:0:0:0:
483,90,120137,1,0,0:0:0:0:
477,169,120512,2,8,P|503:216|509:255,2,80
408,127,121637,2,0,P|366:102|326:91,2,80,2|2|2,0:0|0:0|0:0,0:0:0:0:
412,213,122762,6,0,P|394:289|314:323,1,160,0|8,0:0|0:0,0:0:0:0:
243,327,123887,1,8,0:0:0:0:
163,320,124262,1,8,0:0:0:0:
85,298,124637,2,0,P|60:264|63:214,1,80,2|2,0:0|0:0,0:0:0:0:
65,147,125387,6,0,L|17:82,2,80
129,194,126512,2,8,P|192:182|222:98,1,160
196,23,127637,2,0,P|157:16|120:30,1,80
332,40,128762,6,2,P|396:72|440:176,1,160
396,216,129887,1,0,0:0:0:0:
328,176,130262,2,0,P|249:173|182:215,1,160
144,288,131387,1,2,0:0:0:0:
220,316,131762,1,2,0:0:0:0:
296,343,132137,1,0,0:0:0:0:
377,330,132512,6,8,B|463:292,1,80
472,220,133262,2,2,P|480:172|472:120,1,80
448,64,134012,1,0,0:0:0:0:
374,33,134387,1,8,0:0:0:0:
294,23,134762,2,8,P|247:23|201:36,1,80
139,55,135512,6,0,P|151:81|198:110,1,80
272,115,136262,2,0,P|266:144|232:183,1,80
154,179,137012,2,8,P|183:244|265:255,1,160
330,208,138137,1,0,0:0:0:0:
406,232,138512,6,0,P|462:172|434:12,1,240
370,1,140012,2,0,P|314:61|342:221,1,240
356,288,141512,5,8,0:0:0:0:
280,312,141887,1,8,0:0:0:0:
200,304,142262,1,8,0:0:0:0:
130,263,142637,6,8,P|88:211|80:174,2,80
169,193,143762,2,8,P|158:126|170:90,1,80
197,43,144512,2,8,P|300:56|359:107,1,160
393,150,145637,1,2,0:0:0:0:
430,79,146012,2,8,P|466:34|502:24,1,80
505,105,146762,2,8,P|498:163|477:191,1,80
428,235,147512,5,4,0:0:0:0:
350,255,147887,2,8,L|272:212,1,80
205,187,148637,2,8,P|165:212|140:268,1,80
106,307,149387,5,0,0:0:0:0:
33,273,149762,2,8,P|8:240|-7:188,1,80
16,126,150512,2,2,L|0:29,2,80,2|2|10,0:0|0:0|0:0,0:0:0:0:
75,179,151637,1,8,0:0:0:0:
130,121,152012,2,0,L|219:56,1,80
269,110,152762,6,8,P|285:196|236:286,1,160
206,322,153887,1,8,0:0:0:0:
277,357,154262,2,8,P|361:360|432:319,1,160
474,260,155387,1,2,0:0:0:0:
423,198,155762,2,8,P|396:161|385:97,1,80
399,49,156512,5,0,0:0:0:0:
322,24,156887,2,8,P|271:23|227:35,1,80
175,73,157637,1,8,0:0:0:0:
108,118,158012,2,8,P|55:126|28:135,2,80,8|8|12,0:0|0:0|0:0,0:0:0:0:
179,154,159137,1,0,0:0:0:0:
251,119,159512,6,0,P|292:91|319:54,1,80
384,36,160262,2,0,P|388:92|379:116,1,80
347,188,161012,2,8,L|314:277,2,80
426,178,162137,1,2,0:0:0:0:
434,257,162512,6,2,P|420:295|285:335,1,160
253,299,163637,1,0,0:0:0:0:
195,242,164012,2,8,P|149:217|113:222,1,80
52,258,164762,2,8,L|95:324,1,80
176,323,165512,5,4,0:0:0:0:
88,80,166637,6,0,B|188:72|188:72|260:80,1,160
324,92,167762,2,0,P|360:128|364:164,1,80
336,228,168512,2,0,P|264:256|128:168,1,240
96,108,170012,1,0,0:0:0:0:
66,168,173387,6,0,B|102:252|102:252|152:317,1,160
218,336,174512,2,0,P|226:284|162:164,1,160
138,124,175637,2,0,B|114:84|114:84|110:44,1,80
270,32,176762,6,0,P|302:68|342:180,1,160
342,252,177887,1,0,0:0:0:0:
274,212,178262,2,0,P|274:292|414:220,1,320
390,144,180137,5,0,0:0:0:0:
422,72,180512,2,0,P|345:40|243:151,1,240
285,206,182012,2,0,P|242:219|164:146,1,160
89,120,183137,1,0,0:0:0:0:
65,196,183512,6,0,B|69:289,1,80
106,345,184262,2,0,L|180:309,1,80
249,274,185012,2,0,P|305:258|369:334,1,160
447,339,186137,1,0,0:0:0:0:
463,260,186512,6,0,B|405:187,1,80
348,150,187262,2,0,L|295:76,1,80
233,42,188012,2,0,B|81:93|190:206|28:267,1,320
