osu file format v14

[General]
AudioFilename: audio.mp3
AudioLeadIn: 0
PreviewTime: 31153
Countdown: 0
SampleSet: Soft
StackLeniency: 0.7
Mode: 0
LetterboxInBreaks: 0
WidescreenStoryboard: 1

[Editor]
DistanceSpacing: 3
BeatDivisor: 4
GridSize: 4
TimelineZoom: 1.08

[Metadata]
Title:Rapax
TitleUnicode:Rapax
Artist:Kevin Manthei
ArtistUnicode:Kevin Manthei
Creator:ZUN
Version:Al-Sedexus
Source:Wizardry 8
Tags:
BeatmapID:1086212
BeatmapSetID:510948

[Difficulty]
HPDrainRate:6
CircleSize:3.2
OverallDifficulty:7
ApproachRate:8.7
SliderMultiplier:2
SliderTickRate:2

[Events]
//Background and Video events
0,0,"fail.jpg",0,0
//Break Periods
2,42464,57026
//Storyboard Layer 0 (Background)
//Storyboard Layer 1 (Fail)
//Storyboard Layer 2 (Pass)
//Storyboard Layer 3 (Foreground)
//Storyboard Layer 4 (Overlay)
//Storyboard Sound Samples

[TimingPoints]
8931,555.555555555556,4,2,0,30,1,0
8936,-100,4,2,0,10,0,0
10042,-100,4,2,0,10,0,0
13375,-100,4,2,0,10,0,0
17819,-100,4,2,0,20,0,0
22264,-100,4,2,0,25,0,0
26708,-100,4,2,0,45,0,0
31153,-100,4,2,0,45,0,1
40875,-100,4,2,0,45,0,1
42264,-100,4,2,0,45,0,0
59764,-100,4,2,0,70,0,0
60042,-100,4,2,0,100,0,0
60597,-100,4,2,0,35,0,0
71153,-100,4,2,0,50,0,0
71292,-100,4,2,0,55,0,0
71431,-100,4,2,0,60,0,0
71569,-100,4,2,0,65,0,0
71708,-100,4,2,0,70,0,0
71847,-100,4,2,0,75,0,0
71986,-100,4,2,0,80,0,0
72125,-100,4,2,0,85,0,0
72264,-100,4,2,0,90,0,0
72403,-100,4,2,0,95,0,0
72542,-100,4,2,0,95,0,0
72681,-100,4,2,0,95,0,0
72819,-100,4,2,0,96,0,0
72958,-100,4,2,0,97,0,0
73097,-100,4,2,0,98,0,0
73236,-100,4,2,0,99,0,0
73375,-100,4,2,0,100,0,0
73931,-100,4,2,0,50,0,0

[Colours]
Combo1 : 183,0,183
Combo2 : 191,0,0
Combo3 : 20,15,238
Combo4 : 26,220,10

[HitObjects]
48,48,8931,6,0,L|76:152|76:152,1,100
360,52,9486,1,2,2:0:0:0:
444,340,9764,1,0,0:0:0:0:
144,344,10042,2,0,L|256:288|256:288,1,100
40,68,10597,1,2,2:0:0:0:
340,44,10875,1,0,0:0:0:0:
84,204,11153,2,0,L|212:236|212:236,1,100
460,344,11708,1,4,3:0:0:0:
256,124,11986,1,4,3:0:0:0:
44,336,12264,2,0,B|48:272|48:272|8:292|8:292,1,100
312,236,12819,1,0,0:0:0:0:
32,352,13375,6,0,B|44:280|44:280|72:312|72:312,1,100,0|0,3:3|3:3,3:3:0:0:
224,52,13931,1,2,2:0:0:0:
128,336,14208,1,0,0:0:0:0:
420,260,14486,2,0,L|300:200|300:200,1,100
68,68,15042,1,2,2:0:0:0:
184,344,15319,1,0,0:0:0:0:
360,100,15597,2,0,L|288:212|288:212,1,100
36,320,16153,5,4,3:0:0:0:
188,60,16431,1,4,3:0:0:0:
332,320,16708,1,2,2:0:0:0:
64,180,16986,1,2,2:0:0:0:
360,132,17264,1,4,0:0:0:0:
88,172,17819,6,0,B|128:80|128:80|252:40|252:40,1,200,4|0,3:0|3:0,3:0:0:0:
320,328,18653,1,0,3:0:0:0:
32,244,18931,2,0,B|96:164|96:164|32:36|32:36,1,200
348,36,19764,1,0,3:0:0:0:
224,308,20042,2,0,B|176:332|176:332|96:292|96:292,2,100
316,24,20875,1,0,3:0:0:0:
104,236,21153,2,0,B|156:208|156:208|156:112|156:112|224:60,1,200
456,224,21986,1,0,3:0:0:0:
180,344,22264,6,2,B|128:320|128:320|80:256|80:256|76:164|76:164,1,200
332,32,23097,1,0,3:0:0:0:
476,296,23375,1,0,3:0:0:0:
248,100,23653,1,0,3:0:0:0:
60,332,23931,1,8,3:0:0:0:
32,36,24208,1,8,3:0:0:0:
268,220,24486,2,0,B|164:232|164:232|100:200|100:200|36:228|36:228,1,200
348,344,25319,1,8,3:0:0:0:
276,52,25597,1,0,0:0:0:0:
464,288,25875,1,0,0:0:0:0:
184,184,26153,1,8,3:0:0:0:
452,44,26431,1,8,3:0:0:0:
392,336,26708,6,4,B|284:320|284:320|204:232|204:232,1,200,4|8,2:0|3:0,2:0:0:0:
32,20,27542,1,4,3:0:0:0:
328,76,27819,2,0,B|248:124|248:124|124:84|124:84,1,200,0|8,0:0|3:0,0:0:0:0:
28,368,28653,1,8,0:3:0:0:
276,200,28931,2,4,B|324:216|324:216|340:296|340:296|424:372|424:372,1,200,4|4,3:0|3:0,3:0:0:0:
92,340,29764,1,0,0:0:0:0:
260,92,30042,1,0,0:0:0:0:
260,92,30597,1,0,0:0:0:0:
436,336,30875,1,0,0:0:0:0:
260,92,31153,6,0,B|318:116|318:116|376:76|376:76,1,100
96,288,31708,1,0,1:3:0:0:
384,352,31986,1,0,0:0:0:0:
480,64,32264,2,0,L|423:58|423:58,1,50
192,32,32542,1,0,0:0:0:0:
96,320,32819,1,0,1:0:0:0:
32,32,33097,1,0,0:0:0:0:
32,32,33375,5,4,3:0:0:0:
332,52,33653,1,0,0:0:0:0:
464,320,33931,1,0,1:0:0:0:
236,124,34208,1,0,0:0:0:0:
236,124,34486,1,4,3:0:0:0:
36,340,34764,2,0,L|89:306|89:306,1,50
304,208,35042,1,0,1:0:0:0:
48,56,35319,1,0,1:0:0:0:
220,300,35597,5,4,3:0:0:0:
472,140,35875,1,0,0:0:0:0:
184,56,36153,2,0,B|168:72|168:72|104:56|104:56,1,50,0|0,1:3|1:3,1:3:0:0:
36,176,36431,2,0,B|72:188|72:188|76:232|76:232,1,50,0|0,3:0|3:0,3:0:0:0:
156,324,36708,1,4,3:0:0:0:
456,328,36986,1,0,0:0:0:0:
356,44,37264,2,0,B|328:52|328:52|312:80|312:80,1,50,0|0,1:0|1:0,1:0:0:0:
208,172,37542,2,0,B|228:188|228:188|256:188|256:188,1,50,0|0,3:0|3:0,3:0:0:0:
392,136,37819,5,4,3:0:0:0:
148,308,38097,1,0,0:0:0:0:
436,224,38375,2,0,B|440:260|440:260|416:276|416:276,1,50,0|0,1:0|1:0,1:0:0:0:
284,304,38653,2,0,B|256:312|256:312|228:288|228:288,1,50,0|0,3:0|3:0,3:0:0:0:
116,216,38931,1,4,3:0:0:0:
380,68,39208,1,0,3:0:0:0:
84,124,39486,2,0,B|72:92|72:92|100:60|100:60,1,50,0|0,1:0|1:0,1:0:0:0:
232,68,39764,2,0,B|244:36|244:36|292:32|292:32,1,50,0|0,3:0|3:0,3:0:0:0:
364,144,40042,5,4,3:0:0:0:
116,308,40319,1,0,0:0:0:0:
416,312,40597,2,0,B|460:316|460:316|492:280|492:280,1,50,0|0,1:0|1:0,1:0:0:0:
472,160,40875,2,0,B|460:124|460:124|412:128|412:128,1,50,0|0,1:0|1:0,1:0:0:0:
291,47,41153,2,0,B|255:39|255:39|223:83|223:83,1,50,4|0,1:0|1:0,1:0:0:0:
52,128,41431,2,0,B|60:164|60:164|100:176|100:176,1,50,0|0,1:0|1:0,1:0:0:0:
203,346,41708,2,0,B|235:358|235:358|263:322|263:322,1,50,0|0,1:0|1:0,1:0:0:0:
483,279,41986,2,0,B|479:243|479:243|439:211|439:211,1,50,0|0,1:0|1:0,1:0:0:0:
291,47,42264,1,4,1:0:0:0:
40,340,57819,5,8,3:0:0:0:
136,52,58097,1,8,3:0:0:0:
136,52,58931,1,8,3:0:0:0:
436,44,59208,1,8,3:0:0:0:
108,188,59764,5,8,3:0:0:0:
256,192,59903,1,8,3:0:0:0:
408,192,60042,1,8,3:0:0:0:
48,48,60597,6,0,B|112:92|112:92|120:124|120:124,1,100,0|0,2:0|2:0,2:0:0:0:
416,80,61153,1,0,2:0:0:0:
152,224,61431,1,0,2:0:0:0:
448,280,61708,2,0,B|364:264|364:264|340:236|340:236,1,100,0|0,2:0|2:0,2:0:0:0:
52,304,62264,1,0,2:0:0:0:
292,128,62542,1,0,2:0:0:0:
8,36,62819,1,0,2:0:0:0:
172,152,63375,5,0,2:0:0:0:
172,152,63931,5,0,2:0:0:0:
412,328,64208,1,0,2:0:0:0:
396,28,64486,1,2,2:0:0:0:
464,32,65042,6,0,B|392:72|392:72|352:56|352:56,1,100,0|0,2:0|2:0,2:0:0:0:
208,316,65597,1,0,2:0:0:0:
484,196,65875,1,0,2:0:0:0:
184,180,66153,2,0,B|120:140|120:140|84:144|84:144,1,100,0|0,2:0|2:0,2:0:0:0:
388,76,66708,1,0,2:0:0:0:
300,364,66986,1,0,2:0:0:0:
40,212,67264,2,0,B|120:208|120:208|144:240|144:240,1,100
432,220,67819,2,0,B|468:164|328:156|328:156|292:36|292:36|320:-4|320:-4,1,300
100,248,68931,6,0,B|160:272|160:272|192:304|192:304,1,100,0|0,2:0|2:0,2:0:0:0:
328,32,69486,1,2,2:0:0:0:
488,296,69764,1,0,2:0:0:0:
192,336,70042,2,0,B|224:296|224:296|204:248|204:248,1,100,0|0,2:0|2:0,2:0:0:0:
12,20,70597,1,0,2:0:0:0:
312,52,70875,1,0,2:0:0:0:
492,168,71153,6,0,L|492:240,1,50,0|0,3:0|3:0,3:0:0:0:
363,314,71431,2,0,L|363:242,1,50,0|0,3:0|3:0,3:0:0:0:
245,86,71708,2,0,L|245:162,1,50,0|0,3:0|3:0,3:0:0:0:
100,340,71986,2,0,L|100:268,1,50,0|0,3:0|3:0,3:0:0:0:
97,36,72264,6,0,L|173:36,1,50,0|0,3:0|3:0,3:0:0:0:
443,140,72542,2,0,L|367:140,1,50,0|0,3:0|3:0,3:0:0:0:
39,238,72819,2,0,L|115:238,1,50,0|0,3:0|3:0,3:0:0:0:
413,359,73097,2,0,L|337:359,1,50,0|0,3:0|3:0,3:0:0:0:
207,100,73375,1,4,3:0:0:0:
456,48,73931,6,0,B|420:84|420:84|372:56|372:56,1,100
480,352,74486,1,0,3:0:0:0:
192,272,74764,1,0,0:0:0:0:
420,76,75042,2,0,B|400:132|400:132|352:148|352:148,1,100
96,288,75597,5,0,3:0:0:0:
384,256,75875,1,0,0:0:0:0:
128,96,76153,1,0,3:0:0:0:
416,128,76431,1,0,3:0:0:0:
148,264,76708,2,0,B|212:252|212:252|276:296|276:296,1,100
28,60,77264,2,0,B|76:96|76:96|156:92|156:92,1,100
104,324,77819,5,2,3:0:0:0:
376,196,78097,1,0,0:0:0:0:
108,64,78375,2,0,B|144:116|144:116|128:148|128:148,1,100
416,68,78931,1,0,3:0:0:0:
468,364,79208,1,0,0:0:0:0:
172,304,79486,2,0,B|220:284|220:284|224:232|224:232,1,100
12,24,80042,1,0,3:0:0:0:
300,108,80319,1,0,0:0:0:0:
468,356,80597,1,0,3:0:0:0:
176,288,80875,1,0,3:0:0:0:
456,176,81153,2,2,B|428:108|428:108|456:48|456:48,1,100
156,184,81708,2,2,B|204:132|204:132|188:88|188:88,1,100
256,192,82264,12,4,90597,0:0:0:0:
