osu file format v14

[General]
AudioFilename: audio.mp3
AudioLeadIn: 0
PreviewTime: 31153
Countdown: 0
SampleSet: Soft
StackLeniency: 0.7
Mode: 0
LetterboxInBreaks: 0
WidescreenStoryboard: 1

[Editor]
DistanceSpacing: 2
BeatDivisor: 4
GridSize: 4
TimelineZoom: 1.08

[Metadata]
Title:Rapax
TitleUnicode:Rapax
Artist:Kevin Manthei
ArtistUnicode:Kevin Manthei
Creator:ZUN
Version:Hard
Source:Wizardry 8
Tags:
BeatmapID:1177300
BeatmapSetID:510948

[Difficulty]
HPDrainRate:5
CircleSize:4
OverallDifficulty:6
ApproachRate:7.2
SliderMultiplier:2
SliderTickRate:1

[Events]
//Background and Video events
0,0,"fail.jpg",0,0
//Break Periods
2,42499,56949
//Storyboard Layer 0 (Background)
//Storyboard Layer 1 (Fail)
//Storyboard Layer 2 (Pass)
//Storyboard Layer 3 (Foreground)
//Storyboard Layer 4 (Overlay)
//Storyboard Sound Samples

[TimingPoints]
8931,555.555555555556,4,2,0,30,1,0
8931,-100,4,2,0,30,0,0
13375,-100,4,2,0,30,0,0
17819,-100,4,2,0,35,0,0
22264,-100,4,2,0,35,0,0
26708,-100,4,2,0,45,0,0
31153,-100,4,2,0,70,0,1
40875,-100,4,2,0,70,0,1
42264,-100,4,2,0,70,0,0
59764,-100,4,2,0,70,0,0
60042,-100,4,2,0,100,0,0
60597,-100,4,2,0,35,0,0
71153,-100,4,2,0,50,0,0
71292,-100,4,2,0,55,0,0
71431,-100,4,2,0,60,0,0
71569,-100,4,2,0,65,0,0
71708,-100,4,2,0,70,0,0
71847,-100,4,2,0,75,0,0
71986,-100,4,2,0,80,0,0
72125,-100,4,2,0,85,0,0
72264,-100,4,2,0,90,0,0
72403,-100,4,2,0,95,0,0
72542,-100,4,2,0,95,0,0
72681,-100,4,2,0,95,0,0
72819,-100,4,2,0,96,0,0
72958,-100,4,2,0,97,0,0
73097,-100,4,2,0,98,0,0
73375,-100,4,2,0,100,0,0
73931,-100,4,2,0,50,0,0

[Colours]
Combo1 : 183,0,183
Combo2 : 191,0,0
Combo3 : 20,15,238
Combo4 : 26,220,10

[HitObjects]
256,192,8931,6,0,B|256:132|256:132|224:100|224:100,1,100,4|0,3:0|3:0,3:0:0:0:
256,192,9486,2,0,B|296:152|296:152|296:108|296:108,1,100,0|0,2:0|2:0,2:0:0:0:
256,192,10042,2,0,B|308:191|308:191|352:147|352:147,1,100,0|0,3:0|3:0,3:0:0:0:
256,192,10597,2,0,B|314:225|314:225|372:210|372:210,1,100,0|0,2:0|2:0,2:0:0:0:
256,192,11153,2,0,B|271:249|271:249|310:272|310:272,1,100,0|0,3:0|3:0,3:0:0:0:
256,192,11708,2,4,B|227:240|227:240|239:283|239:283,1,100,4|4,3:0|3:0,3:0:0:0:
125,183,12264,1,0,0:0:0:0:
238,282,12542,1,0,0:0:0:0:
88,284,12819,1,0,0:0:0:0:
256,56,13375,5,0,3:0:0:0:
108,85,13653,1,0,0:0:0:0:
250,132,13931,1,8,0:0:0:0:
104,168,14208,1,0,0:0:0:0:
250,132,14486,5,0,3:0:0:0:
399,150,14764,1,0,0:0:0:0:
259,205,15042,1,8,0:0:0:0:
403,244,15319,1,0,0:0:0:0:
235,299,15597,6,0,B|109:299|109:299|51:241,1,200,0|0,3:0|3:0,1:0:0:0:
56,156,16431,1,0,3:0:0:0:
56,66,16708,2,0,B|97:26|97:26|253:26|253:26,1,200,2|2,0:0|0:0,0:0:0:0:
330,26,17542,1,0,0:0:0:0:
330,115,17819,6,2,B|255:190|255:190|132:191,1,200,6|2,3:0|0:0,0:0:0:0:
70,190,18653,1,0,3:0:0:0:
70,280,18931,1,0,0:0:0:0:
249,280,19486,2,0,B|352:280|352:280|420:212|420:212,1,200
420,121,20319,1,0,0:0:0:0:
356,57,20597,1,0,0:0:0:0:
265,57,20875,1,0,0:0:0:0:
174,57,21153,2,0,B|96:136|96:136|96:224|96:224,1,200
96,315,21986,1,0,0:0:0:0:
186,315,22264,6,0,L|408:316,1,200
449,252,23097,1,0,3:0:0:0:
475,104,23375,1,0,3:0:0:0:
329,140,23653,1,0,3:0:0:0:
197,25,23931,1,8,3:0:0:0:
31,111,24208,1,0,3:0:0:0:
217,234,24486,6,0,B|280:296|280:296|404:296,1,200
391,205,25319,1,0,3:0:0:0:
391,114,25597,2,0,B|321:43|321:43|237:127,1,200
156,112,26431,1,0,0:0:0:0:
94,169,26708,6,0,B|94:288|94:288|96:288,1,100
184,269,27264,1,0,0:0:0:0:
274,269,27542,1,0,0:0:0:0:
363,269,27819,2,0,B|363:151|363:151|300:88|300:88,1,200
214,93,28653,1,0,0:0:0:0:
150,156,28931,2,0,L|68:238,1,100
79,316,29486,1,0,0:0:0:0:
169,316,29764,1,0,0:0:0:0:
259,316,30042,2,0,L|477:316,1,200
271,190,30875,1,0,0:0:0:0:
140,192,31153,5,4,3:0:0:0:
267,64,31431,1,0,0:0:0:0:
393,190,31708,1,0,0:0:0:0:
265,317,31986,1,0,0:0:0:0:
407,203,32264,1,4,3:0:0:0:
280,82,32542,1,0,0:0:0:0:
154,201,32819,1,0,0:0:0:0:
282,328,33097,1,0,0:0:0:0:
53,284,33375,6,0,L|166:284,1,100,4|0,3:0|0:0,0:0:0:0:
396,244,33931,1,0,0:0:0:0:
176,170,34208,1,0,0:0:0:0:
350,344,34486,2,0,B|398:357|398:357|480:344|480:344,1,100,4|0,3:0|0:0,0:0:0:0:
283,161,35042,1,0,0:0:0:0:
512,217,35319,1,0,0:0:0:0:
336,39,35597,6,0,B|380:66|380:66|415:124,2,100,4|0|0,3:0|3:0|3:0,3:0:0:0:
156,37,36431,1,2,3:0:0:0:
4,234,36708,5,4,3:0:0:0:
182,351,36986,2,0,B|205:307|205:307|270:263|270:263,2,100
459,309,37819,5,4,3:0:0:0:
364,127,38097,1,0,0:0:0:0:
172,103,38375,1,0,0:0:0:0:
417,26,38653,1,0,0:0:0:0:
305,299,38931,6,0,B|328:250|328:250|306:180|306:180,1,100,4|0,3:0|3:0,3:0:0:0:
179,20,39486,1,0,0:0:0:0:
13,208,39764,1,0,0:0:0:0:
193,361,40042,2,0,B|206:306|206:306|263:264|263:264,1,100,4|0,3:0|3:0,0:0:0:0:
469,121,40597,1,0,0:0:0:0:
237,115,40875,1,0,0:0:0:0:
111,352,41153,2,4,B|60:327|60:327|57:269,1,100,4|0,3:0|3:0,0:0:0:0:
61,63,41708,1,0,3:0:0:0:
318,22,41986,1,0,3:0:0:0:
469,222,42264,1,0,0:0:0:0:
70,318,57819,5,0,0:0:0:0:
205,34,58097,1,0,0:0:0:0:
471,349,58931,5,0,0:0:0:0:
314,67,59208,1,0,0:0:0:0:
280,192,59764,6,8,L|231:193,2,50,8|8|8,3:0|3:0|3:0,3:0:0:0:
444,52,60597,5,0,0:0:0:0:
417,280,60875,1,0,0:0:0:0:
224,154,61153,1,0,0:0:0:0:
134,366,61431,5,0,0:0:0:0:
61,148,61708,1,0,0:0:0:0:
251,19,61986,1,0,0:0:0:0:
233,248,62264,5,0,0:0:0:0:
388,78,62542,1,0,0:0:0:0:
484,285,62819,1,0,0:0:0:0:
88,49,63375,5,0,0:0:0:0:
432,354,63931,1,0,0:0:0:0:
24,172,64486,5,8,0:0:0:0:
204,46,64764,1,0,0:0:0:0:
145,258,65042,5,0,0:0:0:0:
232,67,65319,1,0,0:0:0:0:
252,284,65597,5,0,0:0:0:0:
256,83,65875,1,0,0:0:0:0:
335,255,66153,5,0,0:0:0:0:
274,86,66431,1,0,0:0:0:0:
460,55,66708,5,0,0:0:0:0:
440,244,66986,1,0,0:0:0:0:
299,372,67264,1,0,0:0:0:0:
44,90,67819,5,0,0:0:0:0:
358,303,68375,1,0,0:0:0:0:
428,76,68931,5,8,0:0:0:0:
228,76,69208,1,0,0:0:0:0:
232,276,69486,1,0,0:0:0:0:
432,276,69764,1,0,0:0:0:0:
232,276,70042,1,0,0:0:0:0:
32,276,70319,1,0,0:0:0:0:
32,76,70597,1,0,0:0:0:0:
232,80,70875,1,0,0:0:0:0:
405,139,71153,6,0,B|426:154|426:154|440:192|440:192,1,50,0|0,3:0|3:0,3:0:0:0:
444,280,71431,2,0,B|423:303|423:303|380:312|380:312,1,50,0|0,3:0|3:0,3:0:0:0:
278,336,71708,2,0,B|251:327|251:327|256:294|256:294,1,50,0|0,3:0|3:0,3:0:0:0:
297,159,71986,2,0,B|318:134|318:134|297:93|297:93,1,50,0|0,3:0|3:0,3:0:0:0:
167,46,72264,2,0,B|138:36|138:36|111:46|111:46,1,50,0|0,3:0|3:0,3:0:0:0:
41,183,72542,2,0,B|15:199|15:199|27:235|27:235,1,50,0|0,3:0|3:0,3:0:0:0:
146,339,72819,2,0,B|171:353|171:353|214:335|214:335,1,50,0|0,3:0|3:0,3:0:0:0:
346,217,73097,2,0,B|369:205|369:205|409:218|409:218,2,50,0|0|0,3:0|3:0|3:0,3:0:0:0:
32,60,73931,5,0,0:0:0:0:
230,43,74208,1,0,0:0:0:0:
415,119,74486,2,0,B|462:134|462:134|459:193|459:193,1,100
347,351,75042,1,0,0:0:0:0:
149,325,75319,1,0,0:0:0:0:
75,138,75597,2,0,B|101:186|101:186|160:161|160:161,1,100,8|0,3:0|3:0,3:0:0:0:
332,102,76153,1,8,3:0:0:0:
147,24,76431,1,8,3:0:0:0:
276,175,76708,2,0,B|220:184|220:184|212:227|212:227,1,100
70,366,77264,2,0,B|36:325|36:325|53:268|53:268,1,100
148,106,77819,5,8,3:0:0:0:
146,306,78097,1,0,0:0:0:0:
342,341,78375,1,0,0:0:0:0:
467,184,78653,1,0,0:0:0:0:
341,27,78931,2,0,B|296:47|296:47|257:123|257:123,1,100
83,157,79486,2,0,B|96:208|96:208|162:253|162:253,1,100
311,329,80042,1,8,0:0:0:0:
486,233,80319,1,0,0:0:0:0:
291,185,80597,2,8,B|261:146|261:146|183:151|183:151,1,100
409,132,81153,1,0,0:0:0:0:
387,330,81431,1,0,0:0:0:0:
192,284,81708,1,0,0:0:0:0:
256,192,82264,12,0,90319,0:0:0:0:
