osu file format v14

[General]
AudioFilename: audio.mp3
AudioLeadIn: 0
PreviewTime: -1
Countdown: 1
SampleSet: Normal
StackLeniency: 1
Mode: 0
LetterboxInBreaks: 0
WidescreenStoryboard: 0

[Editor]
DistanceSpacing: 1.2
BeatDivisor: 4
GridSize: 4
TimelineZoom: 1

[Metadata]
Title:Johnny Test Theme Song
TitleUnicode:Johnny Test Theme Song
Artist:Kevin Manthei
ArtistUnicode:Kevin Manthei
Creator:ario
Version:Insane
Source:johnny test
Tags:johnny test theme song; johnny; test; lol
BeatmapID:1552656
BeatmapSetID:735551

[Difficulty]
HPDrainRate:6
CircleSize:4.5
OverallDifficulty:8
ApproachRate:9.7
SliderMultiplier:1.5
SliderTickRate:1

[Events]
//Background and Video events
0,0,"maxresdefault (2).jpg",0,0
//Break Periods
//Storyboard Layer 0 (Background)
//Storyboard Layer 1 (Fail)
//Storyboard Layer 2 (Pass)
//Storyboard Layer 3 (Foreground)
//Storyboard Sound Samples

[TimingPoints]
7450,300,4,1,0,90,1,0
23050,-200,4,1,0,90,0,0
24100,-66.6666666666667,4,1,0,90,0,0

[HitObjects]
252,192,7450,5,0,0:0:0:0:
252,192,7750,1,0,0:0:0:0:
252,192,8050,1,0,0:0:0:0:
252,192,8350,1,0,0:0:0:0:
252,192,8650,5,0,0:0:0:0:
252,192,8950,1,0,0:0:0:0:
252,192,9250,1,0,0:0:0:0:
408,72,9550,1,0,0:0:0:0:
200,64,9850,6,0,P|176:96|164:132,1,75
316,120,10150,1,0,0:0:0:0:
420,228,10300,2,0,P|336:248|260:220,1,150
168,128,10750,1,0,0:0:0:0:
312,320,11050,6,0,B|336:288|336:288|348:252,1,75
196,264,11350,1,0,0:0:0:0:
92,156,11500,2,0,B|168:140|168:140|252:164,1,150
344,256,11950,1,0,0:0:0:0:
256,184,12250,5,0,0:0:0:0:
284,196,12550,1,0,0:0:0:0:
272,224,12850,1,0,0:0:0:0:
244,216,13150,1,0,0:0:0:0:
260,188,13450,5,0,0:0:0:0:
284,196,13750,1,0,0:0:0:0:
272,224,14050,1,0,0:0:0:0:
184,152,14350,1,0,0:0:0:0:
164,255,14650,6,0,P|177:290|199:319,1,75
368,240,14950,1,0,0:0:0:0:
436,64,15100,2,0,P|364:43|292:61,1,150
120,136,15550,1,0,0:0:0:0:
440,264,15850,6,0,B|427:299|427:299|404:328,1,75
260,208,16150,1,0,0:0:0:0:
160,48,16300,2,0,B|232:27|232:27|308:47,1,150
452,164,16750,1,0,0:0:0:0:
256,184,17050,5,0,0:0:0:0:
332,196,17350,1,0,0:0:0:0:
324,272,17650,1,0,0:0:0:0:
248,264,17950,1,0,0:0:0:0:
260,188,18250,5,0,0:0:0:0:
336,200,18550,1,0,0:0:0:0:
332,276,18850,1,0,0:0:0:0:
232,164,19150,1,0,0:0:0:0:
108,268,19450,6,0,P|120:303|143:332,1,75
328,204,19750,1,0,0:0:0:0:
432,4,19900,2,0,P|360:-16|288:1,1,150
188,204,20350,1,0,0:0:0:0:
24,76,20650,6,0,P|36:40|72:32,1,75
244,140,20950,1,0,0:0:0:0:
348,340,21100,2,0,P|304:360|260:356,1,75
168,256,21400,1,0,0:0:0:0:
108,136,21550,6,0,P|144:108|204:100,1,75
392,140,22000,1,0,0:0:0:0:
312,216,22150,2,0,P|272:192|240:152,1,75
280,64,22450,2,0,P|220:52|196:60,1,75
160,156,22750,1,0,0:0:0:0:
164,228,22900,1,0,0:0:0:0:
92,296,23050,6,0,P|132:320|172:320,1,75
224,264,23650,2,0,P|248:236|276:220,1,56.25
396,200,23950,1,0,0:0:0:0:
224,48,24250,6,0,P|172:96|160:144,1,112.500004291535
324,176,24550,1,0,0:0:0:0:
380,60,24700,2,0,P|432:92|452:152,1,112.500004291535
400,300,25150,1,0,0:0:0:0:
244,312,25450,6,0,P|192:264|180:216,1,112.500004291535
344,184,25750,1,0,0:0:0:0:
400,300,25900,2,0,P|452:268|472:208,1,112.500004291535
420,120,26200,5,0,0:0:0:0:
365,105,26275,1,0,0:0:0:0:
309,105,26350,1,0,0:0:0:0:
255,119,26425,1,0,0:0:0:0:
206,146,26500,1,0,0:0:0:0:
104,296,26650,5,0,0:0:0:0:
204,44,26950,1,0,0:0:0:0:
420,204,27250,1,0,0:0:0:0:
152,160,27550,1,0,0:0:0:0:
280,272,27850,6,0,P|216:300|164:304,1,112.500004291535
84,204,28150,2,0,P|120:144|112:100,1,112.500004291535
4,24,28450,2,0,P|76:12|128:16,1,112.500004291535
204,116,28750,1,0,0:0:0:0:
404,296,29050,5,0,0:0:0:0:
268,64,29350,1,0,0:0:0:0:
132,296,29650,1,0,0:0:0:0:
368,164,29950,1,0,0:0:0:0:
232,272,30250,6,0,P|296:300|348:304,1,112.500004291535
428,204,30550,2,0,P|392:144|400:100,1,112.500004291535
508,24,30850,2,0,P|436:12|384:16,1,112.500004291535
308,116,31150,1,0,0:0:0:0:
404,88,31450,5,0,0:0:0:0:
268,320,31750,1,0,0:0:0:0:
132,88,32050,1,0,0:0:0:0:
368,220,32350,1,0,0:0:0:0:
100,264,32650,6,0,P|96:200|120:152,1,112.500004291535
236,96,32950,1,0,0:0:0:0:
308,208,33100,2,0,P|364:124|364:84,1,112.500004291535
236,96,33400,2,0,P|204:152|148:156,1,112.500004291535
0,352,33850,6,0,B|476:132|485:127|494:127|496:132|496:136|508:128|510:133|512:140|516:128|524:129|527:135|531:129|528:112|528:112|535:122|541:128|538:116|543:119|548:116|545:109|536:110|532:104|530:99|540:100|548:96|548:96|551:99|544:88|548:83|553:85|540:88|540:80|532:80|532:76|540:71|548:72|536:68|540:60|532:52|532:60|523:74|524:68|520:60|521:54|524:48|508:52|502:44|508:64|500:56|492:48|484:44|491:58|509:71|496:65|496:72|486:76|472:72|481:69|480:60|476:53|476:48|464:52|460:60|468:60|492:84|464:80|460:75|456:72|464:88|452:88|460:92|463:94|464:104|460:104|456:104|469:112|460:116|468:120|476:112|475:119|492:120|494:112|503:113|512:120|511:113|520:104|524:96|525:87|531:87|524:80|516:80|514:74|500:76|500:84|500:92|488:96|480:92|481:102|488:108|496:104|504:104|512:104|508:96|516:96|512:88|505:87|504:96,1,900.000034332277
108,52,36250,5,0,0:0:0:0:
160,316,36550,1,0,0:0:0:0:
264,68,36850,1,0,0:0:0:0:
356,324,37150,1,0,0:0:0:0:
408,60,37450,5,0,0:0:0:0:
268,292,37750,1,0,0:0:0:0:
156,44,38050,1,0,0:0:0:0:
64,300,38350,1,0,0:0:0:0:
280,140,38650,5,0,0:0:0:0:
472,332,38950,1,0,0:0:0:0:
216,244,39250,1,0,0:0:0:0:
468,144,39550,1,0,0:0:0:0:
232,140,39850,5,0,0:0:0:0:
40,332,40150,1,0,0:0:0:0:
296,244,40450,1,0,0:0:0:0:
44,144,40750,1,0,0:0:0:0:
256,192,41050,12,0,41125,0:0:0:0:
256,192,41200,12,0,41275,0:0:0:0:
256,192,41350,12,0,41425,0:0:0:0:
256,192,41500,12,0,41650,0:0:0:0:
256,192,41725,12,0,41800,0:0:0:0:
256,192,41875,12,0,41950,0:0:0:0:
256,192,42100,12,0,42250,0:0:0:0:
256,192,42400,12,0,42550,0:0:0:0:
256,192,42700,12,0,42850,0:0:0:0:
256,192,43000,12,0,43450,0:0:0:0:
404,52,45850,5,0,0:0:0:0:
352,316,46150,1,0,0:0:0:0:
248,68,46450,1,0,0:0:0:0:
156,324,46750,1,0,0:0:0:0:
104,60,47050,5,0,0:0:0:0:
244,292,47350,1,0,0:0:0:0:
356,44,47650,1,0,0:0:0:0:
448,300,47950,1,0,0:0:0:0:
232,140,48250,5,0,0:0:0:0:
40,332,48550,1,0,0:0:0:0:
296,244,48850,1,0,0:0:0:0:
44,144,49150,1,0,0:0:0:0:
280,140,49450,5,0,0:0:0:0:
472,332,49750,1,0,0:0:0:0:
216,244,50050,1,0,0:0:0:0:
468,144,50350,1,0,0:0:0:0:
256,192,50650,12,0,50725,0:0:0:0:
256,192,50800,12,0,50875,0:0:0:0:
256,192,50950,12,0,51025,0:0:0:0:
256,192,51100,12,0,51250,0:0:0:0:
256,192,51325,12,0,51400,0:0:0:0:
256,192,51475,12,0,51550,0:0:0:0:
256,192,51700,12,0,51925,0:0:0:0:
256,192,52150,12,0,52300,0:0:0:0:
256,192,52450,12,0,52750,0:0:0:0:
256,192,53050,12,0,57850,0:0:0:0:
