osu file format v14

[General]
AudioFilename: ZIMMY.mp3
AudioLeadIn: 0
PreviewTime: 1878
Countdown: 0
SampleSet: Normal
StackLeniency: 0.7
Mode: 1
LetterboxInBreaks: 0
WidescreenStoryboard: 0

[Editor]
DistanceSpacing: 0.7
BeatDivisor: 4
GridSize: 4
TimelineZoom: 1.9

[Metadata]
Title:Invader Zim Theme Song
TitleUnicode:Invader Zim Theme Song
Artist:Kevin Manthei
ArtistUnicode:Kevin Manthei
Creator:Stingy
Version:Futsuu
Source:Invader Zim
Tags:Vulkin gir piggy Jhonen Vasquez animated animation cartoon network tv alien irk
BeatmapID:1208651
BeatmapSetID:568278

[Difficulty]
HPDrainRate:6
CircleSize:2
OverallDifficulty:4
ApproachRate:8
SliderMultiplier:1.4
SliderTickRate:1

[Events]
//Background and Video events
0,0,"-- Invader ZIM Wallpaper HD Wallpapers - High definition Wallpapers.jpg",0,0
//Break Periods
//Storyboard Layer 0 (Background)
//Storyboard Layer 1 (Fail)
//Storyboard Layer 2 (Pass)
//Storyboard Layer 3 (Foreground)
//Storyboard Sound Samples

[TimingPoints]
129.709212858766,499.583680266445,4,1,1,60,1,0
2128,-100,4,1,1,60,0,0
30104,-100,4,1,1,60,0,1
37598,-100,4,1,1,60,0,0

[Colours]
Combo1 : 255,192,0
Combo2 : 0,202,0
Combo3 : 18,124,255
Combo4 : 242,24,57

[HitObjects]
256,192,2128,5,0,0:0:0:0:
256,192,2627,1,8,0:0:0:0:
256,192,3626,1,8,0:0:0:0:
256,192,4126,1,0,0:0:0:0:
256,192,4625,1,8,0:0:0:0:
256,192,5375,1,0,0:0:0:0:
256,192,5625,1,8,0:0:0:0:
256,192,6124,1,0,0:0:0:0:
256,192,6624,1,8,0:0:0:0:
256,192,7373,1,0,0:0:0:0:
256,192,7623,1,8,0:0:0:0:
256,192,8123,1,0,0:0:0:0:
256,192,8372,1,0,0:0:0:0:
256,192,8622,1,8,0:0:0:0:
256,192,9122,1,0,0:0:0:0:
256,192,9372,1,8,0:0:0:0:
256,192,9621,1,8,0:0:0:0:
256,192,10121,1,0,0:0:0:0:
256,192,10620,1,8,0:0:0:0:
256,192,11619,1,8,0:0:0:0:
256,192,12119,1,0,0:0:0:0:
256,192,12618,1,8,0:0:0:0:
256,192,13118,1,0,0:0:0:0:
256,192,13368,1,0,0:0:0:0:
256,192,13618,1,8,0:0:0:0:
256,192,14117,1,0,0:0:0:0:
256,192,14617,1,8,0:0:0:0:
256,192,15117,1,0,0:0:0:0:
256,192,15366,1,0,0:0:0:0:
256,192,15616,1,8,0:0:0:0:
256,192,16116,1,8,0:0:0:0:
256,192,16366,1,0,0:0:0:0:
256,192,16615,1,8,0:0:0:0:
256,192,16865,1,0,0:0:0:0:
256,192,17115,1,8,0:0:0:0:
256,192,18114,12,8,19613,0:0:0:0:
256,192,20113,5,0,0:0:0:0:
256,192,20612,1,8,0:0:0:0:
256,192,21112,1,0,0:0:0:0:
256,192,21611,1,8,0:0:0:0:
256,192,22111,12,8,23610,0:0:0:0:
256,192,24109,5,8,0:0:0:0:
256,192,24609,1,0,0:0:0:0:
256,192,25108,1,8,0:0:0:0:
256,192,25608,1,0,0:0:0:0:
256,192,26108,12,0,27606,0:0:0:0:
256,192,28106,5,0,0:0:0:0:
256,192,28605,1,0,0:0:0:0:
256,192,29105,1,8,0:0:0:0:
256,192,29355,1,8,0:0:0:0:
256,192,29605,1,8,0:0:0:0:
256,192,30104,1,4,0:0:0:0:
256,192,30604,1,8,0:0:0:0:
256,192,31103,1,0,0:0:0:0:
256,192,31603,1,8,0:0:0:0:
256,192,32103,1,0,0:0:0:0:
256,192,32602,1,8,0:0:0:0:
256,192,33102,1,0,0:0:0:0:
256,192,33352,1,8,0:0:0:0:
256,192,33601,1,8,0:0:0:0:
256,192,34101,1,4,0:0:0:0:
256,192,34600,1,8,0:0:0:0:
256,192,35100,1,0,0:0:0:0:
256,192,35600,1,8,0:0:0:0:
256,192,36099,1,8,0:0:0:0:
256,192,36599,1,8,0:0:0:0:
256,192,37098,1,0,0:0:0:0:
256,192,37348,1,0,0:0:0:0:
256,192,37598,1,0,0:0:0:0:
