osu file format v14

[General]
AudioFilename: ZIMMY.mp3
AudioLeadIn: 0
PreviewTime: 1878
Countdown: 0
SampleSet: None
StackLeniency: 0.7
Mode: 0
LetterboxInBreaks: 0
WidescreenStoryboard: 0

[Editor]
DistanceSpacing: 1
BeatDivisor: 1
GridSize: 4
TimelineZoom: 1.2

[Metadata]
Title:"Invader Zim" Theme Song
TitleUnicode:"Invader Zim" Theme Song
Artist:Kevin Manthei
ArtistUnicode:Kevin Manthei
Creator:Bubblun
Version:Irre's Hard
Source:Invader Zim
Tags:Nickelodeon Irreversible CanadianBaka Jhonen Vasquez GIR Dib Irk cartoon Gero
BeatmapID:1123768
BeatmapSetID:530071

[Difficulty]
HPDrainRate:5
CircleSize:4
OverallDifficulty:5
ApproachRate:6.5
SliderMultiplier:1.4
SliderTickRate:1

[Events]
//Background and Video events
0,0,"tDjFmHx.jpg",0,0
//Break Periods
//Storyboard Layer 0 (Background)
//Storyboard Layer 1 (Fail)
//Storyboard Layer 2 (Pass)
//Storyboard Layer 3 (Foreground)
//Storyboard Sound Samples

[TimingPoints]
129.709212858766,499.583680266445,4,3,1,40,1,0
8622,-117.647058823529,4,3,1,30,0,0
9122,-153.846153846154,4,3,1,30,0,0
9372,-100,4,3,1,30,0,0
16615,-83.3333333333333,4,3,1,30,0,0
17115,-71.4285714285714,4,3,1,30,0,0
18114,-83.3333333333333,4,3,1,30,0,0
20362,-76.9230769230769,4,3,1,35,0,0
20612,-71.4285714285714,4,3,1,40,0,0
20862,-66.6666666666667,4,3,1,45,0,0
21112,-62.5,4,3,1,50,0,0
21362,-58.8235294117647,4,3,1,55,0,0
21611,-55.5555555555556,4,3,1,60,0,0
21861,-52.6315789473684,4,3,1,100,0,0
22111,-90.9090909090909,4,3,1,30,0,0
24359,-83.3333333333333,4,3,1,35,0,0
24609,-76.9230769230769,4,3,1,40,0,0
24859,-71.4285714285714,4,3,1,45,0,0
25108,-66.6666666666667,4,3,1,50,0,0
25358,-62.5,4,3,1,55,0,0
25608,-58.8235294117647,4,3,1,60,0,0
25858,-55.5555555555556,4,3,1,65,0,0
26108,-90.9090909090909,4,3,1,30,0,0
30104,-83.3333333333333,4,3,1,60,0,1
37598,-200,4,3,1,20,0,0
38098,-200,4,3,1,5,0,0

[Colours]
Combo1 : 255,128,0
Combo2 : 217,64,255
Combo3 : 128,164,72
Combo4 : 193,129,98
Combo5 : 155,64,78
Combo6 : 255,4,4
SliderBorder : 255,255,255
SliderTrackOverride : 205,155,255

[HitObjects]
80,312,1878,5,0,0:0:0:0:
80,312,2003,1,0,0:0:0:0:
80,312,2128,2,0,L|159:306,1,70,0|0,0:1|0:0,0:0:0:0:
228,340,2627,1,8,0:0:0:0:
288,280,2877,2,0,P|300:216|292:196,1,70
252,144,3377,2,0,P|275:169|307:183,1,70,0|8,0:0|0:0,0:0:0:0:
397,159,3876,5,0,0:0:0:0:
397,159,4001,1,0,0:0:0:0:
397,159,4126,1,0,0:0:0:0:
428,236,4376,1,0,0:0:0:0:
508,260,4625,2,0,L|424:256,1,70,8|0,0:0|0:0,0:0:0:0:
384,340,5125,5,2,0:0:0:0:
256,264,5375,1,2,0:0:0:0:
128,340,5625,1,0,1:0:0:0:
64,264,5874,1,0,0:0:0:0:
64,264,5999,1,0,0:0:0:0:
64,264,6124,6,0,L|56:176,1,70
96,120,6624,1,8,0:0:0:0:
185,146,6874,1,0,0:0:0:0:
185,146,7124,2,0,L|273:138,1,70
324,52,7623,1,8,0:0:0:0:
324,52,7873,1,0,1:0:0:0:
432,79,8123,38,0,P|444:135|436:171,1,70,4|0,0:0|0:0,0:0:0:0:
493,197,8622,6,0,P|469:232|446:247,1,59.5000011348725,2|0,0:0|0:0,0:0:0:0:
448,284,9122,6,0,P|413:291|392:286,1,45.4999979171754,0|2,1:0|2:0,0:0:0:0:
256,192,9621,1,2,2:0:0:0:
362,77,9871,5,0,0:0:0:0:
362,77,9996,1,0,0:0:0:0:
362,77,10121,2,0,L|432:72,1,70
284,44,10620,1,8,0:0:0:0:
224,104,10870,2,0,P|212:168|220:188,1,70
260,240,11370,2,0,P|236:214|204:200,1,70,0|8,0:0|0:0,0:0:0:0:
115,225,11869,37,0,0:0:0:0:
115,225,11994,1,0,0:0:0:0:
115,225,12119,1,0,0:0:0:0:
84,148,12369,1,0,0:0:0:0:
4,124,12619,2,0,L|88:128,1,70,8|0,0:0|0:0,0:0:0:0:
128,44,13118,5,2,0:0:0:0:
256,120,13368,1,2,0:0:0:0:
384,44,13618,1,0,1:0:0:0:
448,120,13867,1,0,0:0:0:0:
448,120,13992,1,0,0:0:0:0:
448,120,14118,6,0,L|456:208,1,70,0|0,1:0|0:0,0:0:0:0:
454,274,14617,1,8,0:0:0:0:
368,160,14867,1,0,0:0:0:0:
368,160,14992,1,0,0:0:0:0:
368,160,15117,6,0,L|376:248,1,70,0|0,1:0|0:0,0:0:0:0:
374,314,15617,1,0,0:0:0:0:
255,247,15866,1,0,0:0:0:0:
138,314,16116,38,0,P|88:328|46:318,1,70,4|0,0:0|0:0,0:0:0:0:
207,181,16615,6,0,P|244:217|256:258,1,83.9999974365235,2|0,0:0|0:0,0:0:0:0:
72,192,17115,6,0,P|85:139|116:107,1,97.9999970092774,0|2,1:0|2:0,0:0:0:0:
256,40,17614,1,2,2:0:0:0:
328,112,17864,1,2,0:0:0:0:
420,148,18114,5,4,1:0:0:0:
420,148,19613,1,0,1:0:0:0:
416,168,19737,1,0,1:0:0:0:
412,189,19862,1,0,1:0:0:0:
409,210,19987,1,0,1:0:0:0:
404,232,20113,38,0,L|308:244,1,83.9999974365235,4|0,0:0|0:0,0:0:0:0:
236,272,20612,6,0,L|340:258,1,97.9999970092774
452,300,21112,6,0,L|317:316,1,112,4|0,0:0|0:0,0:0:0:0:
160,372,21611,6,0,L|294:355,2,125.999996154785,0|0|4,0:0|0:0|1:0,0:0:0:0:
92,148,23610,1,0,1:0:0:0:
96,168,23734,1,0,1:0:0:0:
100,189,23859,1,0,1:0:0:0:
103,210,23984,1,0,1:0:0:0:
108,232,24109,38,0,L|204:244,1,77.0000023498536,4|0,0:0|0:0,0:0:0:0:
276,272,24609,6,0,L|171:258,1,90.9999958343508
60,300,25108,6,0,L|194:316,1,105.000004005432,4|0,0:0|0:0,0:0:0:0:
352,372,25608,6,0,L|217:355,2,119.000002269745,0|0|4,0:0|0:0|1:1,0:0:0:0:
421,165,27606,1,0,1:0:0:0:
404,159,27731,1,0,1:0:0:0:
404,140,27856,1,0,1:0:0:0:
421,135,27981,1,0,1:0:0:0:
431,149,28106,1,4,1:0:0:0:
256,192,28231,12,0,29605,0:0:0:0:
68,192,30104,6,0,P|56:152|60:100,1,83.9999974365235,4|0,0:0|0:0,0:0:0:0:
144,56,30604,2,0,P|156:96|152:148,1,83.9999974365235
240,192,31103,2,0,L|328:188,1,83.9999974365235,8|0,0:0|0:0,0:0:0:0:
368,328,31603,2,0,L|280:332,1,83.9999974365235
444,192,32103,6,0,P|456:232|452:284,1,83.9999974365235,4|0,0:0|0:0,0:0:0:0:
368,328,32603,2,0,P|356:288|360:236,1,83.9999974365235
272,192,33102,2,0,L|184:196,1,83.9999974365235,8|0,0:0|0:0,0:0:0:0:
144,56,33601,2,0,L|232:52,1,83.9999974365235
356,191,34101,69,4,0:0:0:0:
356,191,34351,1,0,0:0:0:0:
252,296,34600,5,8,0:0:0:0:
252,296,34850,1,0,0:0:0:0:
156,192,35101,69,4,0:0:0:0:
156,192,35350,1,0,0:0:0:0:
252,88,35600,5,8,0:0:0:0:
252,88,35849,1,0,0:0:0:0:
356,191,36099,70,0,P|412:208|416:208,2,41.9999987182618,2|0|0,0:0|0:0|0:0,0:0:0:0:
256,92,36599,2,0,P|272:36|272:32,2,41.9999987182618,2|0|0,0:0|0:0|0:0,0:0:0:0:
156,192,37098,2,0,P|100:176|97:176,2,41.9999987182618,2|0|0,0:0|0:0|0:0,0:0:0:0:
256,292,37598,22,0,P|237:360|237:365,1,70,2|0,1:2|2:0,0:0:0:0:
