osu file format v14

[General]
AudioFilename: ZIMMY.mp3
AudioLeadIn: 0
PreviewTime: 1878
Countdown: 0
SampleSet: None
StackLeniency: 0.7
Mode: 0
LetterboxInBreaks: 0
WidescreenStoryboard: 0

[Editor]
Bookmarks: 1877,22110,38097
DistanceSpacing: 0.5
BeatDivisor: 2
GridSize: 32
TimelineZoom: 1.8

[Metadata]
Title:"Invader Zim" Theme Song
TitleUnicode:"Invader Zim" Theme Song
Artist:Kevin Manthei
ArtistUnicode:Kevin Manthei
Creator:Bubblun
Version:Gerblun's Light Insane
Source:Invader Zim
Tags:Nickelodeon Irreversible CanadianBaka Jhonen Vasquez GIR Dib Irk cartoon Gero
BeatmapID:1345237
BeatmapSetID:530071

[Difficulty]
HPDrainRate:5
CircleSize:3.8
OverallDifficulty:6
ApproachRate:8
SliderMultiplier:1.49999990463257
SliderTickRate:1

[Events]
//Background and Video events
0,0,"tDjFmHx.jpg",0,0
//Break Periods
//Storyboard Layer 0 (Background)
//Storyboard Layer 1 (Fail)
//Storyboard Layer 2 (Pass)
//Storyboard Layer 3 (Foreground)
//Storyboard Sound Samples

[TimingPoints]
129,499.583680266445,4,3,1,40,1,0
3188,-100,4,3,1,40,0,0
3376,-100,4,3,1,40,0,0
3438,-100,4,3,1,40,0,0
3626,-100,4,3,1,40,0,0
4188,-100,4,3,1,40,0,0
4375,-100,4,3,1,40,0,0
4437,-100,4,3,1,40,0,0
4625,-100,4,3,1,40,0,0
8247,-100,4,3,1,40,0,0
8372,-100,4,3,1,40,0,0
8497,-100,4,3,1,40,0,0
8622,-100,4,3,1,40,0,0
8746,-100,4,3,1,40,0,0
8871,-100,4,3,1,40,0,0
9371,-100,4,3,1,40,0,0
9871,-100,4,3,1,40,0,0
10183,-100,4,3,1,40,0,0
10370,-100,4,3,1,40,0,0
10432,-100,4,3,1,40,0,0
10620,-100,4,3,1,40,0,0
11182,-100,4,3,1,40,0,0
11369,-100,4,3,1,40,0,0
11432,-100,4,3,1,40,0,0
11619,-100,4,3,1,40,0,0
12181,-100,4,3,1,40,0,0
12368,-100,4,3,1,40,0,0
12431,-100,4,3,1,40,0,0
12618,-100,4,3,1,40,0,0
14867,-100,4,3,1,40,0,0
15866,-100,4,3,1,40,0,0
17615,-100,4,3,1,40,0,0
17864,-66.6666666666667,4,3,1,40,0,0
18114,-100,4,3,1,30,0,0
18239,-100,4,3,1,30,0,0
20144,-100,4,3,1,5,0,0
20362,-100,4,3,1,35,0,0
20394,-100,4,3,1,5,0,0
20612,-100,4,3,1,40,0,0
20643,-100,4,3,1,5,0,0
20862,-100,4,3,1,45,0,0
20893,-100,4,3,1,5,0,0
21112,-100,4,3,1,50,0,0
21143,-100,4,3,1,5,0,0
21362,-100,4,3,1,55,0,0
21393,-100,4,3,1,5,0,0
21611,-100,4,3,1,60,0,0
21861,-100,4,3,1,100,0,0
22111,-100,4,3,1,30,0,0
24140,-100,4,3,1,5,0,0
24359,-100,4,3,1,35,0,0
24390,-100,4,3,1,5,0,0
24609,-100,4,3,1,40,0,0
24640,-100,4,3,1,5,0,0
24859,-100,4,3,1,45,0,0
24890,-100,4,3,1,5,0,0
25108,-100,4,3,1,50,0,0
25140,-100,4,3,1,5,0,0
25358,-100,4,3,1,55,0,0
25389,-100,4,3,1,5,0,0
25608,-100,4,3,1,60,0,0
25858,-100,4,3,1,100,0,0
26108,-100,4,3,1,30,0,0
28605,-80,4,3,1,30,0,0
29104,-100,4,3,1,30,0,0
29105,-50,4,3,1,15,0,0
29355,-100,4,3,1,20,0,0
29605,-100,4,3,1,30,0,0
29854,-100,4,3,1,40,0,0
30104,-100,4,3,1,60,0,1
31603,-100,4,3,1,60,0,1
31665,-100,4,3,1,60,0,1
31728,-100,4,3,1,60,0,1
31790,-100,4,3,1,60,0,1
31853,-100,4,3,1,60,0,1
31915,-100,4,3,1,60,0,1
31978,-100,4,3,1,60,0,1
32040,-100,4,3,1,60,0,1
32103,-100,4,3,1,60,0,1
33601,-100,4,3,1,40,0,1
34101,-100,4,3,1,60,0,1
35600,-100,4,3,1,60,0,1
35661,-100,4,3,1,60,0,1
35725,-100,4,3,1,60,0,1
35786,-100,4,3,1,60,0,1
35849,-100,4,3,1,60,0,1
35911,-100,4,3,1,60,0,1
35974,-100,4,3,1,60,0,1
36036,-100,4,3,1,60,0,1
36099,-100,4,3,1,60,0,1
37161,-100,4,3,1,60,0,1
37223,-100,4,3,1,60,0,1
37286,-100,4,3,1,60,0,1
37348,-100,4,3,1,60,0,1
37411,-100,4,3,1,60,0,1
37473,-100,4,3,1,60,0,1
37536,-100,4,3,1,60,0,1
37597,-133.333333333333,4,3,1,60,0,0
37598,-133.333333333333,4,3,1,50,0,0
37629,-133.333333333333,4,3,1,10,0,0
38098,-100,4,3,1,5,0,0

[Colours]
Combo1 : 255,128,0
Combo2 : 217,64,255
Combo3 : 128,164,72
Combo4 : 193,129,98
Combo5 : 155,64,78
Combo6 : 255,4,4
SliderBorder : 255,255,255
SliderTrackOverride : 205,155,255

[HitObjects]
120,280,1877,5,0,0:0:0:0:
120,280,2002,1,0,0:0:0:0:
120,280,2127,2,0,P|156:289|192:280,1,74.9999952316285,2|0,0:2|0:0,0:0:0:0:
255,216,2626,2,0,P|307:198|359:216,1,112.499992847443,2|0,0:0|0:0,0:0:0:0:
391,248,3126,1,2,0:2:0:0:
454,184,3376,1,0,0:0:0:0:
391,120,3626,1,2,0:0:0:0:
454,56,3875,1,0,0:0:0:0:
454,56,4000,1,0,0:0:0:0:
454,56,4125,6,0,B|427:29|427:29|391:29,2,74.9999952316285,2|0|2,0:2|0:0|0:0,0:0:0:0:
391,120,4875,2,0,B|373:125|373:125|355:120,1,37.4999976158143,0|0,0:0|0:0,0:0:0:0:
324,153,5124,2,0,B|306:148|306:148|288:153,1,37.4999976158143,2|2,0:0|0:0,0:0:0:0:
256,184,5374,1,0,0:0:0:0:
176,224,5624,1,2,1:2:0:0:
263,267,5874,1,2,1:2:0:0:
263,267,5999,1,0,0:0:0:0:
263,267,6124,6,0,L|338:267,1,74.9999952316285,2|0,0:2|0:0,0:0:0:0:
176,224,6623,2,0,B|133:224|133:224|125:228|125:228|125:220|125:220|117:224|117:224|74:224,1,112.499992847443,2|0,0:0|0:0,0:0:0:0:
44,189,7123,2,0,P|56:224|44:259,1,74.9999952316285,2|0,0:2|0:0,0:0:0:0:
125,144,7622,2,0,P|113:109|125:74,1,74.9999952316285,2|0,0:0|0:0,0:0:0:0:
124,74,7997,1,0,0:0:0:0:
124,74,8122,5,2,0:2:0:0:
256,104,8372,1,0,0:0:0:0:
387,74,8621,1,2,0:0:0:0:
256,184,8871,1,0,0:0:0:0:
256,197,8996,1,0,0:0:0:0:
256,211,9121,6,0,L|256:248,1,37.4999976158143,2|2,0:0|0:0,0:0:0:0:
256,291,9371,1,2,1:2:0:0:
256,104,9621,1,2,1:2:0:0:
176,184,9870,21,0,0:0:0:0:
176,184,9995,1,0,0:0:0:0:
176,184,10120,1,2,0:2:0:0:
256,264,10370,1,0,0:0:0:0:
336,184,10620,2,0,P|388:166|440:184,1,112.499992847443,2|0,0:0|0:0,0:0:0:0:
472,216,11119,2,0,B|452:184|452:184|472:152,1,74.9999952316285,2|0,0:2|0:0,0:0:0:0:
392,94,11619,1,2,0:0:0:0:
472,26,11869,1,0,0:0:0:0:
472,26,11994,1,0,0:0:0:0:
472,26,12119,5,2,0:2:0:0:
336,184,12368,1,0,0:0:0:0:
392,94,12618,1,2,0:0:0:0:
256,252,12868,2,0,B|238:247|238:247|220:252,1,37.4999976158143,0|0,0:0|0:0,0:0:0:0:
188,219,13118,2,0,B|170:224|170:224|152:219,1,37.4999976158143,2|2,0:0|0:0,0:0:0:0:
120,184,13367,1,2,1:2:0:0:
38,142,13617,1,2,1:2:0:0:
120,100,13867,1,0,0:0:0:0:
120,100,13992,1,0,0:0:0:0:
120,100,14117,6,0,B|156:100|156:100|184:72,1,74.9999952316285,2|0,0:2|0:0,0:0:0:0:
392,100,14616,2,0,B|356:100|356:100|328:72,1,74.9999952316285,2|0,0:0|0:0,0:0:0:0:
328,72,14991,1,0,0:0:0:0:
328,72,15116,1,2,0:2:0:0:
256,128,15366,1,0,0:0:0:0:
183,72,15616,1,2,0:0:0:0:
256,16,15865,1,0,0:0:0:0:
256,16,15990,1,0,0:0:0:0:
256,16,16115,5,0,0:0:0:0:
329,184,16365,1,0,0:0:0:0:
329,184,16490,1,0,0:0:0:0:
329,184,16615,1,2,1:2:0:0:
256,352,16865,1,2,1:2:0:0:
256,352,16989,1,0,0:0:0:0:
256,352,17114,5,2,0:2:0:0:
183,184,17364,1,8,0:2:0:0:
256,16,17614,1,8,0:2:0:0:
329,184,17864,22,0,L|342:208,2,28.1249992847443,4|4|4,0:0|0:0|0:0,0:0:0:0:
360,241,18114,5,4,0:0:0:0:
388,257,18238,1,0,0:0:0:0:
420,262,18363,1,0,0:0:0:0:
454,257,18488,1,0,0:0:0:0:
482,241,18613,5,0,0:0:0:0:
473,257,18738,1,0,0:0:0:0:
464,273,18863,1,0,0:0:0:0:
455,290,18988,1,0,0:0:0:0:
420,304,19113,5,0,0:0:0:0:
411,320,19238,1,0,0:0:0:0:
402,336,19362,1,0,0:0:0:0:
393,353,19487,1,0,0:0:0:0:
358,367,19612,6,0,B|341:375|341:375|324:367,1,37.4999976158143,4|4,0:0|0:0,0:0:0:0:
239,303,19862,2,0,B|256:295|256:295|273:303,1,37.4999976158143,4|4,0:0|0:0,0:0:0:0:
393,353,20112,21,4,1:0:0:0:
188,239,20362,1,2,0:2:0:0:
119,353,20611,1,0,0:0:0:0:
324,239,20861,1,2,0:2:0:0:
188,129,21111,1,0,0:0:0:0:
256,353,21361,1,2,0:2:0:0:
324,129,21611,53,4,0:0:0:0:
292,109,21735,1,4,0:0:0:0:
255,102,21860,1,4,0:0:0:0:
219,109,21985,1,4,0:0:0:0:
187,129,22110,38,0,L|211:173,3,37.4999976158143,4|0|0|0,0:0|0:0|0:0|0:0,0:0:0:0:
187,204,22610,1,0,0:0:0:0:
178,220,22735,1,0,0:0:0:0:
169,236,22860,1,0,0:0:0:0:
160,253,22985,1,0,0:0:0:0:
151,270,23109,6,0,L|188:270,1,37.4999976158143
237,329,23359,2,0,L|274:329,1,37.4999976158143,0|0,0:0|0:0,0:0:0:0:
342,288,23609,21,0,0:0:0:0:
374,268,23734,1,4,0:0:0:0:
410,261,23859,1,4,0:0:0:0:
447,268,23984,1,4,0:0:0:0:
479,288,24108,1,4,0:0:0:0:
256,192,24233,12,0,25857,0:0:0:0:
371,111,26107,22,0,L|408:111,3,37.4999976158143,4|0|0|0,0:0|0:0|0:0|0:0,0:0:0:0:
322,170,26606,2,0,L|285:170,3,37.4999976158143,0|0|0|0,0:0|0:0|0:0|0:0,0:0:0:0:
398,215,27106,5,0,0:0:0:0:
407,231,27231,1,0,0:0:0:0:
406,249,27356,1,0,0:0:0:0:
415,266,27481,1,0,0:0:0:0:
388,292,27606,5,4,0:0:0:0:
351,282,27730,1,4,0:0:0:0:
307,292,27855,1,4,0:0:0:0:
270,282,27979,1,0,0:0:0:0:
226,292,28105,6,0,B|214:256|214:256|234:206,1,74.9999952316285,4|0,1:0|0:0,0:0:0:0:
323,133,28605,38,0,B|337:177|337:177|313:238,1,93.7499940395356
247,168,29104,6,0,L|228:168,14,18.7499988079071,2|2|2|2|2|2|2|2|2|2|2|2|2|2|2,3:0|3:0|3:0|3:0|3:0|3:0|3:0|3:0|3:0|3:0|3:0|3:0|3:0|3:0|3:0,0:0:0:0:
189,132,30104,37,4,1:3:0:0:
157,112,30228,1,0,0:0:0:0:
120,105,30353,1,0,0:0:0:0:
84,112,30478,1,0,0:0:0:0:
52,132,30603,2,0,L|82:187,3,37.4999976158143,2|0|0|0,0:2|0:0|0:0|0:0,0:0:0:0:
123,188,31103,5,4,1:3:0:0:
114,219,31228,1,0,0:0:0:0:
105,253,31353,1,0,0:0:0:0:
94,286,31478,1,0,0:0:0:0:
84,316,31602,2,0,L|24:316,3,37.4999976158143,2|0|0|0,0:2|0:0|0:0|0:0,0:0:0:0:
99,349,32102,69,4,1:3:0:0:
131,369,32226,1,0,0:0:0:0:
168,376,32351,1,0,0:0:0:0:
204,369,32476,1,0,0:0:0:0:
236,349,32601,2,0,L|205:293,3,37.4999976158143,2|0|0|0,0:2|0:0|0:0|0:0,0:0:0:0:
226,284,33101,5,4,1:3:0:0:
237,250,33226,1,0,0:0:0:0:
246,216,33351,1,0,0:0:0:0:
254,185,33476,1,0,0:0:0:0:
266,153,33601,70,0,L|311:153,1,37.4999976158143,2|2,0:0|0:0,0:0:0:0:
352,212,33850,2,0,L|389:212,1,37.4999976158143,2|2,0:0|0:0,0:0:0:0:
440,153,34100,5,4,1:3:0:0:
408,133,34224,1,0,0:0:0:0:
371,126,34349,1,0,0:0:0:0:
335,133,34474,1,0,0:0:0:0:
303,153,34599,2,0,L|333:208,3,37.4999976158143,2|0|0|0,0:2|0:0|0:0|0:0,0:0:0:0:
368,210,35099,69,4,1:3:0:0:
361,235,35224,1,0,0:0:0:0:
354,262,35349,1,0,0:0:0:0:
345,289,35474,1,0,0:0:0:0:
336,316,35599,2,0,L|276:316,1,37.4999976158143,2|0,0:2|0:0,0:0:0:0:
250,375,35849,2,0,L|213:375,1,37.4999976158143,0|0,0:0|0:0,0:0:0:0:
162,315,36099,5,4,1:3:0:0:
150,281,36224,1,0,0:0:0:0:
142,247,36349,1,0,0:0:0:0:
133,216,36474,1,0,0:0:0:0:
102,196,36598,1,2,0:2:0:0:
90,162,36723,1,0,0:0:0:0:
82,128,36848,1,0,0:0:0:0:
73,97,36973,1,0,0:0:0:0:
109,107,37098,70,0,L|144:116,3,37.4999976158143,4|0|0|0,1:3|0:0|0:0|0:0,0:0:0:0:
73,97,37597,22,0,B|17:81|17:81|51:79|79:66,1,112.499997138977,2|2,0:2|0:2,0:0:0:0:
