osu file format v14

[General]
AudioFilename: ZIMMY.mp3
AudioLeadIn: 0
PreviewTime: 1878
Countdown: 0
SampleSet: None
StackLeniency: 0.7
Mode: 0
LetterboxInBreaks: 0
WidescreenStoryboard: 0

[Editor]
DistanceSpacing: 1
BeatDivisor: 2
GridSize: 32
TimelineZoom: 1.2

[Metadata]
Title:"Invader Zim" Theme Song
TitleUnicode:"Invader Zim" Theme Song
Artist:Kevin Manthei
ArtistUnicode:Kevin Manthei
Creator:Bubblun
Version:Normal
Source:Invader Zim
Tags:Nickelodeon Irreversible CanadianBaka Jhonen Vasquez GIR Dib Irk cartoon Gero
BeatmapID:1123769
BeatmapSetID:530071

[Difficulty]
HPDrainRate:3
CircleSize:3.5
OverallDifficulty:4
ApproachRate:4
SliderMultiplier:1.1
SliderTickRate:1

[Events]
//Background and Video events
0,0,"tDjFmHx.jpg",0,0
//Break Periods
//Storyboard Layer 0 (Background)
//Storyboard Layer 1 (Fail)
//Storyboard Layer 2 (Pass)
//Storyboard Layer 3 (Foreground)
//Storyboard Sound Samples

[TimingPoints]
129,499.583680266445,4,3,1,40,1,0
18114,-100,4,3,1,30,0,0
20144,-100,4,3,1,5,0,0
20362,-100,4,3,1,35,0,0
20394,-100,4,3,1,5,0,0
20612,-100,4,3,1,40,0,0
20643,-100,4,3,1,5,0,0
20862,-100,4,3,1,45,0,0
20893,-100,4,3,1,5,0,0
21112,-100,4,3,1,50,0,0
21143,-100,4,3,1,5,0,0
21362,-100,4,3,1,55,0,0
21393,-100,4,3,1,5,0,0
21611,-100,4,3,1,60,0,0
21861,-100,4,3,1,100,0,0
22111,-100,4,3,1,30,0,0
24109,-100,4,3,1,30,0,0
24140,-100,4,3,1,5,0,0
24359,-100,4,3,1,35,0,0
24390,-100,4,3,1,5,0,0
24609,-100,4,3,1,40,0,0
24640,-100,4,3,1,5,0,0
24859,-100,4,3,1,45,0,0
24890,-100,4,3,1,5,0,0
25108,-100,4,3,1,50,0,0
25140,-100,4,3,1,5,0,0
25358,-100,4,3,1,55,0,0
25389,-100,4,3,1,5,0,0
25608,-100,4,3,1,60,0,0
25858,-100,4,3,1,100,0,0
26108,-100,4,3,1,30,0,0
29105,-100,4,3,1,35,0,0
29355,-100,4,3,1,20,0,0
29605,-100,4,3,1,35,0,0
29854,-100,4,3,1,20,0,0
30104,-83.3333333333333,4,3,1,30,0,1
33601,-83.3333333333333,4,3,1,40,0,1
34101,-83.3333333333333,4,3,1,60,0,1
37597,-100,4,3,1,50,0,0
37629,-100,4,3,1,10,0,0
38098,-100,4,3,1,5,0,0

[Colours]
Combo1 : 255,128,0
Combo2 : 217,64,255
Combo3 : 128,164,72
Combo4 : 193,129,98
Combo5 : 155,64,78
Combo6 : 255,4,4
SliderBorder : 255,255,255
SliderTrackOverride : 205,155,255

[HitObjects]
40,316,2128,6,0,L|192:312,1,110,2|2,0:2|0:0,0:0:0:0:
256,336,3127,2,0,P|292:284|352:268,1,110,2|2,0:2|0:0,0:0:0:0:
440,296,4126,6,0,L|444:168,1,110,2|2,0:2|0:0,0:0:0:0:
452,76,5125,2,0,L|368:88,1,55,2|0,0:0|0:0,0:0:0:0:
344,92,5625,1,2,1:2:0:0:
252,152,6124,6,0,P|206:181|184:230,1,110,2|2,0:2|0:0,0:0:0:0:
73,230,7123,2,0,P|50:180|4:151,1,110,2|2,0:2|0:0,0:0:0:0:
19,42,8122,6,0,L|171:38,1,110,2|2,0:2|0:0,0:0:0:0:
233,36,9122,2,0,L|231:110,2,55,2|2|2,0:0|1:2|1:2,0:0:0:0:
316,107,10121,6,0,P|339:157|385:186,1,110,2|2,0:2|0:0,0:0:0:0:
444,277,11120,1,2,0:2:0:0:
388,364,11620,1,2,0:0:0:0:
280,360,12119,38,0,L|132:356,1,110,2|2,0:2|0:0,0:0:0:0:
60,348,13118,2,0,L|64:292,1,55,2|2,0:0|1:2,0:0:0:0:
68,240,13618,1,2,1:2:0:0:
36,136,14118,6,0,P|72:92|140:72,1,110,2|2,0:2|0:0,0:0:0:0:
224,108,15117,1,2,0:2:0:0:
224,216,15616,1,2,0:0:0:0:
336,216,16116,6,0,P|387:197|422:155,1,110,0|2,0:0|1:2,0:0:0:0:
404,44,17115,1,2,0:2:0:0:
368,88,17365,2,0,L|324:140,1,55,8|8,0:2|0:2,0:0:0:0:
260,212,18114,5,4,0:0:0:0:
172,136,20113,38,0,P|224:120|280:140,1,110,4|0,1:0|0:0,0:0:0:0:
320,172,20862,1,2,0:2:0:0:
284,216,21112,2,0,L|248:268,1,55,0|2,0:0|0:2,0:0:0:0:
196,260,21611,2,0,L|164:214,1,55,4|4,0:0|0:0,0:0:0:0:
136,168,22111,1,4,0:0:0:0:
136,168,24109,6,0,P|84:184|28:164,1,110,4|0,1:0|0:0,0:0:0:0:
0,123,24858,1,0,0:0:0:0:
22,72,25108,2,0,L|84:60,1,55,0|2,0:0|0:2,0:0:0:0:
125,87,25607,2,0,L|187:98,1,55,0|2,0:0|0:2,0:0:0:0:
219,58,26107,1,0,0:0:0:0:
219,58,28105,6,0,L|195:190,1,110,0|2,0:0|0:2,0:0:0:0:
190,220,28855,1,0,0:0:0:0:
212,270,29104,2,0,L|279:282,1,55,0|2,0:0|0:2,0:0:0:0:
309,245,29604,2,0,L|363:255,1,55,0|2,0:0|0:2,0:0:0:0:
421,215,30104,6,0,L|421:139,1,65.9999979858399,4|0,1:3|0:0,0:0:0:0:
382,97,30603,1,4,1:3:0:0:
259,47,31103,6,0,B|191:47|191:47|143:91,1,131.99999597168,4|2,1:3|0:2,0:0:0:0:
111,147,31853,1,0,0:0:0:0:
111,215,32103,2,0,B|111:283|111:283|159:331,1,131.99999597168,4|2,1:3|0:2,0:0:0:0:
268,258,33102,70,0,L|344:258,1,65.9999979858399,4|0,1:3|0:0,0:0:0:0:
386,297,33601,1,4,1:3:0:0:
504,256,34101,6,0,B|504:196|504:196|452:144,1,131.99999597168,4|2,1:3|0:2,0:0:0:0:
399,184,34850,1,0,0:0:0:0:
344,147,35100,2,0,L|228:147,1,65.9999979858399,4|0,1:3|0:0,0:0:0:0:
221,182,35600,1,2,0:2:0:0:
277,301,36099,70,0,L|343:301,1,65.9999979858399,4|0,1:3|0:0,0:0:0:0:
380,248,36598,2,0,L|347:190,1,65.9999979858399,4|0,1:3|0:0,0:0:0:0:
279,189,37098,2,0,L|246:246,1,65.9999979858399,4|0,1:3|0:0,0:0:0:0:
277,301,37598,22,0,L|387:301,1,110,2|2,0:2|0:2,0:0:0:0:
