osu file format v14

[General]
AudioFilename: ZIMMY.mp3
AudioLeadIn: 0
PreviewTime: 1878
Countdown: 0
SampleSet: None
StackLeniency: 0.2
Mode: 0
LetterboxInBreaks: 0
WidescreenStoryboard: 1

[Editor]
Bookmarks: 5874,9870,13867,19612,24109,27606,30104,32102,34100,36099
DistanceSpacing: 0.5
BeatDivisor: 2
GridSize: 32
TimelineZoom: 2.1

[Metadata]
Title:"Invader Zim" Theme Song
TitleUnicode:"Invader Zim" Theme Song
Artist:Kevin Manthei
ArtistUnicode:Kevin Manthei
Creator:Bubblun
Version:Doom
Source:Invader Zim
Tags:Nickelodeon Irreversible CanadianBaka Jhonen Vasquez GIR Dib Irk cartoon Gero
BeatmapID:1393319
BeatmapSetID:530071

[Difficulty]
HPDrainRate:5
CircleSize:5
OverallDifficulty:8
ApproachRate:9.2
SliderMultiplier:2.89999990463257
SliderTickRate:1

[Events]
//Background and Video events
0,0,"tDjFmHx.jpg",0,0
//Break Periods
//Storyboard Layer 0 (Background)
//Storyboard Layer 1 (Fail)
//Storyboard Layer 2 (Pass)
//Storyboard Layer 3 (Foreground)
//Storyboard Sound Samples

[TimingPoints]
129,499.583680266445,4,3,1,40,1,0
2626,-50,4,3,1,40,0,0
2751,-50,4,3,1,20,0,0
2876,-100,4,3,1,40,0,0
3188,-100,4,3,1,40,0,0
3376,-66.6666666666667,4,3,1,40,0,0
3438,-66.6666666666667,4,3,1,40,0,0
3563,-200,4,3,1,40,0,0
3626,-50,4,3,1,40,0,0
3750,-50,4,3,1,20,0,0
3875,-100,4,3,1,40,0,0
4625,-50,4,3,1,40,0,0
4750,-50,4,3,1,20,0,0
4875,-100,4,3,1,40,0,0
5124,-200,4,3,1,40,0,0
5624,-50,4,3,1,40,0,0
6124,-100,4,3,1,40,0,0
6623,-50,4,3,1,40,0,0
6748,-50,4,3,1,20,0,0
6873,-50,4,3,1,40,0,0
7123,-100,4,3,1,40,0,0
7248,-100,4,3,1,20,0,0
7372,-100,4,3,1,40,0,0
7497,-100,4,3,1,20,0,0
7622,-50,4,3,1,40,0,0
7872,-100,4,3,1,40,0,0
8621,-133.333333333333,4,3,1,40,0,0
9121,-200,4,3,1,40,0,0
9371,-50,4,3,1,40,0,0
9870,-100,4,3,1,40,0,0
10620,-50,4,3,1,40,0,0
10870,-133.333333333333,4,3,1,40,0,0
11494,-133.333333333333,4,3,1,5,0,0
11556,-200,4,3,1,5,0,0
11619,-50,4,3,1,40,0,0
11869,-100,4,3,1,40,0,0
12243,-100,4,3,1,20,0,0
12368,-100,4,3,1,40,0,0
12493,-100,4,3,1,20,0,0
12618,-50,4,3,1,40,0,0
12868,-100,4,3,1,40,0,0
12993,-100,4,3,1,40,0,0
13118,-100,4,3,1,40,0,0
13492,-100,4,3,1,20,0,0
13617,-100,4,3,1,40,0,0
14616,-50,4,3,1,40,0,0
14866,-133.333333333333,4,3,1,40,0,0
15616,-66.6666666666667,4,3,1,40,0,0
15865,-100,4,3,1,40,0,0
16615,-200,4,3,1,40,0,0
16802,-200,4,3,1,5,0,0
16865,-200,4,3,1,30,0,0
17052,-200,4,3,1,5,0,0
17114,-200,4,3,1,30,0,0
17302,-200,4,3,1,5,0,0
17364,-100,4,3,1,40,0,0
17864,-50,4,3,1,40,0,0
18114,-50,4,3,1,30,0,0
20112,-133.333333333333,4,3,1,30,0,0
20144,-133.333333333333,4,3,1,5,0,0
20362,-133.333333333333,4,3,1,35,0,0
20394,-133.333333333333,4,3,1,5,0,0
20612,-133.333333333333,4,3,1,40,0,0
20643,-133.333333333333,4,3,1,5,0,0
20862,-133.333333333333,4,3,1,45,0,0
20893,-133.333333333333,4,3,1,5,0,0
21112,-133.333333333333,4,3,1,50,0,0
21143,-133.333333333333,4,3,1,5,0,0
21362,-133.333333333333,4,3,1,55,0,0
21393,-133.333333333333,4,3,1,5,0,0
21611,-133.333333333333,4,3,1,60,0,0
21642,-133.333333333333,4,3,1,5,0,0
21798,-133.333333333333,4,3,1,5,0,0
21861,-133.333333333333,4,3,1,100,0,0
21892,-133.333333333333,4,3,1,5,0,0
22048,-133.333333333333,4,3,1,5,0,0
22111,-133.333333333333,4,3,1,30,0,0
24140,-133.333333333333,4,3,1,5,0,0
24359,-133.333333333333,4,3,1,35,0,0
24390,-133.333333333333,4,3,1,5,0,0
24609,-133.333333333333,4,3,1,40,0,0
24640,-133.333333333333,4,3,1,5,0,0
24859,-133.333333333333,4,3,1,45,0,0
24890,-133.333333333333,4,3,1,5,0,0
25108,-133.333333333333,4,3,1,50,0,0
25140,-133.333333333333,4,3,1,5,0,0
25358,-133.333333333333,4,3,1,55,0,0
25389,-133.333333333333,4,3,1,5,0,0
25608,-133.333333333333,4,3,1,60,0,0
25638,-133.333333333333,4,3,1,5,0,0
25858,-133.333333333333,4,3,1,100,0,0
25888,-133.333333333333,4,3,1,5,0,0
26108,-133.333333333333,4,3,1,30,0,0
28105,-133.333333333333,4,3,1,30,0,0
28136,-133.333333333333,4,3,1,5,0,0
28355,-133.333333333333,4,3,1,30,0,0
28386,-133.333333333333,4,3,1,5,0,0
28605,-133.333333333333,4,3,1,30,0,0
28636,-133.333333333333,4,3,1,5,0,0
28855,-133.333333333333,4,3,1,30,0,0
28886,-133.333333333333,4,3,1,5,0,0
29104,-100,4,3,1,30,0,0
29105,-100,4,3,1,25,0,0
29355,-100,4,3,1,30,0,0
29604,-50,4,3,1,10,0,0
29605,-50,4,3,1,20,0,0
29854,-50,4,3,1,30,0,0
30104,-50,4,3,1,60,0,1
30541,-100,4,3,1,5,0,1
30603,-50,4,3,1,60,0,1
31602,-100,4,3,1,60,0,1
32039,-100,4,3,1,5,0,1
32102,-50,4,3,1,60,0,1
32352,-50,4,3,1,60,0,1
33039,-100,4,3,1,5,0,1
33101,-50,4,3,1,60,0,1
33601,-133.333333333333,4,3,1,40,0,1
34100,-50,4,3,1,40,0,1
34101,-50,4,3,1,60,0,1
34350,-50,4,3,1,60,0,1
34537,-100,4,3,1,5,0,1
34600,-100,4,3,1,60,0,1
35037,-100,4,3,1,5,0,1
35099,-50,4,3,1,60,0,1
35599,-100,4,3,1,60,0,1
36036,-100,4,3,1,5,0,1
36099,-50,4,3,1,60,0,1
36973,-100,4,3,1,60,0,1
37035,-100,4,3,1,5,0,1
37098,-100,4,3,1,60,0,1
37160,-50,4,3,1,5,0,1
37223,-80,4,3,1,60,0,1
37285,-44.4444444444445,4,3,1,5,0,1
37347,-66.6666666666667,4,3,1,60,0,1
37410,-40,4,3,1,5,0,1
37472,-57.1428571428571,4,3,1,60,0,1
37535,-36.3636363636364,4,3,1,5,0,1
37597,-133.333333333333,4,3,1,60,0,0
37598,-133.333333333333,4,3,1,50,0,0
37629,-200,4,3,1,10,0,0
38098,-200,4,3,1,5,0,0
38596,-20,4,3,1,5,0,0

[Colours]
Combo1 : 255,128,0
Combo2 : 217,64,255
Combo3 : 128,164,72
Combo4 : 193,129,98
Combo5 : 155,64,78
Combo6 : 255,4,4
SliderBorder : 255,255,255
SliderTrackOverride : 205,155,255

[HitObjects]
211,132,1877,5,0,0:0:0:0:
215,159,2002,1,0,0:0:0:0:
156,237,2127,2,0,P|226:248|291:218,1,144.999995231629,2|0,0:2|0:0,0:0:0:0:
271,55,2626,54,0,P|200:43|135:73,1,144.999995231629,2|0,0:0|0:0,0:0:0:0:
379,203,2876,37,0,0:0:0:0:
415,208,3000,1,0,0:0:0:0:
405,143,3126,2,0,L|381:286,1,144.999995231629
405,143,3626,38,0,L|427:0,1,144.999995231629,2|0,0:0|0:0,0:0:0:0:
250,130,3875,53,0,0:0:0:0:
216,135,4000,1,0,0:0:0:0:
307,219,4125,2,0,B|322:110|322:110|294:74,1,144.999995231629,2|0,0:2|0:0,0:0:0:0:
131,149,4625,22,0,L|278:127,1,144.999995231629,2|0,0:0|0:0,0:0:0:0:
103,132,4875,69,0,0:0:0:0:
160,175,5000,1,2,0:2:0:0:
152,124,5125,37,0,0:0:0:0:
109,181,5249,1,0,0:0:0:0:
151,258,5374,1,2,0:0:0:0:
112,49,5624,53,2,0:0:0:0:
212,347,5874,37,0,0:2:0:0:
217,310,5999,1,0,0:0:0:0:
141,337,6124,2,0,L|284:317,1,144.999995231629,2|0,0:2|0:0,0:0:0:0:
471,240,6623,38,0,L|327:259,1,144.999995231629,2|0,0:0|0:0,0:0:0:0:
194,211,6873,53,0,0:0:0:0:
264,201,6998,1,0,0:0:0:0:
185,282,7123,2,0,L|194:210,1,72.4999976158143,2|0,0:2|0:0,0:0:0:0:
274,129,7372,2,0,L|264:200,1,72.4999976158143
49,310,7622,22,0,P|24:244|64:188,1,144.999995231629,2|0,0:0|0:0,0:0:0:0:
113,238,7872,69,0,0:0:0:0:
108,274,7996,1,0,0:0:0:0:
66,92,8122,38,0,B|165:105|165:105|158:150,1,144.999995231629,2|0,0:2|0:0,0:0:0:0:
45,117,8621,6,0,B|126:127|126:127|120:164,1,108.750000572205,2|0,0:2|0:0,0:0:0:0:
63,188,8996,1,0,0:0:0:0:
122,154,9121,6,0,L|158:148,1,36.2499988079071
282,172,9371,22,0,B|325:165|325:165|344:187|344:187|358:161|358:161|400:154,1,144.999995231629,2|0,1:2|0:0,0:0:0:0:
421,214,9621,2,0,L|277:234,1,144.999995231629,2|0,1:2|0:0,0:0:0:0:
326,62,9870,53,0,0:0:0:0:
331,98,9994,1,0,0:0:0:0:
494,124,10120,2,0,B|421:113|421:113|410:197,1,144.999995231629,2|0,0:2|0:0,0:0:0:0:
272,289,10620,22,0,B|344:299|344:299|355:215,1,144.999995231629,2|0,0:0|0:0,0:0:0:0:
255,181,10870,69,0,0:0:0:0:
272,203,10994,1,0,0:0:0:0:
502,199,11119,2,0,B|458:166|458:166|427:211,1,108.750000572205
510,168,11619,6,0,B|451:124|451:124|411:183,1,144.999995231629,2|0,0:0|0:0,0:0:0:0:
464,308,11869,21,0,0:0:0:0:
493,305,11994,1,0,0:0:0:0:
274,365,12119,2,0,P|344:375|408:344,1,144.999995231629,2|0,0:2|0:0,0:0:0:0:
268,338,12618,54,0,P|197:327|132:357,1,144.999995231629,2|0,0:0|0:0,0:0:0:0:
336,284,12868,37,0,0:0:0:0:
327,213,12993,1,0,0:0:0:0:
295,255,13118,6,0,L|367:245,1,72.4999976158143
227,234,13367,21,2,1:2:0:0:
436,267,13617,1,2,1:2:0:0:
125,236,13867,69,0,0:0:0:0:
120,200,13992,1,0,0:0:0:0:
264,91,14117,2,0,L|148:178,1,144.999995231629,2|0,0:2|0:0,0:0:0:0:
162,76,14616,6,0,L|249:191,1,144.999995231629,2|0,0:0|0:0,0:0:0:0:
277,311,14866,21,0,0:0:0:0:
272,275,14991,1,0,0:0:0:0:
402,177,15116,2,0,L|287:264,1,108.750000572205,2|0,0:2|0:0,0:0:0:0:
327,166,15616,54,0,L|415:281,1,108.750000572205,2|0,0:0|0:0,0:0:0:0:
176,248,15865,37,0,0:0:0:0:
173,230,15990,1,0,0:0:0:0:
188,222,16115,5,0,0:0:0:0:
184,249,16240,1,0,0:0:0:0:
203,255,16365,5,0,0:0:0:0:
197,214,16490,1,0,0:0:0:0:
224,230,16615,38,0,L|229:270,1,36.2499988079071,2|0,1:2|0:0,0:0:0:0:
195,338,16865,2,0,L|199:373,1,36.2499988079071,2|0,1:2|0:0,0:0:0:0:
253,122,17114,2,0,L|258:157,1,36.2499988079071,0|0,1:2|0:0,0:0:0:0:
183,292,17364,53,8,0:2:0:0:
470,331,17614,1,8,0:2:0:0:
501,236,17864,54,0,B|487:202|487:202|463:230,4,72.4999976158143,4|4|4|4|4,0:0|0:0|0:0|0:0|0:0,0:0:0:0:
196,191,19612,5,4,0:0:0:0:
316,191,19737,1,4,0:0:0:0:
256,131,19862,1,4,0:0:0:0:
256,251,19987,1,4,0:0:0:0:
370,140,20112,38,0,P|333:116|312:73,1,54.3750002861023,4|0,1:0|0:0,0:0:0:0:
204,78,20362,2,0,P|180:114|137:135,1,54.3750002861023,2|0,0:2|0:0,0:0:0:0:
142,244,20611,2,0,P|178:267|199:310,1,54.3750002861023
308,306,20861,2,0,P|331:269|374:248,1,54.3750002861023,2|0,0:2|0:0,0:0:0:0:
360,102,21111,6,0,P|314:88|279:49,1,54.3750002861023
166,87,21361,2,0,P|152:133|113:168,1,54.3750002861023,2|0,0:2|0:0,0:0:0:0:
151,281,21611,2,0,P|197:295|232:334,1,54.3750002861023,2|0,0:2|0:0,0:0:0:0:
345,296,21860,2,0,P|359:250|398:215,1,54.3750002861023,2|0,0:2|0:0,0:0:0:0:
256,192,22110,5,4,0:0:0:0:
195,189,23609,1,4,0:0:0:0:
313,171,23734,1,4,0:0:0:0:
180,170,23859,1,4,0:0:0:0:
327,191,23984,1,4,0:0:0:0:
256,64,24109,6,0,L|268:157,1,54.3750002861023,4|0,1:0|0:0,0:0:0:0:
256,320,24358,2,0,L|243:226,1,54.3750002861023,2|0,0:2|0:0,0:0:0:0:
128,192,24608,2,0,L|208:181,1,54.3750002861023,2|0,0:2|0:0,0:0:0:0:
384,192,24858,2,0,L|303:202,1,54.3750002861023
280,53,25108,38,0,L|275:156,1,54.3750002861023,2|0,3:2|3:0,3:0:0:0:
231,330,25357,2,0,L|235:226,1,54.3750002861023,2|0,3:2|3:0,3:0:0:0:
117,167,25607,2,0,L|206:170,1,54.3750002861023,2|0,3:2|3:0,3:0:0:0:
394,216,25857,2,0,L|305:211,1,54.3750002861023,0|0,3:0|3:0,3:0:0:0:
249,10,26107,5,4,0:0:0:0:
196,192,27606,1,4,0:0:0:0:
316,192,27730,1,4,0:0:0:0:
256,132,27855,1,4,0:0:0:0:
256,252,27979,1,4,0:0:0:0:
175,131,28105,6,0,B|147:126|147:126|143:158,1,54.3750002861023,4|0,1:0|0:0,0:0:0:0:
337,252,28355,2,0,B|364:256|364:256|368:224,1,54.3750002861023,2|0,2:0|0:0,0:0:0:0:
199,277,28605,2,0,B|194:304|194:304|226:308,1,54.3750002861023,2|0,2:0|0:0,0:0:0:0:
316,111,28855,2,0,B|320:83|320:83|288:79,1,54.3750002861023
199,277,29104,6,0,L|164:283,7,36.2499988079071,2|2|2|2|2|2|2|2,3:0|3:0|3:0|3:0|3:0|3:0|3:0|3:0,0:0:0:0:
216,246,29604,38,0,L|144:256,6,72.4999976158143,2|2|2|2|2|2|2,3:0|3:0|3:0|3:0|3:0|3:0|3:0,0:0:0:0:
385,206,30104,54,0,B|349:217|349:217|278:207|278:207|249:187,1,144.999995231629,4|0,1:3|0:0,0:0:0:0:
264,80,30353,2,0,B|300:69|300:69|371:79|371:79|400:99,1,144.999995231629
224,128,30603,5,0,0:0:0:0:
190,130,30728,1,2,0:2:0:0:
427,157,30853,1,0,0:0:0:0:
461,155,30978,1,2,0:2:0:0:
206,317,31103,70,0,B|170:312|170:312|180:240|180:240|215:245,1,144.999995231629,4|0,1:3|0:0,0:0:0:0:
276,288,31352,1,2,0:2:0:0:
310,291,31477,1,0,0:0:0:0:
104,267,31602,5,2,0:2:0:0:
98,231,31727,1,0,0:0:0:0:
120,202,31852,1,0,0:0:0:0:
114,166,31977,1,0,0:0:0:0:
130,101,32102,70,0,P|65:130|-6:120,1,144.999995231629,4|0,1:3|0:0,0:0:0:0:
82,296,32352,2,0,P|146:325|217:315,1,144.999995231629
180,244,32601,5,0,0:0:0:0:
142,240,32726,1,2,0:2:0:0:
0,357,32851,1,0,0:0:0:0:
39,353,32976,1,2,0:2:0:0:
365,284,33101,70,0,B|360:248|360:248|288:258|288:258|293:293,1,144.999995231629,4|0,1:3|0:0,0:0:0:0:
337,346,33351,1,2,0:2:0:0:
341,384,33476,1,0,0:0:0:0:
435,204,33601,6,0,L|399:198,1,27.1875001430512,2|2,0:0|0:0,0:0:0:0:
439,166,33726,2,0,L|403:160,1,27.1875001430512,2|2,0:0|0:0,0:0:0:0:
320,123,33850,2,0,L|284:128,1,27.1875001430512,2|2,0:0|0:0,0:0:0:0:
324,161,33975,2,0,L|288:166,1,27.1875001430512,2|2,0:0|0:0,0:0:0:0:
218,179,34100,70,0,B|182:190|182:190|111:180|111:180|82:160,1,144.999995231629,4|0,1:3|0:0,0:0:0:0:
97,53,34350,2,0,B|133:42|133:42|204:52|204:52|233:72,1,144.999995231629
57,101,34599,5,0,0:0:0:0:
23,103,34724,1,2,0:2:0:0:
260,130,34849,1,0,0:0:0:0:
294,128,34974,1,2,0:2:0:0:
51,307,35099,70,0,B|16:312|16:312|6:240|6:240|42:235,1,144.999995231629,4|0,1:3|0:0,0:0:0:0:
112,263,35349,1,0,0:0:0:0:
146,261,35474,1,2,0:2:0:0:
211,218,35599,5,0,0:0:0:0:
237,230,35723,1,0,0:0:0:0:
267,235,35848,1,0,0:0:0:0:
297,228,35973,1,0,0:0:0:0:
368,198,36099,69,4,1:3:0:0:
323,201,36223,5,0,0:0:0:0:
278,192,36348,1,0,0:0:0:0:
240,168,36473,1,0,0:0:0:0:
194,129,36598,69,6,1:3:0:0:
135,116,36723,5,0,0:0:0:0:
75,125,36848,1,0,0:0:0:0:
22,151,36973,1,0,0:0:0:0:
73,190,37098,70,0,L|67:226,1,36.2499988079071,4|0,1:3|0:0,0:0:0:0:
136,140,37223,2,0,L|150:60,1,45.3124985098839,4|0,1:3|0:0,0:0:0:0:
75,125,37347,6,0,L|59:26,1,54.3750002861023
139,214,37472,2,0,L|157:323,1,63.4374985188246
214,176,37597,6,0,L|0:141,1,217.500001144409,0|2,0:0|2:0,0:0:0:0:
