osu file format v14

[General]
AudioFilename: audio.mp3
AudioLeadIn: 0
PreviewTime: -1
Countdown: 0
SampleSet: Normal
StackLeniency: 0.7
Mode: 0
LetterboxInBreaks: 0
WidescreenStoryboard: 1

[Editor]
DistanceSpacing: 0.1
BeatDivisor: 16
GridSize: 4
TimelineZoom: 1

[Metadata]
Title:Gymnopedie No 1
TitleUnicode:Gymnopedie No 1
Artist:Kevin MacLeod
ArtistUnicode:Kevin MacLeod
Creator:randomguy13580
Version:Hard i think...
Source:Me
Tags:No
BeatmapID:4556349
BeatmapSetID:2160676

[Difficulty]
HPDrainRate:4
CircleSize:4
OverallDifficulty:4
ApproachRate:7
SliderMultiplier:3.59999990463257
SliderTickRate:1

[Events]
//Background and Video events
0,0,"Screenshot 2023-07-15 155721.png",0,0
//Break Periods
//Storyboard Layer 0 (Background)
//Storyboard Layer 1 (Fail)
//Storyboard Layer 2 (Pass)
//Storyboard Layer 3 (Foreground)
//Storyboard Layer 4 (Overlay)
//Storyboard Sound Samples

[TimingPoints]
1,348.837209302325,4,1,0,100,1,0

[HitObjects]
58,81,1,6,0,L|139:88,1,67.4999982118607
457,140,172,2,0,L|381:168,1,67.4999982118607
65,223,347,2,0,L|154:241,1,89.9999976158142
460,307,521,6,0,L|376:328,1,67.4999982118607
68,334,870,1,0,0:0:0:0:
186,45,1044,1,0,0:0:0:0:
394,40,1218,1,0,0:0:0:0:
440,352,1393,1,0,0:0:0:0:
109,306,1567,1,0,0:0:0:0:
245,296,1742,1,0,0:0:0:0:
336,57,1917,1,0,0:0:0:0:
417,342,2090,1,0,0:0:0:0:
434,120,2265,1,0,0:0:0:0:
241,272,2439,1,0,0:0:0:0:
351,228,2614,1,0,0:0:0:0:
153,245,2789,1,0,0:0:0:0:
414,284,2963,1,0,0:0:0:0:
129,201,3138,1,0,0:0:0:0:
342,321,3311,1,0,0:0:0:0:
374,89,3486,1,0,0:0:0:0:
351,286,3660,5,0,0:0:0:0:
163,63,3835,1,0,0:0:0:0:
372,184,4009,1,0,0:0:0:0:
119,132,4183,1,0,0:0:0:0:
420,229,4358,1,0,0:0:0:0:
181,260,4532,1,0,0:0:0:0:
339,237,4706,1,0,0:0:0:0:
333,41,4881,1,0,0:0:0:0:
250,283,5055,1,0,0:0:0:0:
331,125,5229,1,0,0:0:0:0:
178,279,5404,1,0,0:0:0:0:
366,262,5579,1,0,0:0:0:0:
58,262,5754,1,0,0:0:0:0:
347,273,5928,1,0,0:0:0:0:
367,104,6102,1,0,0:0:0:0:
172,111,6276,1,0,0:0:0:0:
166,255,6450,1,0,0:0:0:0:
217,255,6626,1,0,0:0:0:0:
283,184,6799,1,0,0:0:0:0:
368,196,6974,1,0,0:0:0:0:
279,188,7148,1,0,0:0:0:0:
216,165,7322,1,0,0:0:0:0:
122,172,7497,1,0,0:0:0:0:
169,94,7671,1,0,0:0:0:0:
321,96,7846,1,0,0:0:0:0:
408,123,8021,1,0,0:0:0:0:
266,143,8195,1,0,0:0:0:0:
133,105,8369,1,0,0:0:0:0:
106,176,8544,1,0,0:0:0:0:
218,201,8719,1,0,0:0:0:0:
353,234,8893,1,0,0:0:0:0:
386,234,9066,1,0,0:0:0:0:
280,106,9241,1,0,0:0:0:0:
99,143,9416,1,0,0:0:0:0:
124,222,9590,1,0,0:0:0:0:
220,237,9764,1,0,0:0:0:0:
311,231,9939,1,0,0:0:0:0:
388,263,10113,1,0,0:0:0:0:
323,136,10287,1,0,0:0:0:0:
162,151,10462,1,0,0:0:0:0:
327,222,10638,1,0,0:0:0:0:
109,192,10811,1,0,0:0:0:0:
138,120,10986,1,0,0:0:0:0:
65,55,11160,1,0,0:0:0:0:
87,129,11336,1,0,0:0:0:0:
290,161,11509,1,0,0:0:0:0:
407,223,11682,1,0,0:0:0:0:
384,207,11859,1,0,0:0:0:0:
356,196,12032,1,0,0:0:0:0:
402,215,12206,1,0,0:0:0:0:
65,194,12381,1,0,0:0:0:0:
115,186,12555,1,0,0:0:0:0:
49,177,12730,1,0,0:0:0:0:
326,186,12903,1,0,0:0:0:0:
372,177,13078,1,0,0:0:0:0:
128,248,13254,1,0,0:0:0:0:
132,280,13427,1,0,0:0:0:0:
204,306,13602,1,0,0:0:0:0:
265,101,13776,1,0,0:0:0:0:
194,147,13952,5,0,0:0:0:0:
241,53,14126,1,0,0:0:0:0:
253,220,14300,1,0,0:0:0:0:
136,221,14475,1,0,0:0:0:0:
210,263,14648,1,0,0:0:0:0:
334,262,14822,1,0,0:0:0:0:
272,224,14997,1,0,0:0:0:0:
150,85,15173,1,0,0:0:0:0:
80,45,15346,1,0,0:0:0:0:
297,22,15520,1,0,0:0:0:0:
342,233,15694,1,0,0:0:0:0:
367,256,15870,1,0,0:0:0:0:
159,231,16044,1,0,0:0:0:0:
166,304,16219,1,0,0:0:0:0:
289,152,16393,1,0,0:0:0:0:
332,111,16567,1,0,0:0:0:0:
395,121,16742,1,0,0:0:0:0:
327,281,16915,1,0,0:0:0:0:
350,342,17091,1,0,0:0:0:0:
332,239,17265,1,0,0:0:0:0:
226,340,17613,1,0,0:0:0:0:
79,318,17679,1,0,0:0:0:0:
130,90,17702,1,0,0:0:0:0:
145,313,17722,1,0,0:0:0:0:
189,99,17745,1,0,0:0:0:0:
206,315,17767,1,0,0:0:0:0:
236,101,17788,1,0,0:0:0:0:
244,307,17876,1,0,0:0:0:0:
276,129,17903,1,0,0:0:0:0:
293,314,17934,1,0,0:0:0:0:
329,147,17963,1,0,0:0:0:0:
343,307,17992,1,0,0:0:0:0:
359,186,18020,1,0,0:0:0:0:
373,314,18050,1,0,0:0:0:0:
384,200,18079,1,0,0:0:0:0:
336,313,18107,1,0,0:0:0:0:
299,107,18137,1,0,0:0:0:0:
71,81,18196,1,0,0:0:0:0:
100,85,18224,1,0,0:0:0:0:
165,125,18253,1,0,0:0:0:0:
162,195,18283,1,0,0:0:0:0:
206,254,18311,1,0,0:0:0:0:
281,230,18340,1,0,0:0:0:0:
289,163,18369,1,0,0:0:0:0:
80,75,18925,1,0,0:0:0:0:
140,94,18953,1,0,0:0:0:0:
188,149,18983,1,0,0:0:0:0:
205,220,19011,1,0,0:0:0:0:
322,238,19070,1,0,0:0:0:0:
323,172,19099,1,0,0:0:0:0:
327,101,19128,1,0,0:0:0:0:
322,62,19157,1,0,0:0:0:0:
80,75,19564,1,0,0:0:0:0:
127,129,19593,1,0,0:0:0:0:
165,174,19622,1,0,0:0:0:0:
167,233,19652,1,0,0:0:0:0:
279,207,19680,5,0,0:0:0:0:
260,152,19709,1,0,0:0:0:0:
287,86,19738,1,0,0:0:0:0:
400,79,19767,1,0,0:0:0:0:
408,149,19807,1,0,0:0:0:0:
409,170,19845,1,0,0:0:0:0:
392,252,19884,1,0,0:0:0:0:
365,313,19923,1,0,0:0:0:0:
300,329,20093,1,0,0:0:0:0:
245,302,20163,1,0,0:0:0:0:
219,234,20233,1,0,0:0:0:0:
206,161,20303,1,0,0:0:0:0:
173,83,20372,1,0,0:0:0:0:
127,129,20442,1,0,0:0:0:0:
110,203,20512,1,0,0:0:0:0:
135,283,20582,1,0,0:0:0:0:
210,268,20651,1,0,0:0:0:0:
258,201,20721,1,0,0:0:0:0:
287,140,20791,1,0,0:0:0:0:
326,119,20860,1,0,0:0:0:0:
108,130,21488,1,0,0:0:0:0:
148,196,21558,1,0,0:0:0:0:
209,148,21628,1,0,0:0:0:0:
256,215,21697,1,0,0:0:0:0:
306,154,21767,1,0,0:0:0:0:
357,215,21837,1,0,0:0:0:0:
403,153,21907,1,0,0:0:0:0:
451,210,21977,1,0,0:0:0:0:
407,141,22047,1,0,0:0:0:0:
351,219,22117,1,0,0:0:0:0:
306,154,22186,1,0,0:0:0:0:
66,80,22457,1,0,0:0:0:0:
132,90,22478,1,0,0:0:0:0:
184,134,22500,1,0,0:0:0:0:
165,204,22522,1,0,0:0:0:0:
92,197,22544,1,0,0:0:0:0:
18,209,22565,1,0,0:0:0:0:
12,277,22587,1,0,0:0:0:0:
62,328,22609,1,0,0:0:0:0:
132,341,22630,1,0,0:0:0:0:
203,327,22653,1,0,0:0:0:0:
234,260,22674,1,0,0:0:0:0:
305,267,22697,1,0,0:0:0:0:
339,331,22718,1,0,0:0:0:0:
409,317,22740,1,0,0:0:0:0:
452,257,22762,1,0,0:0:0:0:
401,205,22784,1,0,0:0:0:0:
333,187,22805,1,0,0:0:0:0:
347,118,22827,1,0,0:0:0:0:
414,104,22849,1,0,0:0:0:0:
392,36,22870,1,0,0:0:0:0:
323,15,22893,1,0,0:0:0:0:
256,37,22914,1,0,0:0:0:0:
244,103,22936,1,0,0:0:0:0:
175,105,22958,1,0,0:0:0:0:
128,49,22980,1,0,0:0:0:0:
62,49,23001,1,0,0:0:0:0:
23,107,23024,1,0,0:0:0:0:
62,165,23045,1,0,0:0:0:0:
42,232,23066,1,0,0:0:0:0:
93,282,23089,1,0,0:0:0:0:
151,235,23110,1,0,0:0:0:0:
201,286,23133,1,0,0:0:0:0:
248,231,23154,1,0,0:0:0:0:
226,162,23176,1,0,0:0:0:0:
293,138,23198,1,0,0:0:0:0:
338,199,23220,1,0,0:0:0:0:
405,159,23241,1,0,0:0:0:0:
369,92,23263,1,0,0:0:0:0:
342,39,23285,1,0,0:0:0:0:
268,49,23306,1,0,0:0:0:0:
195,39,23329,1,0,0:0:0:0:
117,41,23350,1,0,0:0:0:0:
68,104,23372,1,0,0:0:0:0:
98,172,23394,1,0,0:0:0:0:
151,235,23416,1,0,0:0:0:0:
208,281,23437,1,0,0:0:0:0:
277,297,23460,1,0,0:0:0:0:
342,257,23481,1,0,0:0:0:0:
386,199,23503,1,0,0:0:0:0:
379,128,23546,1,0,0:0:0:0:
320,78,23569,1,0,0:0:0:0:
252,93,23590,1,0,0:0:0:0:
183,98,23612,1,0,0:0:0:0:
119,131,23634,1,0,0:0:0:0:
150,195,23656,1,0,0:0:0:0:
109,257,23677,1,0,0:0:0:0:
99,331,23699,1,0,0:0:0:0:
168,306,23721,1,0,0:0:0:0:
226,354,23742,1,0,0:0:0:0:
240,281,23786,1,0,0:0:0:0:
182,222,23808,1,0,0:0:0:0:
95,184,23830,1,0,0:0:0:0:
63,120,23852,1,0,0:0:0:0:
25,196,23873,1,0,0:0:0:0:
70,255,23896,1,0,0:0:0:0:
127,199,23917,1,0,0:0:0:0:
184,158,23939,1,0,0:0:0:0:
257,151,23961,1,0,0:0:0:0:
303,201,23982,1,0,0:0:0:0:
363,158,24005,1,0,0:0:0:0:
336,91,24026,1,0,0:0:0:0:
400,62,24048,1,0,0:0:0:0:
356,3,24070,1,0,0:0:0:0:
291,32,24092,1,0,0:0:0:0:
239,79,24113,1,0,0:0:0:0:
213,146,24136,1,0,0:0:0:0:
205,218,24157,1,0,0:0:0:0:
240,281,24179,1,0,0:0:0:0:
300,311,24201,1,0,0:0:0:0:
356,271,24222,1,0,0:0:0:0:
371,203,24244,1,0,0:0:0:0:
346,137,24266,1,0,0:0:0:0:
274,104,24288,1,0,0:0:0:0:
205,91,24309,1,0,0:0:0:0:
74,136,24332,1,0,0:0:0:0:
134,104,24353,1,0,0:0:0:0:
112,193,24375,1,0,0:0:0:0:
124,259,24397,1,0,0:0:0:0:
80,315,24418,1,0,0:0:0:0:
153,325,24441,1,0,0:0:0:0:
192,270,24462,1,0,0:0:0:0:
171,203,24484,1,0,0:0:0:0:
98,189,24506,1,0,0:0:0:0:
47,241,24528,1,0,0:0:0:0:
30,169,24549,1,0,0:0:0:0:
92,120,24572,1,0,0:0:0:0:
163,130,24593,1,0,0:0:0:0:
142,63,24615,1,0,0:0:0:0:
223,72,24637,1,0,0:0:0:0:
243,134,24658,1,0,0:0:0:0:
303,185,24680,1,0,0:0:0:0:
359,130,24702,1,0,0:0:0:0:
314,68,24724,1,0,0:0:0:0:
373,23,24745,1,0,0:0:0:0:
429,73,24768,1,0,0:0:0:0:
437,163,24812,1,0,0:0:0:0:
417,271,24833,1,0,0:0:0:0:
338,323,24877,1,0,0:0:0:0:
49,331,25116,5,0,0:0:0:0:
413,81,25814,5,0,0:0:0:0:
168,205,26512,1,0,0:0:0:0:
482,277,27209,1,0,0:0:0:0:
162,200,27907,1,0,0:0:0:0:
356,284,28605,1,0,0:0:0:0:
125,130,29303,1,0,0:0:0:0:
303,262,30000,1,0,0:0:0:0:
194,302,30698,1,0,0:0:0:0:
165,227,31395,1,0,0:0:0:0:
232,193,32093,1,0,0:0:0:0:
112,113,33488,1,0,0:0:0:0:
125,51,36214,2,0,P|92:108|179:82,1,202.499994635582
108,38,36650,2,0,B|56:100|109:128|131:117|146:90|162:64|176:51|182:50|191:79|178:107|169:125|184:138|201:131|213:108|226:81|239:65|243:85|235:137|240:147|266:136|270:108|281:95|285:94|309:89|303:63|238:57|227:54|207:38|202:38|194:34|195:27|201:20|122:18|65:18|61:29|62:55|53:77|45:112|89:149|166:157|251:152|319:68|307:0|321:27|309:71|309:71|329:67|379:15|379:15|414:21|414:22|416:26|419:35|427:57|428:59|390:60|390:61|369:122|369:122|436:115|452:115|452:92|446:75|451:72|456:62|457:62|459:62|460:62|491:132|492:132|492:132|328:141|328:141|334:101|334:101|303:112|303:112|282:160|282:160|25:161|25:161|31:8|31:8|508:0|508:0|507:390|486:377|485:375|489:370|482:368|491:362|484:361|488:359|485:359|485:358|483:357|486:355|482:355|486:354|483:354|485:354|483:352|485:351|485:351|482:351|481:351|485:349|482:348|483:348|483:348|482:346|482:345|482:345|482:349|483:349|484:348|481:348|481:348|485:348|485:348|483:353|480:354|484:356|479:358|477:352|477:352|480:355|479:354|478:350|474:353|482:359|476:357|481:357|481:359|477:358|477:350|477:349|476:349|475:348|476:348|476:348|476:355|476:359|476:358|475:354|475:354|478:358|188:263|433:199|176:259|365:85|273:384|184:110|495:277|199:347|280:118|228:346|92:302|401:285|219:137|176:318|86:254|420:257|268:313|165:112|152:279|129:190|31:241|371:279|142:329|42:317|42:286|237:336|87:376|48:289|0:349|163:354|37:358|180:244|-84:362|-13:227|144:346|-103:341|-38:123|-145:181|-57:319|-170:360|-76:252|-55:151|-66:108|-66:104|-67:186|-60:212|393:237|546:204|601:157|594:117|582:73|573:149|589:341|609:330|530:337|593:109|513:271|309:312|477:291|233:360|426:268|435:262|435:262|130:318|130:318|16:275|16:275|-32:36|-32:36|-159:363|-159:363|-146:-2|-146:-2|676:384|676:384|686:-61|686:-61|-97:375|-97:375|328:405|351:364|333:356|317:344|321:347|308:359|316:357|303:366|305:359|309:367|318:363|401:355|363:352,1,8482.49977529049
241,22,45655,2,0,B|48:34|48:34|52:80|52:81|247:69|247:69|237:117|237:117|34:109|34:109|36:132|36:132|270:138|270:138|288:20|288:20|494:28|494:28|476:166|476:166|454:162|454:162|454:77|454:77|306:74|306:74|302:155|302:155|348:150|348:150|355:116|355:115|394:120|394:120|387:169|387:169|422:137|422:128|421:116|426:182|426:182|500:203|500:203|495:373|495:373|458:379|458:379|456:330|456:330|337:335|337:335|338:372|338:372|417:374|417:374|405:279|405:279|441:288|441:288|438:238|438:238|36:179|36:179|28:365|28:365|296:364|296:364|69:325|69:325|77:233|77:233|123:306|123:306|116:232|169:313|169:312|122:228|122:228|201:251|200:251|200:304|200:304|184:306|184:306|235:254|235:254|231:329|231:329|364:295|364:295|479:234|479:234|180:170|179:170|269:294|269:294|354:251|354:251|162:168,1,5377.4998575449
24,32,51149,2,0,L|131:37,1,89.9999976158142
475,89,51171,2,0,L|418:103,1,44.9999988079071
29,125,51192,2,0,L|105:128,1,67.4999982118607
467,177,51214,2,0,L|401:197,1,67.4999982118607
34,227,51236,2,0,L|92:231,1,44.9999988079071
466,261,51258,2,0,L|407:279,1,44.9999988079071
29,310,51280,2,0,L|91:313,1,44.9999988079071
472,337,51301,2,0,L|406:354,1,67.4999982118607
83,32,52043,2,0,L|110:36,1,22.4999994039536
105,35,52064,2,0,L|128:49,1,22.4999994039536
122,46,52086,2,0,L|126:72,1,22.4999994039536
121,64,52108,2,0,L|142:83,1,22.4999994039536
139,81,52130,2,0,L|168:79,1,22.4999994039536
163,75,52152,2,0,L|184:52,1,22.4999994039536
178,58,52173,2,0,L|207:55,1,22.4999994039536
200,56,52195,2,0,L|207:90,1,22.4999994039536
206,87,52217,2,0,L|240:85,1,22.4999994039536
