osu file format v14

[General]
AudioFilename: audio.mp3
AudioLeadIn: 0
PreviewTime: -1
Countdown: 0
SampleSet: None
StackLeniency: 0.7
Mode: 0
LetterboxInBreaks: 0
WidescreenStoryboard: 0

[Editor]
DistanceSpacing: 0.1
BeatDivisor: 2
GridSize: 4
TimelineZoom: 1

[Metadata]
Title:Gymnopedie No 1
TitleUnicode:Gymnopedie No 1
Artist:Kevin MacLeod
ArtistUnicode:Kevin MacLeod
Creator:randomguy13580
Version:Eazy
Source:Me
Tags:No
BeatmapID:4556348
BeatmapSetID:2160676

[Difficulty]
HPDrainRate:1
CircleSize:2
OverallDifficulty:0
ApproachRate:2
SliderMultiplier:1.4
SliderTickRate:1

[Events]
//Background and Video events
0,0,"Screenshot 2023-07-15 155721.png",0,0
//Break Periods
//Storyboard Layer 0 (Background)
//Storyboard Layer 1 (Fail)
//Storyboard Layer 2 (Pass)
//Storyboard Layer 3 (Foreground)
//Storyboard Layer 4 (Overlay)
//Storyboard Sound Samples

[TimingPoints]
1,779.220779220779,4,1,0,100,1,0

[HitObjects]
187,174,780,5,0,0:0:0:0:
366,102,3117,1,0,0:0:0:0:
96,220,5455,1,0,0:0:0:0:
353,297,7403,1,0,0:0:0:0:
103,49,10130,2,0,L|246:139,1,140
455,49,11689,2,0,L|306:138,1,140
220,152,13247,1,0,2:0:0:0:
66,252,14026,2,0,L|243:191,1,140
202,89,15585,6,0,L|279:98,1,70
275,173,16364,2,0,L|185:167,1,70
229,165,18702,2,0,L|236:88,1,70
304,74,21039,2,0,L|294:153,1,70
169,38,22988,2,0,L|169:140,1,70
181,168,24936,2,0,P|326:136|308:193,1,280
172,108,28052,1,0,2:0:0:0:
282,150,30390,1,0,2:0:0:0:
127,87,32338,2,0,B|38:220|38:220|193:325|193:325|313:183|313:183|479:290,1,700
133,161,37793,1,0,2:0:0:0:
228,184,39741,5,0,2:0:0:0:
132,129,42078,1,0,2:0:0:0:
235,216,44416,1,0,2:0:0:0:
160,182,47143,1,0,2:0:0:0:
199,114,49091,5,0,0:0:0:0:
118,207,49871,1,0,0:0:0:0:
228,194,50650,1,0,0:0:0:0:
322,168,51429,1,0,0:0:0:0:
383,130,52208,1,0,0:0:0:0:
149,156,53767,1,0,0:0:0:0:
334,158,54546,1,0,0:0:0:0:
177,222,55325,1,0,0:0:0:0:
259,88,56104,1,0,0:0:0:0:
285,196,56884,1,0,0:0:0:0:
167,178,57663,1,0,0:0:0:0:
266,100,58442,1,0,0:0:0:0:
297,216,59221,1,0,0:0:0:0:
158,176,60001,1,0,0:0:0:0:
301,104,60780,1,0,0:0:0:0:
270,231,61559,1,0,0:0:0:0:
370,176,62338,1,0,0:0:0:0:
257,96,63117,1,0,0:0:0:0:
272,220,63897,1,0,0:0:0:0:
382,168,64676,1,0,0:0:0:0:
247,88,65455,1,0,0:0:0:0:
333,217,66234,1,0,0:0:0:0:
333,84,67013,1,0,0:0:0:0:
192,159,67793,1,0,0:0:0:0:
302,228,68572,1,0,0:0:0:0:
300,94,69351,1,0,0:0:0:0:
161,167,70130,5,0,0:0:0:0:
276,245,70910,1,0,0:0:0:0:
271,112,71689,1,0,0:0:0:0:
152,179,72468,1,0,0:0:0:0:
300,258,73247,1,0,0:0:0:0:
239,121,74026,1,0,0:0:0:0:
171,255,74806,1,0,0:0:0:0:
331,211,75585,1,0,0:0:0:0:
239,135,76364,1,0,0:0:0:0:
316,209,77143,1,0,0:0:0:0:
184,233,77923,1,0,0:0:0:0:
243,130,78702,1,0,0:0:0:0:
189,231,79481,1,0,0:0:0:0:
317,218,80260,1,0,0:0:0:0:
254,147,81039,1,0,0:0:0:0:
206,228,81819,1,0,0:0:0:0:
264,131,82598,1,0,0:0:0:0:
223,222,83377,1,0,0:0:0:0:
310,165,84156,1,0,0:0:0:0:
174,125,86494,1,0,0:0:0:0:
234,129,88832,1,0,0:0:0:0:
221,108,90780,1,0,0:0:0:0:
244,212,92728,1,0,0:0:0:0:
236,134,93507,1,0,0:0:0:0:
172,159,96234,1,0,0:0:0:0:
310,184,98962,1,0,0:0:0:0:
213,121,101299,1,0,0:0:0:0:
216,149,102078,1,0,0:0:0:0:
290,143,102858,1,0,0:0:0:0:
299,184,103637,1,0,0:0:0:0:
236,199,104416,5,0,0:0:0:0:
189,190,105195,1,0,0:0:0:0:
206,144,105975,1,0,0:0:0:0:
285,159,106754,1,0,0:0:0:0:
266,226,107533,1,0,0:0:0:0:
189,170,108312,1,0,0:0:0:0:
373,112,109481,1,0,0:0:0:0:
189,165,110650,1,0,0:0:0:0:
307,96,112208,1,0,0:0:0:0:
145,148,112988,1,0,0:0:0:0:
108,308,114546,1,0,0:0:0:0:
362,175,115325,1,0,0:0:0:0:
259,101,116104,1,0,0:0:0:0:
119,176,116884,1,0,0:0:0:0:
250,266,117663,1,0,0:0:0:0:
372,182,118442,1,0,0:0:0:0:
247,118,119221,1,0,0:0:0:0:
139,195,120001,1,0,0:0:0:0:
281,262,120780,1,0,0:0:0:0:
392,171,121559,1,0,0:0:0:0:
260,179,122338,1,0,0:0:0:0:
435,172,123117,1,0,0:0:0:0:
248,58,123897,1,0,0:0:0:0:
411,49,124676,5,0,0:0:0:0:
286,114,125455,1,0,0:0:0:0:
379,77,126234,5,0,0:0:0:0:
145,116,127013,1,0,0:0:0:0:
274,228,127793,5,0,0:0:0:0:
332,108,128572,5,0,0:0:0:0:
100,124,129351,1,0,0:0:0:0:
220,229,130130,1,0,0:0:0:0:
347,131,130910,1,0,0:0:0:0:
276,49,131689,1,0,0:0:0:0:
201,161,132468,1,0,0:0:0:0:
291,242,133247,1,0,0:0:0:0:
417,159,134026,1,0,0:0:0:0:
331,96,134806,1,0,0:0:0:0:
244,175,135585,1,0,0:0:0:0:
339,229,136364,1,0,0:0:0:0:
254,295,137143,2,0,B|269:200|316:178|377:170|374:188,1,140
383,186,138702,2,0,P|304:113|291:41,1,140
107,58,140260,1,0,0:0:0:0:
296,151,141819,1,0,0:0:0:0:
302,239,142598,1,0,0:0:0:0:
202,169,143377,1,0,0:0:0:0:
361,239,144156,1,0,0:0:0:0:
279,109,144936,1,0,0:0:0:0:
186,234,145715,1,0,0:0:0:0:
213,75,146494,1,0,0:0:0:0:
286,193,147273,1,0,0:0:0:0:
164,257,148052,1,0,0:0:0:0:
23,148,148832,1,0,0:0:0:0:
73,326,149611,2,0,B|83:149|83:149|227:81,1,280
448,128,151949,2,0,B|444:276|444:276|301:344,1,280
195,135,154286,1,0,0:0:0:0:
76,244,155065,1,0,0:0:0:0:
193,273,155845,5,0,0:0:0:0:
275,158,156624,1,0,0:0:0:0:
258,254,157403,1,0,0:0:0:0:
145,118,158182,1,0,0:0:0:0:
266,269,158962,1,0,0:0:0:0:
349,72,159741,1,0,0:0:0:0:
214,167,160520,1,0,0:0:0:0:
338,261,161299,1,0,0:0:0:0:
252,75,162078,1,0,0:0:0:0:
151,197,162858,1,0,0:0:0:0:
387,175,163637,1,0,0:0:0:0:
