osu file format v14

[General]
AudioFilename: audio.mp3
AudioLeadIn: 0
PreviewTime: 10209
Countdown: 0
SampleSet: Soft
StackLeniency: 0.7
Mode: 1
LetterboxInBreaks: 0
WidescreenStoryboard: 0

[Editor]
DistanceSpacing: 1
BeatDivisor: 4
GridSize: 8
TimelineZoom: 1

[Metadata]
Title:Feral Chase
TitleUnicode:Feral Chase
Artist:Kevin MacLeod
ArtistUnicode:Kevin MacLeod
Creator:Syphist
Version:Oni
Source:Moonbase Alpha
Tags:drums moon base nasa aeiou john madden rover
BeatmapID:892818
BeatmapSetID:411483

[Difficulty]
HPDrainRate:6
CircleSize:5
OverallDifficulty:5
ApproachRate:5
SliderMultiplier:1.5
SliderTickRate:1

[Events]
//Background and Video events
0,0,"astronaught.jpg",0,0
//Break Periods
//Storyboard Layer 0 (Background)
//Storyboard Layer 1 (Fail)
//Storyboard Layer 2 (Pass)
//Storyboard Layer 3 (Foreground)
//Storyboard Sound Samples

[TimingPoints]
1254,447.761194029851,4,2,0,65,1,0
10209,-100,4,2,0,85,0,0

[HitObjects]
256,192,10209,5,4,0:0:0:0:
184,192,10656,1,0,0:0:0:0:
184,192,11104,1,0,0:0:0:0:
240,192,11552,1,0,0:0:0:0:
288,192,11776,1,0,0:0:0:0:
352,192,11888,1,0,0:0:0:0:
408,192,12000,5,0,0:0:0:0:
200,192,12448,1,0,0:0:0:0:
88,192,12671,1,8,0:0:0:0:
200,192,12895,1,0,0:0:0:0:
96,200,13119,1,8,0:0:0:0:
280,192,13343,1,0,0:0:0:0:
280,192,13455,1,0,0:0:0:0:
280,192,13567,1,8,0:0:0:0:
280,192,13679,1,8,0:0:0:0:
280,192,13791,5,4,0:0:0:0:
80,96,14239,1,0,0:0:0:0:
200,96,14686,1,0,0:0:0:0:
320,104,15134,1,0,0:0:0:0:
448,104,15358,1,0,0:0:0:0:
448,176,15470,1,8,0:0:0:0:
448,248,15582,5,4,0:0:0:0:
256,192,16030,1,0,0:0:0:0:
136,192,16254,1,8,0:0:0:0:
256,80,16477,1,0,0:0:0:0:
320,80,16589,1,0,0:0:0:0:
384,80,16701,1,0,0:0:0:0:
256,192,16925,1,0,0:0:0:0:
360,192,17149,1,8,0:0:0:0:
448,192,17373,5,4,0:0:0:0:
256,192,17821,1,0,0:0:0:0:
256,192,18268,1,0,0:0:0:0:
256,192,18716,1,0,0:0:0:0:
264,88,19052,1,8,0:0:0:0:
312,88,19164,5,4,0:0:0:0:
120,192,19612,1,0,0:0:0:0:
120,192,20059,1,0,0:0:0:0:
120,192,20507,1,0,0:0:0:0:
176,192,20619,1,0,0:0:0:0:
232,192,20731,1,8,0:0:0:0:
288,192,20843,1,8,0:0:0:0:
344,192,20955,5,4,0:0:0:0:
128,192,21403,1,0,0:0:0:0:
128,192,21851,1,0,0:0:0:0:
128,192,22298,1,0,0:0:0:0:
208,80,22522,1,0,0:0:0:0:
264,80,22634,1,8,0:0:0:0:
320,80,22746,5,4,0:0:0:0:
256,192,23194,1,8,0:0:0:0:
320,192,23418,1,0,0:0:0:0:
192,192,23642,1,8,0:0:0:0:
384,192,23865,1,0,0:0:0:0:
56,80,24089,1,8,0:0:0:0:
192,80,24313,1,12,0:0:0:0:
312,80,24537,5,4,0:0:0:0:
256,192,24985,1,0,0:0:0:0:
160,192,25209,1,8,0:0:0:0:
256,192,25433,1,0,0:0:0:0:
352,192,25880,1,0,0:0:0:0:
128,88,26104,1,8,0:0:0:0:
184,88,26216,1,8,0:0:0:0:
240,88,26328,5,4,0:0:0:0:
184,192,26776,1,0,0:0:0:0:
256,192,27000,1,8,0:0:0:0:
328,192,27224,1,0,0:0:0:0:
96,96,27671,1,0,0:0:0:0:
248,88,27895,1,0,0:0:0:0:
328,88,28007,1,8,0:0:0:0:
408,88,28119,5,4,0:0:0:0:
112,152,28567,1,0,0:0:0:0:
184,152,28791,1,8,0:0:0:0:
256,152,29015,1,0,0:0:0:0:
240,48,29462,1,8,0:0:0:0:
72,272,29686,1,0,0:0:0:0:
144,272,29798,1,8,0:0:0:0:
216,272,29910,5,4,0:0:0:0:
120,128,30358,1,0,0:0:0:0:
248,120,30582,1,4,0:0:0:0:
120,224,31030,1,0,0:0:0:0:
248,232,31254,1,4,0:0:0:0:
176,88,31477,1,0,0:0:0:0:
216,88,31589,1,8,0:0:0:0:
256,88,31701,5,4,0:0:0:0:
136,192,32149,1,0,0:0:0:0:
256,192,32597,1,0,0:0:0:0:
376,192,33045,1,0,0:0:0:0:
376,264,33268,1,0,0:0:0:0:
376,336,33492,5,4,0:0:0:0:
40,160,33940,1,0,0:0:0:0:
160,160,34388,1,0,0:0:0:0:
256,160,34836,1,0,0:0:0:0:
168,48,35059,1,8,0:0:0:0:
232,48,35171,1,8,0:0:0:0:
296,48,35283,5,4,0:0:0:0:
64,264,35731,1,0,0:0:0:0:
136,264,35955,1,8,0:0:0:0:
208,264,36179,1,0,0:0:0:0:
168,80,36851,1,0,0:0:0:0:
224,80,36962,1,8,0:0:0:0:
272,80,37074,5,4,0:0:0:0:
200,232,37522,1,0,0:0:0:0:
264,232,37746,1,4,0:0:0:0:
344,232,38418,1,0,0:0:0:0:
408,232,38642,1,8,0:0:0:0:
472,232,38865,5,4,0:0:0:0:
120,136,39313,1,0,0:0:0:0:
200,136,39537,1,0,0:0:0:0:
272,136,39761,1,8,0:0:0:0:
256,192,40656,5,4,0:0:0:0:
80,104,41104,1,0,0:0:0:0:
168,104,41328,1,4,0:0:0:0:
256,104,41552,1,0,0:0:0:0:
312,104,41664,1,0,0:0:0:0:
368,104,41776,1,0,0:0:0:0:
80,224,42000,1,0,0:0:0:0:
136,224,42112,1,0,0:0:0:0:
192,224,42224,1,8,0:0:0:0:
248,224,42336,1,8,0:0:0:0:
304,224,42448,5,4,0:0:0:0:
80,120,42895,1,8,0:0:0:0:
160,120,43343,1,8,0:0:0:0:
256,120,43791,1,8,0:0:0:0:
160,264,44015,1,0,0:0:0:0:
216,264,44127,1,8,0:0:0:0:
272,264,44239,5,4,0:0:0:0:
56,48,44462,1,8,0:0:0:0:
112,48,44686,1,0,0:0:0:0:
176,48,44910,1,0,0:0:0:0:
72,192,45134,1,8,0:0:0:0:
256,192,45582,1,0,0:0:0:0:
328,192,45806,1,12,0:0:0:0:
392,192,46030,5,4,0:0:0:0:
56,96,46477,1,8,0:0:0:0:
192,96,46925,1,8,0:0:0:0:
320,96,47373,1,8,0:0:0:0:
208,248,47709,1,0,0:0:0:0:
264,248,47821,5,4,0:0:0:0:
200,128,48268,1,0,0:0:0:0:
272,128,48492,1,4,0:0:0:0:
344,128,48716,1,0,0:0:0:0:
160,192,48940,1,8,0:0:0:0:
96,192,49164,1,0,0:0:0:0:
224,80,49500,1,8,0:0:0:0:
280,80,49612,5,4,0:0:0:0:
128,192,50059,1,8,0:0:0:0:
200,192,50283,1,0,0:0:0:0:
272,192,50507,1,12,0:0:0:0:
88,104,50955,1,0,0:0:0:0:
256,104,51291,1,0,0:0:0:0:
312,104,51403,5,4,0:0:0:0:
216,192,51851,1,0,0:0:0:0:
272,192,52074,1,12,0:0:0:0:
336,192,52298,1,4,0:0:0:0:
112,288,52746,1,4,0:0:0:0:
256,296,53194,5,8,0:0:0:0:
256,192,53418,1,0,0:0:0:0:
312,192,53530,1,0,0:0:0:0:
368,192,53642,1,0,0:0:0:0:
424,192,53754,1,8,0:0:0:0:
480,192,53865,1,4,0:0:0:0:
80,64,54089,1,0,0:0:0:0:
136,64,54201,1,0,0:0:0:0:
192,64,54313,1,0,0:0:0:0:
248,64,54425,1,8,0:0:0:0:
304,64,54536,1,4,0:0:0:0:
64,192,54761,1,0,0:0:0:0:
256,192,54985,5,4,0:0:0:0:
64,80,55209,1,12,0:0:0:0:
144,88,55433,1,0,0:0:0:0:
184,96,55545,1,0,0:0:0:0:
224,104,55656,1,0,0:0:0:0:
208,232,55880,1,0,0:0:0:0:
264,232,55992,1,0,0:0:0:0:
320,232,56104,1,0,0:0:0:0:
288,48,56328,1,0,0:0:0:0:
344,48,56440,1,0,0:0:0:0:
400,48,56552,1,0,0:0:0:0:
456,48,56664,1,8,0:0:0:0:
504,48,56776,1,4,0:0:0:0:
