osu file format v14

[General]
AudioFilename: Frikandellen Tent.mp3
AudioLeadIn: 0
PreviewTime: 2224
Countdown: 0
SampleSet: None
StackLeniency: 0.7
Mode: 1
LetterboxInBreaks: 0
WidescreenStoryboard: 1

[Editor]
Bookmarks: 2224,2547,2869,3192,3515,3837,4160,4482,4805,5127,5450,5773,7385,7708,8031,8353,8676,8998,9321,9644,9966,10289,10611,10934,11256,11902,12547,12869,13192,13515,13837,14160,14482,14805,15127,15450,15773,16095,16418,17063,17708,33192,33594,33836,34159,34482,36095,36941,38030,38635
DistanceSpacing: 3
BeatDivisor: 6
GridSize: 16
TimelineZoom: 6.799995

[Metadata]
Title:Frikandellentent
TitleUnicode:Frikandellentent
Artist:Kevin Hultermans
ArtistUnicode:Kevin Hultermans
Creator:Wesley
Version:Tako
Source:
Tags:
BeatmapID:1199689
BeatmapSetID:515878

[Difficulty]
HPDrainRate:7
CircleSize:4
OverallDifficulty:9.7
ApproachRate:9.2
SliderMultiplier:1.4
SliderTickRate:1

[Events]
//Background and Video events
0,0,"frikandel-1.jpg",0,0
//Break Periods
//Storyboard Layer 0 (Background)
//Storyboard Layer 1 (Fail)
//Storyboard Layer 2 (Pass)
//Storyboard Layer 3 (Foreground)
//Storyboard Sound Samples

[TimingPoints]
2224,322.58064516129,4,3,0,100,1,0
2224,-58.8235294117647,4,3,0,100,0,0
6095,-66.6666666666667,4,3,0,100,0,0
7385,-58.8235294117647,4,3,0,100,0,0
11256,-66.6666666666667,4,3,0,100,0,0
11901,-58.8235294117647,4,3,0,100,0,0
12546,-90.9090909090909,4,3,0,100,0,0
16418,-76.9230769230769,4,3,0,100,0,0
17143,-66.6666666666667,4,3,0,100,0,0
17708,-58.8235294117647,4,3,0,100,0,0
21578,-76.9230769230769,4,3,0,100,0,0
22869,-55.5555555555556,4,3,0,100,0,0
25449,-76.9230769230769,4,3,0,100,0,0
26740,-50,4,3,0,100,0,1
33084,-133.333333333333,4,3,0,100,0,0
33272,-76.9230769230769,4,3,0,100,0,0
34804,-76.9230769230769,4,3,0,100,0,0
36094,-50,4,3,0,100,0,0
37492,-66.6666666666667,4,3,0,100,0,0

[HitObjects]
256,192,2224,5,8,3:0:0:0:
256,192,2331,1,0,3:0:0:0:
256,192,2546,1,8,3:0:0:0:
256,192,2654,1,0,3:0:0:0:
256,192,2869,1,8,3:0:0:0:
256,192,2976,1,0,3:0:0:0:
256,192,3191,1,8,3:0:0:0:
256,192,3299,1,0,3:0:0:0:
256,192,3514,5,8,3:0:0:0:
256,192,3621,1,0,3:0:0:0:
256,192,3836,1,8,3:0:0:0:
256,192,3944,1,0,3:0:0:0:
256,192,4159,5,0,3:0:0:0:
256,192,4267,1,8,3:0:0:0:
256,192,4482,1,0,3:0:0:0:
256,192,4589,1,8,3:0:0:0:
256,192,4804,1,0,3:0:0:0:
256,192,4912,1,8,3:0:0:0:
256,192,5127,1,0,3:0:0:0:
256,192,5234,1,8,3:0:0:0:
256,192,5449,5,0,3:0:0:0:
256,192,5557,1,8,3:0:0:0:
256,192,5772,1,0,3:0:0:0:
256,192,5879,1,8,3:0:0:0:
256,192,6094,5,0,0:0:0:0:
256,192,6175,1,0,0:0:0:0:
256,192,6256,1,8,0:0:0:0:
256,192,6336,1,0,0:0:0:0:
256,192,6417,1,0,0:0:0:0:
256,192,6498,1,8,0:0:0:0:
256,192,6578,1,8,0:0:0:0:
256,192,6740,5,0,0:0:0:0:
256,192,6820,1,0,0:0:0:0:
256,192,6901,1,8,0:0:0:0:
256,192,7062,1,0,0:0:0:0:
256,192,7143,1,0,0:0:0:0:
256,192,7223,1,8,0:0:0:0:
256,192,7385,5,8,3:0:0:0:
256,192,7492,1,0,3:0:0:0:
256,192,7707,1,8,3:0:0:0:
256,192,7815,1,0,3:0:0:0:
256,192,8030,5,0,3:0:0:0:
256,192,8137,1,8,3:0:0:0:
256,192,8353,1,8,3:0:0:0:
256,192,8460,1,0,3:0:0:0:
256,192,8675,5,8,3:0:0:0:
256,192,8783,1,0,3:0:0:0:
256,192,8998,1,0,3:0:0:0:
256,192,9105,1,8,3:0:0:0:
256,192,9320,5,0,3:0:0:0:
256,192,9428,1,8,3:0:0:0:
256,192,9643,1,8,3:0:0:0:
256,192,9750,1,0,3:0:0:0:
256,192,9965,5,0,3:0:0:0:
256,192,10073,1,8,3:0:0:0:
256,192,10288,1,0,3:0:0:0:
256,192,10396,1,8,3:0:0:0:
256,192,10611,5,8,3:0:0:0:
256,192,10718,1,0,3:0:0:0:
256,192,10933,1,8,3:0:0:0:
256,192,11041,1,0,3:0:0:0:
256,192,11256,5,0,0:0:0:0:
256,192,11336,1,0,0:0:0:0:
256,192,11417,1,0,0:0:0:0:
256,192,11498,1,0,0:0:0:0:
256,192,11578,1,0,0:0:0:0:
256,192,11659,1,0,0:0:0:0:
256,192,11740,1,0,0:0:0:0:
256,192,11901,5,8,0:0:0:0:
256,192,11982,1,0,0:0:0:0:
256,192,12062,1,0,0:0:0:0:
256,192,12143,1,8,0:0:0:0:
256,192,12223,1,0,0:0:0:0:
256,192,12304,1,0,0:0:0:0:
256,192,12385,1,0,0:0:0:0:
256,192,12546,5,8,3:0:0:0:
256,192,12600,1,0,3:0:0:0:
256,192,12654,1,8,3:0:0:0:
256,192,12869,1,8,3:0:0:0:
256,192,12922,1,0,3:0:0:0:
256,192,12976,1,8,3:0:0:0:
256,192,13191,5,0,3:0:0:0:
256,192,13245,1,8,3:0:0:0:
256,192,13299,1,0,3:0:0:0:
256,192,13514,1,0,3:0:0:0:
256,192,13568,1,8,3:0:0:0:
256,192,13621,1,0,3:0:0:0:
256,192,13836,5,8,3:0:0:0:
256,192,13890,1,0,3:0:0:0:
256,192,13944,1,8,3:0:0:0:
256,192,14159,1,0,3:0:0:0:
256,192,14213,1,8,3:0:0:0:
256,192,14267,1,0,3:0:0:0:
256,192,14482,1,8,3:0:0:0:
256,192,14535,1,0,3:0:0:0:
256,192,14589,1,8,3:0:0:0:
256,192,14804,5,8,3:0:0:0:
256,192,14858,1,0,3:0:0:0:
256,192,14912,1,8,3:0:0:0:
256,192,15127,1,0,3:0:0:0:
256,192,15180,1,8,3:0:0:0:
256,192,15234,1,0,3:0:0:0:
256,192,15449,1,8,3:0:0:0:
256,192,15503,1,0,3:0:0:0:
256,192,15557,1,8,3:0:0:0:
256,192,15772,5,0,3:0:0:0:
256,192,15826,1,8,3:0:0:0:
256,192,15879,1,0,3:0:0:0:
256,192,16094,1,0,3:0:0:0:
256,192,16148,1,8,3:0:0:0:
256,192,16202,1,0,3:0:0:0:
256,192,16417,5,0,0:0:0:0:
256,192,16471,1,0,0:0:0:0:
256,192,16525,1,8,0:0:0:0:
256,192,16578,1,0,0:0:0:0:
256,192,16632,1,0,0:0:0:0:
256,192,16686,1,0,0:0:0:0:
256,192,16740,1,0,0:0:0:0:
256,192,17143,5,0,0:0:0:0:
256,192,17223,1,0,0:0:0:0:
256,192,17304,1,0,0:0:0:0:
256,192,17385,1,12,0:0:0:0:
256,192,17466,1,4,0:0:0:0:
256,192,17707,5,0,0:0:0:0:
256,192,17869,1,0,0:0:0:0:
256,192,18030,1,8,0:0:0:0:
256,192,18191,1,8,0:0:0:0:
256,192,18353,1,0,0:0:0:0:
256,192,18514,1,0,0:0:0:0:
256,192,18675,1,8,0:0:0:0:
256,192,18836,1,0,0:0:0:0:
256,192,18998,5,8,0:0:0:0:
256,192,19159,1,8,0:0:0:0:
256,192,19320,1,0,0:0:0:0:
256,192,19482,1,0,0:0:0:0:
256,192,19643,1,8,0:0:0:0:
256,192,19804,1,8,0:0:0:0:
256,192,19965,1,0,0:0:0:0:
256,192,20127,1,8,0:0:0:0:
256,192,20288,5,0,0:0:0:0:
256,192,20449,1,0,0:0:0:0:
256,192,20611,1,8,0:0:0:0:
256,192,20772,1,8,0:0:0:0:
256,192,20933,1,0,0:0:0:0:
256,192,21094,1,0,0:0:0:0:
256,192,21256,1,8,0:0:0:0:
256,192,21417,1,0,0:0:0:0:
256,192,21578,5,8,0:0:0:0:
256,192,21740,1,8,0:0:0:0:
256,192,21901,1,0,0:0:0:0:
256,192,22062,1,8,0:0:0:0:
256,192,22223,1,8,0:0:0:0:
256,192,22385,1,0,0:0:0:0:
256,192,22546,1,0,0:0:0:0:
256,192,22869,5,8,0:0:0:0:
256,192,23030,1,8,0:0:0:0:
256,192,23191,1,0,0:0:0:0:
256,192,23353,1,0,0:0:0:0:
256,192,23514,1,8,0:0:0:0:
256,192,23675,1,8,0:0:0:0:
256,192,23836,1,0,0:0:0:0:
256,192,23998,1,8,0:0:0:0:
256,192,24159,5,0,0:0:0:0:
256,192,24320,1,0,0:0:0:0:
256,192,24482,1,8,0:0:0:0:
256,192,24643,1,8,0:0:0:0:
256,192,24804,1,0,0:0:0:0:
256,192,24965,1,0,0:0:0:0:
256,192,25127,1,8,0:0:0:0:
256,192,25288,1,0,0:0:0:0:
256,192,25449,5,8,0:0:0:0:
256,192,25611,1,0,0:0:0:0:
256,192,25772,1,8,0:0:0:0:
256,192,25933,1,0,0:0:0:0:
256,192,26094,1,0,0:0:0:0:
256,192,26256,1,8,0:0:0:0:
256,192,26417,1,0,0:0:0:0:
256,192,26740,5,0,0:0:0:0:
256,192,26793,1,0,0:0:0:0:
256,192,26901,1,0,0:0:0:0:
256,192,26955,1,0,0:0:0:0:
256,192,27062,5,8,0:0:0:0:
256,192,27116,1,8,0:0:0:0:
256,192,27223,1,8,0:0:0:0:
256,192,27277,1,8,0:0:0:0:
256,192,27385,5,0,0:0:0:0:
256,192,27439,1,0,0:0:0:0:
256,192,27546,1,0,0:0:0:0:
256,192,27600,1,0,0:0:0:0:
256,192,27707,1,8,0:0:0:0:
256,192,27869,1,0,0:0:0:0:
256,192,28030,5,8,0:0:0:0:
256,192,28084,1,8,0:0:0:0:
256,192,28191,1,8,0:0:0:0:
256,192,28245,1,8,0:0:0:0:
256,192,28353,5,0,0:0:0:0:
256,192,28406,1,0,0:0:0:0:
256,192,28514,1,0,0:0:0:0:
256,192,28568,1,0,0:0:0:0:
256,192,28675,5,8,0:0:0:0:
256,192,28729,1,8,0:0:0:0:
256,192,28836,1,8,0:0:0:0:
256,192,28890,1,8,0:0:0:0:
256,192,28998,1,0,0:0:0:0:
256,192,29159,1,8,0:0:0:0:
256,192,29320,5,0,0:0:0:0:
256,192,29374,1,0,0:0:0:0:
256,192,29482,1,0,0:0:0:0:
256,192,29535,1,0,0:0:0:0:
256,192,29643,5,8,0:0:0:0:
256,192,29697,1,8,0:0:0:0:
256,192,29804,1,8,0:0:0:0:
256,192,29858,1,8,0:0:0:0:
256,192,29965,5,0,0:0:0:0:
256,192,30030,1,0,0:0:0:0:
256,192,30127,1,0,0:0:0:0:
256,192,30180,1,0,0:0:0:0:
256,192,30288,1,8,0:0:0:0:
256,192,30449,1,0,0:0:0:0:
256,192,30611,5,8,0:0:0:0:
256,192,30664,1,8,0:0:0:0:
256,192,30772,1,8,0:0:0:0:
256,192,30826,1,8,0:0:0:0:
256,192,30933,5,0,0:0:0:0:
256,192,30987,1,0,0:0:0:0:
256,192,31094,1,0,0:0:0:0:
256,192,31148,1,0,0:0:0:0:
256,192,31256,5,8,0:0:0:0:
256,192,31310,1,8,0:0:0:0:
256,192,31417,1,8,0:0:0:0:
256,192,31471,1,8,0:0:0:0:
256,192,31578,1,0,0:0:0:0:
256,192,31740,1,8,0:0:0:0:
256,192,31901,5,0,0:0:0:0:
256,192,31955,1,0,0:0:0:0:
256,192,32062,1,0,0:0:0:0:
256,192,32116,1,0,0:0:0:0:
256,192,32223,5,8,0:0:0:0:
256,192,32277,1,8,0:0:0:0:
256,192,32385,1,8,0:0:0:0:
256,192,32439,1,8,0:0:0:0:
256,192,32546,5,0,0:0:0:0:
256,192,32600,1,0,0:0:0:0:
256,192,32707,1,0,0:0:0:0:
256,192,32761,1,0,0:0:0:0:
256,192,32869,1,8,0:0:0:0:
256,192,33030,1,0,0:0:0:0:
256,192,33272,1,0,0:0:0:0:
256,192,33353,1,0,0:0:0:0:
256,192,33433,1,8,0:0:0:0:
256,192,33675,5,8,0:0:0:0:
256,192,33756,1,0,0:0:0:0:
256,192,33836,1,8,0:0:0:0:
256,192,33917,1,0,0:0:0:0:
256,192,33998,1,0,0:0:0:0:
256,192,34240,5,8,0:0:0:0:
256,192,34320,1,0,0:0:0:0:
256,192,34401,1,0,0:0:0:0:
256,192,34482,1,8,0:0:0:0:
256,192,34804,5,0,0:0:0:0:
256,192,34885,1,0,0:0:0:0:
256,192,34965,1,8,0:0:0:0:
256,192,35046,1,0,0:0:0:0:
256,192,35127,1,8,0:0:0:0:
256,192,35207,1,8,0:0:0:0:
256,192,35449,5,0,0:0:0:0:
256,192,35530,1,0,0:0:0:0:
256,192,35611,1,8,0:0:0:0:
256,192,35691,1,0,0:0:0:0:
256,192,35772,1,0,0:0:0:0:
256,192,35853,1,0,0:0:0:0:
256,192,36094,12,0,37385,0:0:0:0:
256,192,37492,12,0,38675,0:0:0:0:
