osu file format v14

[General]
AudioFilename: Frikandellen Tent.mp3
AudioLeadIn: 0
PreviewTime: -1
Countdown: 1
SampleSet: Normal
StackLeniency: 0.7
Mode: 3
LetterboxInBreaks: 0
SpecialStyle: 0
WidescreenStoryboard: 0

[Editor]
DistanceSpacing: 1.1
BeatDivisor: 8
GridSize: 4
TimelineZoom: 1

[Metadata]
Title:Frikandellentent
TitleUnicode:Frikandellentent
Artist:Kevin Hultermans
ArtistUnicode:Kevin Hultermans
Creator:Wesley
Version:ADHD
Source:
Tags:
BeatmapID:1095431
BeatmapSetID:515878

[Difficulty]
HPDrainRate:7
CircleSize:4
OverallDifficulty:8
ApproachRate:5
SliderMultiplier:1.4
SliderTickRate:1

[Events]
//Background and Video events
0,0,"frikandel-1.jpg",0,0
//Break Periods
//Storyboard Layer 0 (Background)
//Storyboard Layer 1 (Fail)
//Storyboard Layer 2 (Pass)
//Storyboard Layer 3 (Foreground)
//Storyboard Sound Samples

[TimingPoints]
-1000,322.823630689766,4,1,0,100,1,0

[HitObjects]
64,192,2228,5,0,0:0:0:0:
192,192,2228,1,0,0:0:0:0:
448,192,2228,1,0,0:0:0:0:
192,192,2389,1,0,0:0:0:0:
192,192,2551,1,0,0:0:0:0:
320,192,2551,1,0,0:0:0:0:
448,192,2551,1,0,0:0:0:0:
448,192,2712,1,0,0:0:0:0:
448,192,2873,1,0,0:0:0:0:
192,192,2873,1,0,0:0:0:0:
192,192,3035,1,0,0:0:0:0:
192,192,3196,1,0,0:0:0:0:
320,192,3196,1,0,0:0:0:0:
64,192,3196,1,0,0:0:0:0:
448,192,3358,1,0,0:0:0:0:
64,192,3519,1,0,0:0:0:0:
320,192,3519,1,0,0:0:0:0:
192,192,3680,1,0,0:0:0:0:
64,192,3842,1,0,0:0:0:0:
320,192,3842,1,0,0:0:0:0:
448,192,3842,1,0,0:0:0:0:
448,192,4003,1,0,0:0:0:0:
448,192,4165,1,0,0:0:0:0:
192,192,4165,1,0,0:0:0:0:
192,192,4326,1,0,0:0:0:0:
192,192,4488,1,0,0:0:0:0:
320,192,4488,1,0,0:0:0:0:
448,192,4488,1,0,0:0:0:0:
64,192,4649,1,0,0:0:0:0:
64,192,4810,1,0,0:0:0:0:
448,192,4810,1,0,0:0:0:0:
448,192,4972,1,0,0:0:0:0:
320,192,5133,1,0,0:0:0:0:
192,192,5133,1,0,0:0:0:0:
192,192,5295,1,0,0:0:0:0:
64,192,5456,1,0,0:0:0:0:
192,192,5456,1,0,0:0:0:0:
320,192,5456,1,0,0:0:0:0:
448,192,5456,1,0,0:0:0:0:
320,192,5617,1,0,0:0:0:0:
192,192,5779,1,0,0:0:0:0:
320,192,5779,1,0,0:0:0:0:
448,192,5779,1,0,0:0:0:0:
64,192,5779,1,0,0:0:0:0:
320,192,5940,1,0,0:0:0:0:
192,192,6102,1,0,0:0:0:0:
64,192,6102,1,0,0:0:0:0:
320,192,6102,1,0,0:0:0:0:
448,192,6102,1,0,0:0:0:0:
448,192,6424,1,0,0:0:0:0:
192,192,6424,1,0,0:0:0:0:
448,192,6586,1,0,0:0:0:0:
448,192,6747,1,0,0:0:0:0:
64,192,6747,1,0,0:0:0:0:
448,192,6909,1,0,0:0:0:0:
448,192,7070,1,0,0:0:0:0:
192,192,7070,1,0,0:0:0:0:
64,192,7393,1,0,0:0:0:0:
320,192,7393,1,0,0:0:0:0:
192,192,7393,1,0,0:0:0:0:
320,192,7554,1,0,0:0:0:0:
320,192,7716,1,0,0:0:0:0:
64,192,7716,1,0,0:0:0:0:
192,192,7716,1,0,0:0:0:0:
192,192,7877,1,0,0:0:0:0:
320,192,8039,1,0,0:0:0:0:
448,192,8039,1,0,0:0:0:0:
320,192,8200,1,0,0:0:0:0:
192,192,8361,1,0,0:0:0:0:
64,192,8361,1,0,0:0:0:0:
320,192,8361,1,0,0:0:0:0:
192,192,8523,1,0,0:0:0:0:
64,192,8684,1,0,0:0:0:0:
320,192,8684,1,0,0:0:0:0:
448,192,8684,1,0,0:0:0:0:
448,192,8846,1,0,0:0:0:0:
64,192,9007,1,0,0:0:0:0:
192,192,9007,1,0,0:0:0:0:
448,192,9168,1,0,0:0:0:0:
320,192,9330,1,0,0:0:0:0:
448,192,9330,1,0,0:0:0:0:
192,192,9330,1,0,0:0:0:0:
192,192,9491,1,0,0:0:0:0:
448,192,9653,1,0,0:0:0:0:
320,192,9653,1,0,0:0:0:0:
64,192,9653,1,0,0:0:0:0:
320,192,9814,1,0,0:0:0:0:
320,192,9976,1,0,0:0:0:0:
192,192,9976,1,0,0:0:0:0:
64,192,10137,1,0,0:0:0:0:
64,192,10298,1,0,0:0:0:0:
192,192,10298,1,0,0:0:0:0:
320,192,10298,1,0,0:0:0:0:
448,192,10460,1,0,0:0:0:0:
192,192,10621,1,0,0:0:0:0:
320,192,10621,1,0,0:0:0:0:
448,192,10621,1,0,0:0:0:0:
64,192,10783,1,0,0:0:0:0:
64,192,10944,1,0,0:0:0:0:
320,192,10944,1,0,0:0:0:0:
192,192,10944,1,0,0:0:0:0:
320,192,11105,1,0,0:0:0:0:
192,192,11267,1,0,0:0:0:0:
448,192,11267,128,0,12558:0:0:0:0:
192,192,12558,1,0,0:0:0:0:
64,192,12558,1,0,0:0:0:0:
320,192,12558,1,0,0:0:0:0:
192,192,12720,1,0,0:0:0:0:
320,192,12720,1,0,0:0:0:0:
192,192,12881,1,0,0:0:0:0:
320,192,12881,1,0,0:0:0:0:
448,192,12881,1,0,0:0:0:0:
64,192,13042,1,0,0:0:0:0:
320,192,13042,1,0,0:0:0:0:
64,192,13204,1,0,0:0:0:0:
192,192,13204,1,0,0:0:0:0:
320,192,13204,1,0,0:0:0:0:
192,192,13365,1,0,0:0:0:0:
448,192,13365,1,0,0:0:0:0:
64,192,13527,1,0,0:0:0:0:
192,192,13527,1,0,0:0:0:0:
448,192,13527,1,0,0:0:0:0:
320,192,13527,1,0,0:0:0:0:
320,192,13688,1,0,0:0:0:0:
64,192,13688,1,0,0:0:0:0:
64,192,13849,1,0,0:0:0:0:
320,192,13849,1,0,0:0:0:0:
64,192,14011,1,0,0:0:0:0:
320,192,14011,1,0,0:0:0:0:
64,192,14334,1,0,0:0:0:0:
320,192,14334,1,0,0:0:0:0:
192,192,14495,1,0,0:0:0:0:
448,192,14495,1,0,0:0:0:0:
64,192,14656,1,0,0:0:0:0:
320,192,14656,1,0,0:0:0:0:
192,192,14818,1,0,0:0:0:0:
448,192,14818,1,0,0:0:0:0:
192,192,14979,1,0,0:0:0:0:
320,192,14979,1,0,0:0:0:0:
64,192,14979,1,0,0:0:0:0:
192,192,15141,1,0,0:0:0:0:
448,192,15141,1,0,0:0:0:0:
64,192,15302,1,0,0:0:0:0:
320,192,15302,1,0,0:0:0:0:
448,192,15302,1,0,0:0:0:0:
320,192,15464,1,0,0:0:0:0:
64,192,15464,1,0,0:0:0:0:
192,192,15625,1,0,0:0:0:0:
320,192,15625,1,0,0:0:0:0:
448,192,15625,1,0,0:0:0:0:
320,192,15786,1,0,0:0:0:0:
448,192,15786,1,0,0:0:0:0:
192,192,15948,1,0,0:0:0:0:
64,192,15948,1,0,0:0:0:0:
320,192,15948,1,0,0:0:0:0:
448,192,16432,1,0,0:0:0:0:
320,192,16513,1,0,0:0:0:0:
192,192,16593,1,0,0:0:0:0:
64,192,16674,1,0,0:0:0:0:
448,192,16755,1,0,0:0:0:0:
320,192,16836,1,0,0:0:0:0:
192,192,16916,1,0,0:0:0:0:
64,192,16997,1,0,0:0:0:0:
448,192,17078,128,0,17239:0:0:0:0:
320,192,17078,128,0,17320:0:0:0:0:
192,192,17078,128,0,17400:0:0:0:0:
64,192,17078,128,0,17481:0:0:0:0:
64,192,17723,1,0,0:0:0:0:
192,192,17723,1,0,0:0:0:0:
320,192,17723,1,0,0:0:0:0:
448,192,17723,1,0,0:0:0:0:
192,192,17885,1,0,0:0:0:0:
320,192,17885,1,0,0:0:0:0:
64,192,18046,1,0,0:0:0:0:
192,192,18046,1,0,0:0:0:0:
320,192,18046,1,0,0:0:0:0:
448,192,18046,1,0,0:0:0:0:
64,192,18208,1,0,0:0:0:0:
448,192,18208,1,0,0:0:0:0:
64,192,18369,1,0,0:0:0:0:
192,192,18369,1,0,0:0:0:0:
320,192,18369,1,0,0:0:0:0:
448,192,18369,1,0,0:0:0:0:
192,192,18530,1,0,0:0:0:0:
320,192,18530,1,0,0:0:0:0:
64,192,18692,1,0,0:0:0:0:
192,192,18692,1,0,0:0:0:0:
320,192,18692,1,0,0:0:0:0:
448,192,18692,1,0,0:0:0:0:
448,192,18853,1,0,0:0:0:0:
64,192,18853,1,0,0:0:0:0:
64,192,19015,1,0,0:0:0:0:
192,192,19015,1,0,0:0:0:0:
320,192,19015,1,0,0:0:0:0:
448,192,19015,1,0,0:0:0:0:
320,192,19176,1,0,0:0:0:0:
192,192,19176,1,0,0:0:0:0:
64,192,19337,1,0,0:0:0:0:
192,192,19337,1,0,0:0:0:0:
320,192,19337,1,0,0:0:0:0:
448,192,19337,1,0,0:0:0:0:
64,192,19499,1,0,0:0:0:0:
448,192,19499,1,0,0:0:0:0:
64,192,19660,1,0,0:0:0:0:
192,192,19660,1,0,0:0:0:0:
320,192,19660,1,0,0:0:0:0:
448,192,19660,1,0,0:0:0:0:
192,192,19822,1,0,0:0:0:0:
320,192,19822,1,0,0:0:0:0:
64,192,19983,1,0,0:0:0:0:
192,192,19983,1,0,0:0:0:0:
320,192,19983,1,0,0:0:0:0:
448,192,19983,1,0,0:0:0:0:
448,192,20144,1,0,0:0:0:0:
64,192,20144,1,0,0:0:0:0:
64,192,20306,1,0,0:0:0:0:
192,192,20306,1,0,0:0:0:0:
320,192,20306,1,0,0:0:0:0:
448,192,20306,1,0,0:0:0:0:
320,192,20467,1,0,0:0:0:0:
192,192,20467,1,0,0:0:0:0:
64,192,20629,1,0,0:0:0:0:
192,192,20629,1,0,0:0:0:0:
320,192,20629,1,0,0:0:0:0:
448,192,20629,1,0,0:0:0:0:
64,192,20790,1,0,0:0:0:0:
448,192,20790,1,0,0:0:0:0:
64,192,20952,1,0,0:0:0:0:
192,192,20952,1,0,0:0:0:0:
320,192,20952,1,0,0:0:0:0:
448,192,20952,1,0,0:0:0:0:
192,192,21113,1,0,0:0:0:0:
320,192,21113,1,0,0:0:0:0:
448,192,21274,1,0,0:0:0:0:
64,192,21274,1,0,0:0:0:0:
192,192,21274,1,0,0:0:0:0:
320,192,21274,1,0,0:0:0:0:
64,192,21436,1,0,0:0:0:0:
448,192,21436,1,0,0:0:0:0:
64,192,21597,128,0,21839:0:0:0:0:
448,192,21839,128,0,22081:0:0:0:0:
64,192,22081,128,0,22404:0:0:0:0:
448,192,22404,128,0,22727:0:0:0:0:
64,192,22888,1,0,0:0:0:0:
192,192,22969,1,0,0:0:0:0:
320,192,23050,1,0,0:0:0:0:
192,192,23211,1,0,0:0:0:0:
320,192,23292,1,0,0:0:0:0:
448,192,23373,1,0,0:0:0:0:
64,192,23534,1,0,0:0:0:0:
192,192,23615,1,0,0:0:0:0:
320,192,23696,1,0,0:0:0:0:
448,192,23776,1,0,0:0:0:0:
320,192,23857,1,0,0:0:0:0:
192,192,23938,1,0,0:0:0:0:
64,192,24018,1,0,0:0:0:0:
320,192,24180,1,0,0:0:0:0:
192,192,24260,1,0,0:0:0:0:
64,192,24341,1,0,0:0:0:0:
448,192,24503,1,0,0:0:0:0:
320,192,24583,1,0,0:0:0:0:
192,192,24664,1,0,0:0:0:0:
448,192,24825,1,0,0:0:0:0:
320,192,24906,1,0,0:0:0:0:
192,192,24987,1,0,0:0:0:0:
64,192,25068,1,0,0:0:0:0:
192,192,25148,1,0,0:0:0:0:
320,192,25229,1,0,0:0:0:0:
448,192,25310,1,0,0:0:0:0:
64,192,25471,128,0,25713:0:0:0:0:
320,192,25592,1,0,0:0:0:0:
448,192,25713,128,0,25955:0:0:0:0:
192,192,25834,1,0,0:0:0:0:
192,192,25955,128,0,26197:0:0:0:0:
448,192,26076,1,0,0:0:0:0:
320,192,26197,128,0,26641:0:0:0:0:
64,192,26440,1,0,0:0:0:0:
64,192,26762,1,0,0:0:0:0:
192,192,26762,1,0,0:0:0:0:
448,192,26762,1,0,0:0:0:0:
448,192,26924,1,0,0:0:0:0:
192,192,26924,1,0,0:0:0:0:
64,192,26924,1,0,0:0:0:0:
64,192,27085,1,0,0:0:0:0:
192,192,27085,1,0,0:0:0:0:
448,192,27085,1,0,0:0:0:0:
192,192,27247,1,0,0:0:0:0:
64,192,27247,1,0,0:0:0:0:
448,192,27247,1,0,0:0:0:0:
320,192,27408,1,0,0:0:0:0:
64,192,27408,1,0,0:0:0:0:
320,192,27569,1,0,0:0:0:0:
64,192,27569,1,0,0:0:0:0:
64,192,27731,1,0,0:0:0:0:
320,192,27731,1,0,0:0:0:0:
64,192,27892,1,0,0:0:0:0:
320,192,27892,1,0,0:0:0:0:
192,192,28054,1,0,0:0:0:0:
64,192,28054,1,0,0:0:0:0:
320,192,28054,1,0,0:0:0:0:
320,192,28215,1,0,0:0:0:0:
192,192,28215,1,0,0:0:0:0:
64,192,28215,1,0,0:0:0:0:
64,192,28376,1,0,0:0:0:0:
192,192,28376,1,0,0:0:0:0:
320,192,28376,1,0,0:0:0:0:
320,192,28538,1,0,0:0:0:0:
192,192,28538,1,0,0:0:0:0:
64,192,28538,1,0,0:0:0:0:
320,192,28699,1,0,0:0:0:0:
448,192,28699,1,0,0:0:0:0:
64,192,28699,1,0,0:0:0:0:
64,192,28861,1,0,0:0:0:0:
320,192,28861,1,0,0:0:0:0:
448,192,28861,1,0,0:0:0:0:
64,192,29022,1,0,0:0:0:0:
320,192,29022,1,0,0:0:0:0:
448,192,29022,1,0,0:0:0:0:
64,192,29184,1,0,0:0:0:0:
320,192,29184,1,0,0:0:0:0:
448,192,29184,1,0,0:0:0:0:
192,192,29345,1,0,0:0:0:0:
448,192,29345,1,0,0:0:0:0:
192,192,29506,1,0,0:0:0:0:
448,192,29506,1,0,0:0:0:0:
192,192,29668,1,0,0:0:0:0:
448,192,29668,1,0,0:0:0:0:
192,192,29829,1,0,0:0:0:0:
448,192,29829,1,0,0:0:0:0:
192,192,29991,1,0,0:0:0:0:
320,192,29991,1,0,0:0:0:0:
192,192,30152,1,0,0:0:0:0:
320,192,30152,1,0,0:0:0:0:
192,192,30313,1,0,0:0:0:0:
320,192,30313,1,0,0:0:0:0:
192,192,30475,1,0,0:0:0:0:
320,192,30475,1,0,0:0:0:0:
64,192,30636,1,0,0:0:0:0:
448,192,30636,1,0,0:0:0:0:
192,192,30798,1,0,0:0:0:0:
320,192,30798,1,0,0:0:0:0:
64,192,30959,1,0,0:0:0:0:
448,192,30959,1,0,0:0:0:0:
192,192,31120,1,0,0:0:0:0:
320,192,31120,1,0,0:0:0:0:
448,192,31282,1,0,0:0:0:0:
320,192,31282,1,0,0:0:0:0:
64,192,31443,1,0,0:0:0:0:
192,192,31443,1,0,0:0:0:0:
320,192,31605,1,0,0:0:0:0:
448,192,31605,1,0,0:0:0:0:
192,192,31685,1,0,0:0:0:0:
64,192,31685,1,0,0:0:0:0:
320,192,31766,1,0,0:0:0:0:
448,192,31766,1,0,0:0:0:0:
64,192,31847,1,0,0:0:0:0:
192,192,31847,1,0,0:0:0:0:
320,192,31928,1,0,0:0:0:0:
448,192,31928,1,0,0:0:0:0:
64,192,32089,1,0,0:0:0:0:
320,192,32089,1,0,0:0:0:0:
448,192,32089,1,0,0:0:0:0:
320,192,32250,1,0,0:0:0:0:
64,192,32412,1,0,0:0:0:0:
192,192,32412,1,0,0:0:0:0:
320,192,32412,1,0,0:0:0:0:
448,192,32412,1,0,0:0:0:0:
192,192,32573,1,0,0:0:0:0:
64,192,32735,1,0,0:0:0:0:
320,192,32735,1,0,0:0:0:0:
448,192,33219,128,0,35721:0:0:0:0:
320,192,33219,128,0,35801:0:0:0:0:
192,192,33219,128,0,35882:0:0:0:0:
64,192,33219,128,0,35963:0:0:0:0:
64,192,36124,1,0,0:0:0:0:
192,192,36165,1,0,0:0:0:0:
320,192,36205,1,0,0:0:0:0:
448,192,36245,1,0,0:0:0:0:
64,192,36366,1,0,0:0:0:0:
192,192,36407,1,0,0:0:0:0:
320,192,36447,1,0,0:0:0:0:
448,192,36487,1,0,0:0:0:0:
64,192,36608,1,0,0:0:0:0:
192,192,36649,1,0,0:0:0:0:
320,192,36689,1,0,0:0:0:0:
448,192,36730,1,0,0:0:0:0:
64,192,36851,1,0,0:0:0:0:
192,192,36891,1,0,0:0:0:0:
320,192,36931,1,0,0:0:0:0:
448,192,36972,1,0,0:0:0:0:
64,192,37093,1,0,0:0:0:0:
192,192,37133,1,0,0:0:0:0:
320,192,37173,1,0,0:0:0:0:
448,192,37214,1,0,0:0:0:0:
64,192,37335,1,0,0:0:0:0:
192,192,37375,1,0,0:0:0:0:
320,192,37416,1,0,0:0:0:0:
448,192,37456,1,0,0:0:0:0:
64,192,37577,1,0,0:0:0:0:
192,192,37617,1,0,0:0:0:0:
320,192,37658,1,0,0:0:0:0:
448,192,37698,1,0,0:0:0:0:
64,192,37819,1,0,0:0:0:0:
192,192,37859,1,0,0:0:0:0:
320,192,37900,1,0,0:0:0:0:
448,192,37940,1,0,0:0:0:0:
64,192,38061,1,0,0:0:0:0:
192,192,38102,1,0,0:0:0:0:
320,192,38142,1,0,0:0:0:0:
448,192,38182,1,0,0:0:0:0:
64,192,38303,1,0,0:0:0:0:
192,192,38344,1,0,0:0:0:0:
320,192,38384,1,0,0:0:0:0:
448,192,38424,1,0,0:0:0:0:
64,192,38545,1,0,0:0:0:0:
192,192,38586,1,0,0:0:0:0:
320,192,38626,1,0,0:0:0:0:
448,192,38666,1,0,0:0:0:0:
64,192,38788,1,0,0:0:0:0:
192,192,38828,1,0,0:0:0:0:
320,192,38868,1,0,0:0:0:0:
448,192,38909,1,0,0:0:0:0:
64,192,39030,1,0,0:0:0:0:
192,192,39070,1,0,0:0:0:0:
320,192,39110,1,0,0:0:0:0:
448,192,39151,1,0,0:0:0:0:
