osu file format v14

[General]
AudioFilename: audio.mp3
AudioLeadIn: 0
PreviewTime: 527
Countdown: 0
SampleSet: Soft
StackLeniency: 0.7
Mode: 0
LetterboxInBreaks: 0
WidescreenStoryboard: 1

[Editor]
DistanceSpacing: 1
BeatDivisor: 8
GridSize: 16
TimelineZoom: 2.2

[Metadata]
Title:Seishun Complex (TV Size)
TitleUnicode:青春コンプレックス (TV Size)
Artist:kessoku band
ArtistUnicode:結束バンド
Creator:Nijika Ijichi
Version:tragic life extra
Source:ぼっち・ざ・ろっく!
Tags:potatodew moistslurp anime opening op bocchi the rock! 音羽 otoha 樋口愛 higuchi ai 三井律郎 mitsui ritsuo japanese jrock rock j-rock
BeatmapID:3886597
BeatmapSetID:1886769

[Difficulty]
HPDrainRate:5.5
CircleSize:1
OverallDifficulty:8.5
ApproachRate:9.6
SliderMultiplier:2
SliderTickRate:1

[Events]
//Background and Video events
0,0,"bg.jpg",0,0
Video,0,"hitoribocchee.mp4"
//Break Periods
//Storyboard Layer 0 (Background)
//Storyboard Layer 1 (Fail)
//Storyboard Layer 2 (Pass)
//Storyboard Layer 3 (Foreground)
//Storyboard Layer 4 (Overlay)
//Storyboard Sound Samples

[TimingPoints]
527,321.500334896182,4,2,2,60,1,0
527,-58.8235294117647,4,2,2,60,0,0
1491,307.692307692308,4,2,2,60,1,0
2106,285.714285714286,4,2,2,60,1,0
2106,-58.8235294117647,4,2,2,60,0,0
2391,335.664335664336,4,2,2,60,1,0
2391,-200,4,2,2,60,0,0
3062,315.789473684211,4,2,2,60,1,0
3062,-125,4,2,2,60,0,0
5588,320.855614973262,4,2,2,60,1,0
6710,-125,4,2,2,60,0,0
6871,310.880829015544,4,2,2,60,1,0
7026,-125,4,2,2,60,0,0
8114,319.148936170213,4,2,2,60,1,0
9390,315.789473684211,4,2,2,60,1,0
10968,-125,4,2,2,60,0,0
11916,300,4,2,2,60,1,0
12216,317.460317460317,4,2,2,60,1,0
12692,-125,4,2,2,60,0,0
13168,315.789473684211,4,2,2,55,1,0
13168,-100,4,2,2,55,0,0
20746,318.302387267905,4,2,2,55,1,0
22337,314.96062992126,4,2,2,55,1,0
22966,304.568527918782,4,2,2,55,1,0
23270,295.566502463054,4,2,2,65,1,0
23270,-100,4,2,2,65,0,0
23713,324.324324324324,4,2,2,65,1,0
23713,-76.9230769230769,4,2,2,65,0,0
23875,324.324324324324,4,2,2,65,1,0
24361,-76.9230769230769,4,2,2,65,0,0
24523,324.324324324324,4,2,2,65,1,0
24847,315.789473684211,4,2,2,65,1,0
25794,303.030303030303,4,2,2,65,1,0
25794,-76.9230769230769,4,2,2,65,0,0
26248,324.324324324324,4,2,2,65,1,0
26248,-62.5,4,2,2,65,0,0
26410,324.324324324324,4,2,2,65,1,0
26572,-62.5,4,2,2,65,0,0
26734,315.789473684211,4,2,2,65,1,0
26891,-76.9230769230769,4,2,2,65,0,0
27049,315.789473684211,4,2,2,65,1,0
27996,329.67032967033,4,2,2,65,1,0
28325,315.789473684211,4,2,2,60,1,0
28325,-90.9090909090909,4,2,2,60,0,0
38430,-43.4782608695652,4,2,2,60,0,0
39700,-55.5555555555556,4,2,2,75,0,0
80114,-40,4,2,2,70,0,1
80588,-50,4,2,2,70,0,0
81219,-55.5555555555556,4,2,2,70,0,0
81851,-45.4545454545455,4,2,2,70,0,0
82640,-62.5,4,2,2,70,0,0
83903,-55.5555555555556,4,2,2,70,0,1
84061,-52.6315789473684,4,2,2,70,0,1
84219,285.714285714286,4,2,2,70,1,0
84219,-50,4,2,2,70,0,1
84361,-47.6190476190476,4,2,2,70,0,1
84504,319.148936170213,4,2,2,70,1,0
84504,-45.4545454545455,4,2,2,70,0,1
84583,-43.4782608695652,4,2,2,70,0,1
84663,-41.6666666666667,4,2,2,70,0,1
84743,-40,4,2,2,70,0,1
84823,-38.4615384615385,4,2,2,70,0,1
84902,-37.037037037037,4,2,2,70,0,1
84982,-35.7142857142857,4,2,2,70,0,1
85062,-34.4827586206897,4,2,2,70,0,1
85142,342.857142857143,4,2,2,55,1,0
85142,-34.4827586206897,4,2,2,55,0,0
85484,315.789473684211,4,2,2,55,1,0
85957,-100,4,2,2,55,0,0
86431,311.688311688312,4,2,2,55,1,0
87366,338.983050847458,4,2,2,55,1,0
87704,321.71581769437,4,2,2,60,1,0
87704,-100,4,2,2,60,0,0

[Colours]
Combo1 : 255,255,100
Combo2 : 255,108,108
Combo3 : 83,169,255
Combo4 : 255,168,211

[HitObjects]
33,248,527,6,0,B|66:284|66:284|503:67,2,510.000009727478,8|8|8,0:0|0:0|0:0,0:0:0:0:
53,235,2106,1,0,0:3:0:0:
58,224,2201,1,0,0:3:0:0:
57,212,2296,1,0,0:3:0:0:
3,112,2391,2,0,B|49:20|49:20|116:75,1,175,2|0,0:3|0:0,0:0:0:0:
0,88,3062,5,6,3:2:0:0:
119,109,3219,1,2,0:0:0:0:
226,40,3377,1,10,0:0:0:0:
346,216,3535,1,10,0:2:0:0:
346,216,3851,1,2,3:2:0:0:
486,96,4009,1,8,0:0:0:0:
346,11,4167,2,0,L|359:103,1,80,2|0,0:0|3:0,0:0:0:0:
360,0,4483,2,0,L|373:92,1,80,2|8,0:0|0:0,0:0:0:0:
397,191,4798,1,2,0:0:0:0:
425,215,4877,1,2,0:0:0:0:
463,208,4956,1,2,3:2:0:0:
369,192,5114,1,2,3:2:0:0:
235,214,5272,1,10,0:0:0:0:
80,82,5430,1,2,0:0:0:0:
26,278,5588,5,2,3:2:0:0:
115,351,5748,1,2,0:0:0:0:
249,265,5908,1,10,0:0:0:0:
421,366,6069,1,10,0:0:0:0:
421,366,6390,1,2,3:2:0:0:
495,286,6550,1,8,0:0:0:0:
320,317,6710,2,0,L|237:332,1,80,2|0,0:0|3:0,0:0:0:0:
309,336,7026,2,0,L|210:353,1,80,2|8,0:0|0:0,0:0:0:0:
125,307,7337,1,2,3:2:0:0:
96,292,7415,1,2,3:2:0:0:
64,296,7492,1,2,3:2:0:0:
202,213,7648,1,0,0:3:0:0:
336,346,7803,1,8,0:0:0:0:
75,171,7959,1,0,3:0:0:0:
345,35,8114,1,6,3:2:0:0:
256,192,8193,12,2,10653,3:2:0:0:
256,192,10968,5,10,0:0:0:0:
143,333,11126,2,0,L|40:355,1,80,10|0,0:0|0:0,0:0:0:0:
233,173,11442,2,0,L|331:152,1,80,2|8,3:2|0:0,0:0:0:0:
217,164,11758,2,0,L|322:141,1,80,2|0,0:0|3:0,0:0:0:0:
421,117,12066,1,2,0:0:0:0:
245,30,12216,1,10,0:0:0:0:
331,283,12374,1,2,3:2:0:0:
331,283,12454,1,2,3:2:0:0:
331,283,12533,1,2,3:2:0:0:
442,247,12692,2,0,L|510:263,1,40,2|2,3:2|0:0,0:0:0:0:
239,363,12850,1,10,0:0:0:0:
71,199,13009,1,0,3:0:0:0:
101,93,13168,6,0,P|105:198|128:305,1,200,6|8,3:2|0:0,0:0:0:0:
218,198,13641,2,0,P|227:129|260:-5,1,200,8|0,0:0|3:2,0:0:0:0:
258,218,14115,2,0,P|239:163|238:109,1,100,8|2,0:0|0:0,0:0:0:0:
281,12,14431,5,2,3:2:0:0:
216,377,14747,1,8,0:0:0:0:
281,12,15063,1,0,3:2:0:0:
281,12,15221,1,0,3:0:0:0:
216,377,15379,2,0,P|201:308|184:255,1,100,8|2,0:0|0:0,0:0:0:0:
279,206,15694,6,0,P|357:239|450:165,1,200,2|8,3:2|0:0,0:0:0:0:
191,138,16168,2,0,P|136:70|14:79,1,200,8|0,0:0|3:2,0:0:0:0:
251,224,16642,2,0,P|240:154|200:119,1,100,8|2,0:0|0:0,0:0:0:0:
5,93,16958,5,2,3:2:0:0:
489,42,17273,1,8,0:0:0:0:
401,129,17431,1,0,3:0:0:0:
401,129,17510,1,0,3:0:0:0:
401,129,17589,1,0,3:2:0:0:
389,7,17747,1,0,3:0:0:0:
500,311,17905,1,8,0:0:0:0:
500,311,18063,1,2,0:0:0:0:
388,256,18221,6,0,P|329:273|202:344,1,200,2|8,3:2|0:0,0:0:0:0:
228,192,18694,2,0,P|256:128|256:-8,1,200,8|0,0:0|3:2,0:0:0:0:
199,172,19168,2,0,P|212:248|230:287,1,100,8|2,0:0|0:0,0:0:0:0:
410,377,19484,5,2,3:2:0:0:
10,182,19800,1,8,0:0:0:0:
410,377,20115,1,0,3:2:0:0:
410,377,20273,1,0,3:0:0:0:
10,182,20431,2,0,P|18:102|18:58,1,100,8|2,0:0|0:0,0:0:0:0:
163,34,20668,1,2,0:0:0:0:
149,44,20746,6,0,P|138:125|135:250,1,200,2|8,3:2|0:0,0:0:0:0:
363,340,21223,2,0,P|374:259|377:134,1,200,8|0,0:0|3:2,0:0:0:0:
103,278,21700,2,0,L|-33:312,1,100,10|0,0:0|0:0,0:0:0:0:
5,302,22019,5,2,3:2:0:0:
239,152,22178,1,2,0:3:0:0:
239,152,22337,5,10,0:0:0:0:
438,302,22494,1,2,0:3:0:0:
252,279,22651,5,2,3:2:0:0:
387,153,22809,1,0,3:0:0:0:
331,375,22966,1,10,3:2:0:0:
331,375,23270,5,6,3:2:0:0:
306,303,23343,1,2,0:0:0:0:
243,261,23417,1,2,0:0:0:0:
167,261,23491,1,2,0:0:0:0:
106,305,23565,1,2,3:2:0:0:
313,46,23713,2,0,B|426:125|426:125|474:-2,1,259.999988098145,6|2,3:1|3:2,0:0:0:0:
465,9,24199,1,10,0:0:0:0:
163,74,24361,2,0,L|63:92,1,64.9999970245363,6|0,3:1|0:0,0:0:0:0:
68,115,24523,5,2,0:0:0:0:
229,207,24685,1,10,0:1:0:0:
251,161,24847,5,2,3:2:0:0:
375,355,25004,1,12,0:0:0:0:
112,250,25162,5,2,3:2:0:0:
8,227,25320,1,8,3:2:0:0:
50,125,25478,1,0,3:0:0:0:
46,105,25557,1,0,3:2:0:0:
42,85,25636,1,2,3:2:0:0:
38,65,25715,1,0,3:2:0:0:
79,37,25794,2,0,L|182:55,1,64.9999970245363,10|8,3:2|0:0,0:0:0:0:
315,81,25945,5,10,0:0:0:0:
410,100,26021,1,8,0:0:0:0:
504,119,26097,1,10,0:0:0:0:
274,378,26248,2,0,L|249:274,1,80,2|0,3:1|0:0,0:0:0:0:
268,277,26572,2,0,L|288:191,1,80,2|0,3:1|0:0,0:0:0:0:
246,3,26734,1,10,0:0:0:0:
236,111,26891,6,0,P|248:194|239:382,1,259.999988098145,6|0,3:2|3:0,0:0:0:0:
126,286,27364,1,0,3:0:0:0:
353,180,27522,1,8,3:2:0:0:
246,3,27680,1,8,3:2:0:0:
315,342,27838,5,8,0:0:0:0:
363,360,27917,1,8,0:0:0:0:
428,358,27996,1,8,0:0:0:0:
487,307,28078,1,8,0:0:0:0:
489,215,28160,1,10,0:0:0:0:
231,27,28325,6,0,P|155:43|104:47,1,110.000003356934,6|0,3:1|0:0,0:0:0:0:
385,60,28640,1,8,0:0:0:0:
42,135,28798,2,0,P|119:93|256:45,1,220.000006713867,2|2,3:1|3:2,0:0:0:0:
288,191,29271,1,10,0:0:0:0:
265,269,29429,1,2,0:0:0:0:
505,350,29587,5,2,3:1:0:0:
461,207,29745,2,0,P|465:280|469:344,1,110.000003356934,0|8,0:0|0:0,0:0:0:0:
444,10,30061,2,0,P|432:85|429:262,1,220.000006713867,2|2,3:1|3:2,0:0:0:0:
273,177,30535,1,10,0:0:0:0:
193,197,30692,1,2,0:0:0:0:
318,319,30850,6,0,P|398:337|470:355,1,110.000003356934,2|2,3:1|0:0,0:0:0:0:
81,323,31166,1,8,0:0:0:0:
283,345,31324,2,0,P|388:338|514:298,1,220.000006713867,2|2,3:1|3:2,0:0:0:0:
396,85,31798,1,10,0:0:0:0:
295,124,31956,1,2,0:0:0:0:
245,33,32113,1,0,3:1:0:0:
408,235,32271,5,2,0:1:0:0:
512,265,32429,1,10,0:1:0:0:
397,217,32587,1,2,3:2:0:0:
245,252,32745,5,2,0:1:0:0:
324,324,32903,1,2,3:2:0:0:
107,220,33061,6,0,L|87:152,1,55.0000016784668,8|0,0:0|0:0,0:0:0:0:
71,18,33219,1,8,0:0:0:0:
71,18,33298,1,8,0:0:0:0:
71,18,33377,2,0,P|58:110|59:161,1,110.000003356934,2|0,3:1|0:0,0:0:0:0:
187,323,33692,1,8,0:0:0:0:
26,150,33850,2,0,P|38:223|44:384,1,220.000006713867,2|2,3:1|3:2,0:0:0:0:
237,194,34324,1,10,0:0:0:0:
321,178,34482,1,2,0:0:0:0:
496,310,34640,5,2,3:1:0:0:
336,367,34798,2,0,P|404:347|488:338,1,110.000003356934,0|8,0:0|0:0,0:0:0:0:
77,316,35113,2,0,P|146:335|316:354,1,220.000006713867,2|2,3:1|3:2,0:0:0:0:
335,160,35587,1,10,0:0:0:0:
303,81,35745,1,2,0:0:0:0:
42,173,35903,6,0,P|58:237|64:297,1,110.000003356934,2|0,3:1|0:0,0:0:0:0:
71,20,36219,1,8,0:0:0:0:
181,347,36377,2,0,P|124:296|78:122,1,220.000006713867,2|2,3:1|3:2,0:0:0:0:
296,44,36850,1,10,0:0:0:0:
465,235,37008,1,2,0:0:0:0:
361,352,37166,5,6,3:1:0:0:
361,352,37324,1,0,3:2:0:0:
426,0,37482,2,0,L|442:129,1,110.000003356934,10|0,3:1|3:0,0:0:0:0:
150,266,37798,1,10,0:1:0:0:
91,281,37877,1,8,0:0:0:0:
46,232,37956,1,8,0:0:0:0:
67,163,38035,1,8,0:0:0:0:
142,154,38113,1,10,0:0:0:0:
184,224,38192,1,8,0:0:0:0:
152,306,38271,1,8,0:0:0:0:
59,317,38350,1,8,0:0:0:0:
3,234,38430,6,0,B|55:196|55:196|371:354|371:354|468:327,3,460.000008773804,0|0|0|0,3:0|3:0|3:0|3:0,0:0:0:0:
34,22,39692,5,6,3:2:0:0:
183,124,39850,1,0,0:0:0:0:
252,19,40008,1,8,0:0:0:0:
347,73,40166,1,0,0:0:0:0:
356,277,40324,5,2,3:2:0:0:
266,353,40482,1,0,3:0:0:0:
191,350,40640,1,8,0:0:0:0:
160,315,40798,1,0,0:0:0:0:
219,134,40956,5,2,3:2:0:0:
284,218,41113,1,0,0:0:0:0:
402,248,41271,1,8,0:0:0:0:
512,179,41429,1,0,0:0:0:0:
191,2,41587,5,2,3:2:0:0:
52,202,41745,1,0,3:0:0:0:
353,81,41903,1,8,0:0:0:0:
142,283,42061,1,0,0:0:0:0:
455,361,42219,5,2,3:2:0:0:
433,253,42377,1,0,0:0:0:0:
319,280,42535,1,8,0:0:0:0:
310,332,42692,1,0,0:0:0:0:
198,305,42850,1,0,3:2:0:0:
193,283,43008,1,0,3:0:0:0:
333,359,43166,1,10,0:0:0:0:
478,135,43324,1,2,0:0:0:0:
145,4,43482,5,2,3:2:0:0:
182,129,43640,1,0,0:0:0:0:
400,251,43798,5,8,0:0:0:0:
436,148,43956,1,0,0:0:0:0:
106,337,44113,5,2,3:2:0:0:
68,279,44192,1,0,3:0:0:0:
73,210,44271,1,0,3:0:0:0:
299,39,44429,1,10,0:0:0:0:
96,225,44587,5,10,0:0:0:0:
91,294,44666,1,10,0:0:0:0:
129,352,44745,2,0,B|266:305|266:305|319:335,1,179.999994506836,6|2,3:1|0:0,0:0:0:0:
61,93,45061,1,10,0:0:0:0:
416,358,45219,2,0,B|445:344|445:344|478:167|478:167|429:105,1,269.999991760254,2|0,0:1|0:0,0:0:0:0:
401,240,45535,2,0,L|430:349,1,89.9999972534181,2|0,0:1|0:0,0:0:0:0:
177,38,45692,2,0,L|283:212,1,179.999994506836,10|0,0:0|0:0,0:0:0:0:
453,376,46008,5,2,3:1:0:0:
304,318,46166,1,2,0:0:0:0:
158,354,46324,1,10,0:0:0:0:
10,248,46482,2,0,B|215:174|215:174|246:108,1,269.999991760254,2|0,0:1|0:0,0:0:0:0:
353,71,46798,2,0,L|476:106,1,89.9999972534181,2|0,3:1|0:0,0:0:0:0:
33,53,46956,2,0,L|247:164,1,179.999994506836,10|0,0:0|0:0,0:0:0:0:
512,256,47271,6,0,B|453:243|453:243|397:278|397:278|245:318,1,269.999991760254,2|0,3:1|0:0,0:0:0:0:
66,338,47587,2,0,B|159:349|159:349|252:263,1,179.999994506836,10|0,0:0|0:0,0:0:0:0:
254,10,47903,1,2,3:2:0:0:
72,144,48061,1,0,3:0:0:0:
234,328,48219,2,0,B|276:210|276:210|249:140,1,179.999994506836,10|2,0:0|0:3,0:0:0:0:
56,13,48535,5,0,3:0:0:0:
56,13,48692,1,0,3:0:0:0:
512,239,48850,2,0,B|415:319|415:319|379:141,1,269.999991760254,14|0,0:0|0:0,0:0:0:0:
419,77,49166,1,10,0:1:0:0:
342,30,49245,1,8,0:0:0:0:
253,32,49324,1,8,0:0:0:0:
177,78,49403,1,8,0:0:0:0:
135,157,49482,1,8,0:0:0:0:
128,246,49561,1,8,0:0:0:0:
164,326,49640,2,0,L|275:347,1,89.9999972534181,8|8,0:0|0:0,0:0:0:0:
434,361,49798,5,6,3:2:0:0:
512,228,49956,1,0,0:0:0:0:
411,116,50113,1,8,0:0:0:0:
469,20,50271,1,0,0:0:0:0:
244,101,50429,5,2,3:2:0:0:
287,198,50587,1,0,3:0:0:0:
292,282,50745,1,8,0:0:0:0:
278,329,50903,1,0,0:0:0:0:
45,351,51061,5,2,3:2:0:0:
109,323,51219,1,0,0:0:0:0:
143,210,51377,1,8,0:0:0:0:
71,81,51535,1,0,0:0:0:0:
326,16,51692,5,2,3:2:0:0:
437,224,51850,1,0,3:0:0:0:
223,94,52008,1,8,0:0:0:0:
346,324,52166,1,0,0:0:0:0:
136,364,52324,5,2,3:2:0:0:
22,357,52482,1,0,0:0:0:0:
134,241,52640,1,8,0:0:0:0:
68,252,52798,1,0,0:0:0:0:
107,108,52956,1,0,3:2:0:0:
81,119,53113,1,0,3:0:0:0:
321,186,53271,1,10,0:0:0:0:
483,17,53429,1,2,0:0:0:0:
446,253,53587,5,2,3:2:0:0:
429,366,53745,1,0,0:0:0:0:
289,154,53903,5,8,0:0:0:0:
271,25,54061,1,0,0:0:0:0:
72,246,54219,5,2,3:2:0:0:
134,281,54298,1,0,3:0:0:0:
206,281,54377,1,0,3:0:0:0:
54,102,54535,1,10,0:0:0:0:
249,310,54692,5,10,0:0:0:0:
319,296,54771,1,10,0:0:0:0:
381,332,54850,2,0,B|460:211|460:211|448:160,2,179.999994506836,6|2|10,3:1|0:1|0:1,0:0:0:0:
64,27,55324,2,0,B|113:230|113:230|246:142,1,359.999989013672,2|2,0:1|3:2,0:0:0:0:
20,38,55798,1,10,0:0:0:0:
9,225,55956,2,0,B|145:261|145:261|221:214,1,179.999994506836,2|0,0:0|3:0,0:0:0:0:
178,240,56271,1,2,0:1:0:0:
469,105,56429,6,0,L|448:1,1,89.9999972534181,10|0,0:1|0:0,0:0:0:0:
480,349,56587,2,0,B|210:298|210:298|140:215,1,359.999989013672,2|0,0:1|3:0,0:0:0:0:
490,236,57061,2,0,B|407:249|407:249|343:150,1,179.999994506836,10|2,0:0|0:0,0:0:0:0:
18,182,57377,6,0,P|133:185|190:22,1,269.999991760254,2|0,3:2|0:0,0:0:0:0:
50,0,57692,2,0,P|77:76|189:74,1,179.999994506836,8|0,0:0|0:0,0:0:0:0:
416,7,58008,1,0,3:0:0:0:
416,7,58166,1,0,3:0:0:0:
263,185,58324,2,0,P|258:280|263:367,1,179.999994506836,8|2,0:0|0:3,0:0:0:0:
512,319,58640,6,0,L|425:293,1,89.9999972534181,0|0,3:0|0:0,0:0:0:0:
388,261,58798,2,0,L|301:235,1,89.9999972534181,0|0,3:0|0:0,0:0:0:0:
18,196,58956,2,0,B|49:142|49:142|314:53,1,269.999991760254,14|0,0:0|0:0,0:0:0:0:
332,7,59271,1,2,3:2:0:0:
179,225,59429,1,2,3:0:0:0:
492,365,59587,1,10,0:1:0:0:
481,293,59666,1,8,0:0:0:0:
470,221,59745,1,8,0:0:0:0:
459,149,59824,1,8,0:0:0:0:
449,77,59903,6,0,B|414:321|414:321|456:372,1,269.999991760254,6|0,3:2|0:0,0:0:0:0:
270,185,60219,2,0,P|302:269|295:387,1,179.999994506836,8|0,0:0|0:0,0:0:0:0:
119,94,60535,2,0,L|147:4,1,89.9999972534181,2|0,3:2|0:0,0:0:0:0:
146,208,60692,2,0,L|161:330,1,89.9999972534181,0|0,3:0|0:0,0:0:0:0:
66,372,60850,2,0,B|102:153|102:153|59:92,1,269.999991760254,8|0,0:0|0:0,0:0:0:0:
23,343,61166,6,0,B|248:302|248:302|321:337,1,269.999991760254,2|0,3:2|0:0,0:0:0:0:
315,193,61482,2,0,P|400:198|527:251,1,179.999994506836,8|0,0:0|0:0,0:0:0:0:
59,211,61798,2,0,L|182:189,1,89.9999972534181,2|0,3:2|0:0,0:0:0:0:
420,75,61956,2,0,L|526:41,1,89.9999972534181,0|0,3:0|0:0,0:0:0:0:
60,73,62113,2,0,B|174:12|174:12|274:69,1,179.999994506836,8|0,0:0|0:0,0:0:0:0:
497,363,62429,6,0,P|386:338|244:232,1,269.999991760254,2|0,3:2|0:0,0:0:0:0:
14,64,62745,2,0,B|22:103|22:103|174:181,1,179.999994506836,8|0,0:0|0:0,0:0:0:0:
415,223,63061,2,0,P|378:165|365:117,1,89.9999972534181,0|0,3:2|0:0,0:0:0:0:
134,286,63219,2,0,P|160:331|169:383,1,89.9999972534181,0|0,3:0|0:0,0:0:0:0:
310,40,63377,2,0,P|256:136|277:250,1,179.999994506836,10|2,0:0|0:0,0:0:0:0:
38,61,63613,1,2,0:0:0:0:
17,80,63692,6,0,B|57:294|57:294|24:357,1,269.999991760254,2|0,3:2|0:0,0:0:0:0:
195,115,64008,2,0,P|205:215|172:310,1,179.999994506836,8|0,0:0|0:0,0:0:0:0:
386,37,64324,2,0,L|410:150,1,89.9999972534181,2|0,3:2|3:0,0:0:0:0:
482,275,64482,2,0,L|458:388,1,89.9999972534181,0|0,3:0|0:0,0:0:0:0:
326,58,64640,2,0,B|407:170|407:170|453:24,1,269.999991760254,10|0,0:0|0:0,0:0:0:0:
341,283,64956,6,0,B|330:315|330:315|30:373,1,269.999991760254,6|0,3:1|0:0,0:0:0:0:
49,305,65271,2,0,L|354:377,1,269.999991760254,8|0,0:0|0:0,0:0:0:0:
507,164,65587,6,0,L|381:121,1,89.9999972534181,2|0,3:1|0:0,0:0:0:0:
251,30,65745,2,0,L|125:-13,1,89.9999972534181,0|0,3:0|0:0,0:0:0:0:
359,241,65903,2,0,B|464:325|464:325|477:384,1,179.999994506836,10|2,0:0|0:0,0:0:0:0:
228,256,66140,1,2,0:0:0:0:
228,256,66219,6,0,B|180:219|180:219|143:-24,1,269.999991760254,2|0,3:1|0:0,0:0:0:0:
115,124,66535,2,0,B|84:321|84:321|140:381,1,269.999991760254,8|0,0:0|0:0,0:0:0:0:
472,338,66850,6,0,L|448:221,1,89.9999972534181,2|0,3:1|0:0,0:0:0:0:
421,88,67008,2,0,L|397:-29,1,89.9999972534181,0|0,3:0|0:0,0:0:0:0:
220,284,67166,2,0,B|262:265|262:265|300:85,1,179.999994506836,10|2,0:0|0:0,0:0:0:0:
361,355,67403,1,2,0:0:0:0:
361,355,67482,6,0,P|459:330|453:118,1,269.999991760254,2|0,3:2|0:0,0:0:0:0:
409,106,67798,1,10,0:0:0:0:
245,166,67956,1,2,0:1:0:0:
63,17,68113,1,2,3:1:0:0:
157,97,68271,1,2,3:2:0:0:
100,365,68429,2,0,P|169:290|335:309,1,269.999991760254,10|0,0:1|0:0,0:0:0:0:
423,356,68745,6,0,L|537:326,1,89.9999972534181,0|0,3:0|0:0,0:0:0:0:
403,177,68903,2,0,L|371:56,1,89.9999972534181,0|0,3:0|0:0,0:0:0:0:
71,9,69061,2,0,L|34:295,1,269.999991760254,14|0,0:0|0:0,0:0:0:0:
114,360,69377,1,2,3:1:0:0:
271,151,69535,1,8,3:2:0:0:
305,138,69613,1,8,0:2:0:0:
359,142,69692,1,8,0:2:0:0:
411,192,69771,1,8,0:0:0:0:
431,280,69850,1,8,0:0:0:0:
373,370,69929,1,8,0:0:0:0:
248,375,70008,6,0,P|351:342|579:335,1,269.999991760254,6|0,3:2|0:0,0:0:0:0:
245,157,70324,2,0,B|273:191|273:191|344:192|468:225,1,179.999994506836,8|0,0:0|0:0,0:0:0:0:
114,49,70640,2,0,L|218:25,1,89.9999972534181,2|0,3:2|0:0,0:0:0:0:
430,0,70798,2,0,L|342:20,1,89.9999972534181,0|0,3:0|0:0,0:0:0:0:
485,92,70956,2,0,P|382:64|204:-16,1,269.999991760254,8|0,0:0|0:0,0:0:0:0:
52,251,71271,6,0,P|77:138|-25:-7,1,269.999991760254,2|0,3:2|0:0,0:0:0:0:
199,158,71587,2,0,B|215:182|215:182|176:355,1,179.999994506836,8|0,0:0|0:0,0:0:0:0:
336,130,71903,2,0,L|356:250,1,89.9999972534181,2|0,3:2|0:0,0:0:0:0:
512,281,72061,2,0,L|499:370,1,89.9999972534181,0|0,3:0|0:0,0:0:0:0:
424,8,72219,2,0,B|359:147|359:147|383:203,1,179.999994506836,8|0,0:0|0:0,0:0:0:0:
26,375,72535,6,0,P|98:284|269:246,1,269.999991760254,2|0,3:2|0:0,0:0:0:0:
512,147,72850,2,0,B|385:204|385:204|328:172,1,179.999994506836,8|0,0:0|0:0,0:0:0:0:
95,124,73166,2,0,P|148:113|190:90,1,89.9999972534181,0|0,3:2|0:0,0:0:0:0:
403,328,73324,2,0,P|336:339|276:362,1,89.9999972534181,0|0,3:0|0:0,0:0:0:0:
201,60,73482,2,0,P|238:170|176:249,1,179.999994506836,10|2,0:0|0:0,0:0:0:0:
455,42,73719,1,2,0:0:0:0:
437,55,73798,6,0,B|216:6|216:6|139:57,1,269.999991760254,2|0,3:2|0:0,0:0:0:0:
362,171,74113,2,0,P|239:179|142:224,1,179.999994506836,8|0,0:0|0:0,0:0:0:0:
381,358,74429,2,0,L|269:335,1,89.9999972534181,2|0,3:2|3:0,0:0:0:0:
138,332,74587,2,0,L|26:309,1,89.9999972534181,0|0,3:0|0:0,0:0:0:0:
384,227,74745,2,0,B|439:133|439:133|509:309,1,269.999991760254,10|0,0:0|0:0,0:0:0:0:
478,291,75061,6,0,L|516:98,2,179.999994506836,6|2|10,3:1|0:1|0:1,0:0:0:0:
163,201,75535,2,0,L|127:11,1,179.999994506836,2|0,0:1|3:0,0:0:0:0:
129,24,75850,1,2,3:2:0:0:
317,299,76008,2,0,L|297:172,1,89.9999972534181,10|0,0:0|0:0,0:0:0:0:
25,126,76166,6,0,L|0:305,1,179.999994506836,2|0,0:0|3:0,0:0:0:0:
1,87,76482,1,2,0:1:0:0:
161,240,76640,2,0,L|176:340,1,89.9999972534181,10|0,0:1|0:0,0:0:0:0:
512,0,76798,2,0,L|446:278,1,269.999991760254,2|0,0:1|0:0,0:0:0:0:
484,269,77113,2,0,L|514:376,1,89.9999972534181,0|0,3:0|0:0,0:0:0:0:
322,116,77271,2,0,L|139:58,1,179.999994506836,10|0,0:0|3:0,0:0:0:0:
51,104,77508,1,0,3:0:0:0:
51,104,77587,5,14,3:2:0:0:
72,221,77745,1,0,3:0:0:0:
468,56,77903,5,10,3:2:0:0:
447,173,78061,1,0,3:0:0:0:
91,237,78219,5,10,3:2:0:0:
66,346,78377,1,0,3:0:0:0:
422,190,78535,5,10,3:2:0:0:
447,306,78692,1,0,3:0:0:0:
254,169,78850,6,0,B|211:37|211:37|252:-18,1,179.999994506836,14|0,0:0|3:0,0:0:0:0:
320,137,79087,1,0,3:0:0:0:
320,137,79166,2,0,B|297:276,1,89.9999972534181,6|0,3:2|0:0,0:0:0:0:
196,276,79324,2,0,B|219:415,1,89.9999972534181,8|0,0:0|0:0,0:0:0:0:
415,321,79482,5,14,3:2:0:0:
420,303,79561,1,0,3:0:0:0:
435,293,79640,1,2,3:1:0:0:
452,291,79719,1,0,3:0:0:0:
466,301,79798,5,10,3:1:0:0:
367,346,79877,1,8,0:0:0:0:
267,304,79956,1,8,0:0:0:0:
238,199,80035,1,8,0:0:0:0:
293,74,80114,6,2,B|347:134|338:180|191:199|124:286|62:147|125:-1|32:-43|16:273|-12:214|70:237,1,500,14|8,3:1|0:0,0:1:0:0:
379,325,80588,6,2,B|509:333|509:333|284:259,1,300,2|0,3:2|0:0,0:1:0:0:
251,336,80903,2,0,L|120:363,1,100,2|0,3:2|0:0,0:0:0:0:
41,339,81061,1,10,0:1:0:0:
212,102,81219,6,2,B|203:14|149:9|149:9|141:100|278:50,1,269.999991760254,2|0,0:1|0:0,0:1:0:0:
360,17,81535,2,0,L|370:138,1,89.9999972534181,2|0,3:2|0:0,0:0:0:0:
481,84,81693,2,0,L|460:195,1,89.9999972534181,10|0,0:1|0:0,0:0:0:0:
245,90,81851,6,0,B|193:138|158:119|158:119|85:11|-27:100|45:290|143:263,1,440.000013427735,2|2,3:1|3:1,0:0:0:0:
485,340,82325,1,8,0:0:0:0:
347,368,82482,5,2,0:1:0:0:
329,354,82561,1,0,0:0:0:0:
311,341,82640,2,0,L|168:373,1,80,2|2,3:2|0:0,0:0:0:0:
159,261,82798,5,2,0:0:0:0:
127,297,82877,1,2,0:0:0:0:
96,334,82956,2,0,L|-10:302,1,80,10|2,0:2|0:0,0:0:0:0:
40,185,83113,5,2,3:2:0:0:
16,108,83192,1,2,0:0:0:0:
64,44,83271,2,0,L|179:22,1,80,2|2,0:2|0:0,0:0:0:0:
223,129,83429,5,2,3:2:0:0:
316,190,83508,1,2,0:0:0:0:
403,119,83587,2,0,L|512:143,1,80,10|2,0:2|0:0,0:0:0:0:
369,0,83745,2,0,L|478:24,1,80,2|2,0:2|0:0,0:0:0:0:
270,33,83903,6,0,L|398:9,1,89.9999972534181,6|2,3:1|0:0,0:0:0:0:
336,146,84061,6,0,L|459:185,1,94.9999974632264,2|2,3:2|0:0,0:0:0:0:
246,367,84219,6,0,L|375:323,1,100,14|2,0:1|0:0,0:0:0:0:
167,207,84361,6,0,L|316:257,1,104.999996795654,2|2,0:2|0:0,0:0:0:0:
89,0,84504,6,0,L|151:15,1,55.0000016784668,14|0,3:1|0:0,0:0:0:0:
82,34,84583,6,0,L|154:21,1,57.5000010967255,10|0,0:0|0:0,0:0:0:0:
68,65,84663,6,0,L|153:77,1,59.9999981689454,10|0,0:2|0:0,0:0:0:0:
82,105,84743,6,0,L|165:87,1,62.5,10|0,0:0|0:0,0:0:0:0:
61,152,84823,6,0,L|154:170,1,64.9999970245363,10|0,3:1|0:0,0:0:0:0:
79,206,84902,6,0,L|181:188,1,67.5000002574921,10|0,0:0|0:0,0:0:0:0:
62,267,84982,6,0,L|166:281,1,69.9999978637696,10|0,0:2|0:0,0:0:0:0:
84,336,85062,6,0,L|199:308,1,72.5000022125245,10|0,0:0|0:0,0:0:0:0:
23,363,85142,5,4,3:1:0:0:
23,363,85484,1,8,0:0:0:0:
257,258,85641,1,0,3:0:0:0:
257,258,85957,2,0,P|269:314|279:358,1,100,0|8,3:0|0:0,0:0:0:0:
413,165,86273,2,0,L|383:306,1,100,0|0,0:0|3:0,0:0:0:0:
255,46,86586,2,0,L|378:13,1,100,0|12,3:0|0:0,0:0:0:0:
162,120,86898,2,0,L|39:95,1,100,0|8,0:0|3:2,0:0:0:0:
28,155,87132,1,8,0:0:0:0:
41,218,87210,1,8,0:0:0:0:
92,258,87288,1,8,0:0:0:0:
156,251,87366,1,8,0:0:0:0:
293,169,87535,1,0,3:0:0:0:
315,327,87704,5,10,0:1:0:0:
219,55,87864,1,10,0:1:0:0:
219,55,88025,1,0,3:0:0:0:
140,330,88186,5,10,0:1:0:0:
386,67,88347,1,10,0:1:0:0:
386,67,88508,1,0,3:0:0:0:
497,169,88669,5,10,0:2:0:0:
23,230,88830,1,10,0:2:0:0:
