osu file format v14

[General]
AudioFilename: audio.mp3
AudioLeadIn: 0
PreviewTime: 527
Countdown: 0
SampleSet: Soft
StackLeniency: 0.7
Mode: 0
LetterboxInBreaks: 0
WidescreenStoryboard: 1

[Editor]
DistanceSpacing: 1
BeatDivisor: 4
GridSize: 16
TimelineZoom: 1

[Metadata]
Title:Seishun Complex (TV Size)
TitleUnicode:青春コンプレックス (TV Size)
Artist:kessoku band
ArtistUnicode:結束バンド
Creator:Nijika Ijichi
Version:lonely rolling hard
Source:ぼっち・ざ・ろっく!
Tags:potatodew moistslurp anime opening op bocchi the rock! 音羽 otoha 樋口愛 higuchi ai 三井律郎 mitsui ritsuo japanese jrock rock j-rock
BeatmapID:3902291
BeatmapSetID:1886769

[Difficulty]
HPDrainRate:4
CircleSize:3.5
OverallDifficulty:6
ApproachRate:8
SliderMultiplier:1.1
SliderTickRate:1

[Events]
//Background and Video events
0,0,"bg.jpg",0,0
Video,0,"hitoribocchee.mp4"
//Break Periods
2,85341,86954
//Storyboard Layer 0 (Background)
//Storyboard Layer 1 (Fail)
//Storyboard Layer 2 (Pass)
//Storyboard Layer 3 (Foreground)
//Storyboard Layer 4 (Overlay)
//Storyboard Sound Samples

[TimingPoints]
527,321.500334896182,4,2,2,60,1,0
1491,307.692307692308,4,2,2,60,1,0
2106,285.714285714286,4,2,2,60,1,0
2391,335.664335664336,4,2,2,60,1,0
3062,315.789473684211,4,2,2,60,1,0
5588,320.855614973262,4,2,2,60,1,0
6710,-99.009900990099,4,2,2,60,0,0
6871,310.880829015544,4,2,2,60,1,0
8114,319.148936170213,4,2,2,60,1,0
9390,315.789473684211,4,2,2,60,1,0
11758,-98.0392156862745,4,2,2,60,0,0
11916,300,4,2,2,60,1,0
12216,317.460317460317,4,2,2,60,1,0
13168,315.789473684211,4,2,2,55,1,0
13168,-111.111111111111,4,2,2,55,0,0
20746,318.302387267905,4,2,2,55,1,0
20746,-111.111111111111,4,2,2,55,0,0
22337,314.96062992126,4,2,2,55,1,0
22966,304.568527918782,4,2,2,55,1,0
23270,295.566502463054,4,2,2,65,1,0
23270,-90.9090909090908,4,2,2,65,0,0
23713,324.324324324324,4,2,2,65,1,0
23713,-90.9090909090909,4,2,2,65,0,0
23875,324.324324324324,4,2,2,65,1,0
24523,324.324324324324,4,2,2,65,1,0
24523,-90.9090909090909,4,2,2,65,0,0
24847,315.789473684211,4,2,2,65,1,0
24847,-90.9090909090909,4,2,2,65,0,0
25794,303.030303030303,4,2,2,65,1,0
26248,324.324324324324,4,2,2,65,1,0
26410,324.324324324324,4,2,2,65,1,0
26572,-90.9090909090909,4,2,2,65,0,0
26734,315.789473684211,4,2,2,65,1,0
26891,-90.9090909090909,4,2,2,65,0,0
27049,315.789473684211,4,2,2,65,1,0
27364,-90.9090909090909,4,2,2,65,0,0
27996,329.67032967033,4,2,2,65,1,0
28325,315.789473684211,4,2,2,60,1,0
28325,-100,4,2,2,60,0,0
39693,-83.3333333333333,4,2,2,75,0,1
80114,-90.9090909090909,4,2,2,70,0,0
84219,285.714285714286,4,2,2,70,1,0
84219,-90.9090909090909,4,2,2,70,0,0
84504,319.148936170213,4,2,2,70,1,0
84982,-90.9090909090909,4,2,2,70,0,0
85142,342.857142857143,4,2,2,55,1,0
85142,-90.9090909090909,4,2,2,55,0,0
85484,315.789473684211,4,2,2,55,1,0
86431,311.688311688312,4,2,2,55,1,0
87366,338.983050847458,4,2,2,55,1,0
87704,321.71581769437,4,2,2,60,1,0
87704,-90.9090909090909,4,2,2,60,0,0

[Colours]
Combo1 : 255,255,100
Combo2 : 255,108,108
Combo3 : 83,169,255
Combo4 : 255,168,211

[HitObjects]
66,186,527,6,0,P|139:201|240:218,2,165,8|8|8,0:0|0:0|0:0,0:0:0:0:
305,162,2106,2,0,L|312:208,3,36.6666666666667,0|0|0|2,0:3|0:3|0:3|0:3,0:0:0:0:
246,314,3062,6,0,P|198:330|142:289,1,110,6|10,3:2|0:0,0:0:0:0:
95,237,3535,2,0,P|100:173|94:124,1,110,10|2,0:2|3:2,0:0:0:0:
254,59,4167,2,0,P|248:113|253:168,1,110,2|2,0:0|0:0,0:0:0:0:
390,242,4798,2,0,L|431:248,2,27.5,2|2|2,0:0|0:0|3:2,0:0:0:0:
314,298,5114,2,0,P|322:354|322:356,2,55,2|10|2,3:2|0:0|0:0,0:0:0:0:
239,236,5588,6,0,P|261:189|331:177,1,110,2|10,3:2|0:0,0:0:0:0:
381,108,6069,2,0,L|363:-4,1,110,10|2,0:0|3:2,0:0:0:0:
217,91,6710,2,0,L|235:203,1,110,2|2,0:0|0:0,0:0:0:0:
95,175,7337,1,2,3:2:0:0:
95,175,7415,1,2,3:2:0:0:
95,175,7492,2,0,P|48:170|25:168,1,55,2|0,3:2|0:3,0:0:0:0:
0,254,7803,1,8,0:0:0:0:
0,254,7959,1,0,3:0:0:0:
69,309,8114,1,6,3:2:0:0:
256,192,8193,12,2,10653,3:2:0:0:
252,202,10968,5,10,0:0:0:0:
252,202,11126,2,0,P|185:215|139:229,1,110,10|2,0:0|3:2,0:0:0:0:
52,113,11758,2,0,P|119:100|165:86,1,110,2|2,0:0|0:0,0:0:0:0:
219,33,12216,2,0,L|282:43,1,55,10|2,0:0|3:2,0:0:0:0:
331,101,12533,2,0,P|338:172|311:204,1,110,2|8,3:2|0:0,0:0:0:0:
316,199,13009,1,0,3:0:0:0:
364,290,13168,6,0,B|413:316|413:316|467:293,1,98.9999969787599,6|8,3:2|0:0,0:0:0:0:
462,210,13642,2,0,B|413:184|413:184|372:201,1,98.9999969787599,8|0,0:0|3:2,0:0:0:0:
289,235,14115,1,8,0:0:0:0:
185,115,14431,2,0,P|134:107|79:88,1,98.9999969787599,2|8,3:2|0:0,0:0:0:0:
42,261,15063,2,0,P|82:254|107:250,2,49.4999984893799,0|0|8,3:2|3:0|0:0,0:0:0:0:
180,305,15694,6,0,P|249:312|290:323,1,98.9999969787599,2|8,3:2|0:0,0:0:0:0:
294,224,16168,2,0,P|225:217|184:206,1,98.9999969787599,8|0,0:0|3:2,0:0:0:0:
257,131,16642,1,8,0:0:0:0:
257,131,16800,1,2,0:0:0:0:
201,56,16958,1,2,3:2:0:0:
370,5,17273,2,0,P|362:50|362:71,1,49.4999984893799,8|0,0:0|3:0,0:0:0:0:
385,94,17510,1,0,3:0:0:0:
385,94,17589,2,0,P|393:139|393:160,2,49.4999984893799,0|0|8,3:2|3:0|0:0,0:0:0:0:
313,221,18221,6,0,P|292:268|307:320,1,98.9999969787599,2|8,3:2|0:0,0:0:0:0:
230,373,18694,1,8,0:0:0:0:
230,373,18852,2,0,L|160:365,2,49.4999984893799,2|0|8,0:0|3:2|0:0,0:0:0:0:
381,279,19484,2,0,P|424:268|493:265,1,98.9999969787599,2|8,3:2|0:0,0:0:0:0:
400,113,20115,2,0,L|389:163,2,49.4999984893799,0|0|8,3:2|3:0|0:0,0:0:0:0:
338,43,20589,1,2,0:0:0:0:
260,87,20746,6,0,P|208:93|153:103,1,98.9999969787599,2|8,3:2|0:0,0:0:0:0:
73,59,21223,1,8,0:0:0:0:
73,59,21382,2,0,P|62:125|62:129,1,49.4999984893799,2|0,0:0|3:2,0:0:0:0:
116,185,21700,1,10,0:0:0:0:
291,115,22019,6,0,P|330:119|352:124,1,49.4999984893799,2|2,3:2|0:3,0:0:0:0:
306,203,22337,2,0,P|345:207|367:213,1,55,10|2,0:0|0:3,0:0:0:0:
253,276,22651,1,2,3:2:0:0:
253,276,22809,1,0,3:0:0:0:
309,351,22966,1,10,3:2:0:0:
132,277,23270,6,0,L|81:287,3,30.2500009231568,6|2|2|2,3:2|0:0|0:0|0:0,0:0:0:0:
84,306,23565,1,2,3:2:0:0:
7,193,23713,2,0,P|61:191|108:139,1,121.000003692627,6|2,3:1|3:2,0:0:0:0:
105,145,24199,1,10,0:0:0:0:
199,212,24361,5,6,3:1:0:0:
199,212,24523,2,0,P|253:222|287:229,1,60.5000018463135,2|10,0:0|0:1,0:0:0:0:
203,116,24847,2,0,P|257:126|291:133,1,60.5000018463135,2|12,3:2|0:0,0:0:0:0:
352,174,25162,1,2,3:2:0:0:
422,98,25320,2,0,L|411:24,2,60.5000018463135,8|0|2,3:2|3:0|0:2,0:0:0:0:
501,158,25794,5,10,3:2:0:0:
443,235,25945,1,10,0:0:0:0:
443,235,26021,1,8,0:0:0:0:
443,235,26097,1,10,0:0:0:0:
512,176,26248,1,2,3:1:0:0:
449,330,26572,2,0,P|407:334|380:338,1,60.5000018463135,2|10,3:1|0:0,0:0:0:0:
292,264,26891,6,0,P|247:276|186:224,1,121.000003692627,6|0,3:2|3:0,0:0:0:0:
234,155,27364,2,0,L|244:83,1,60.5000018463135,0|8,3:0|3:2,0:0:0:0:
159,44,27680,2,0,L|149:116,1,60.5000018463135,8|0,3:2|0:2,0:0:0:0:
102,190,27996,1,8,0:0:0:0:
102,190,28078,1,8,0:0:0:0:
102,190,28160,1,10,0:0:0:0:
54,274,28325,6,0,L|-2:282,2,55,6|0|8,3:1|0:0|0:0,0:0:0:0:
137,331,28799,2,0,P|190:324|260:330,1,110,2|2,3:1|3:2,0:0:0:0:
246,327,29272,2,0,L|302:279,1,55,10|2,0:0|0:0,0:0:0:0:
368,206,29588,6,0,P|388:170|373:111,1,82.5,2|0,3:1|0:0,0:0:0:0:
360,98,29904,1,8,0:0:0:0:
263,118,30062,2,0,L|142:133,1,110,2|2,3:1|3:2,0:0:0:0:
153,131,30536,2,0,L|82:117,1,55,10|2,0:0|0:0,0:0:0:0:
115,255,30851,5,2,3:1:0:0:
115,255,31009,2,0,P|124:305|123:328,1,55,2|8,0:0|0:0,0:0:0:0:
243,340,31325,2,0,P|229:289|239:225,1,110,2|2,3:1|3:2,0:0:0:0:
236,233,31799,2,0,L|288:262,2,55,10|2|0,0:0|0:0|3:1,0:0:0:0:
181,136,32272,5,2,0:1:0:0:
181,136,32430,2,0,L|191:74,1,55,10|2,0:1|3:2,0:0:0:0:
301,115,32746,2,0,L|292:60,1,55,2|2,0:1|3:2,0:0:0:0:
408,103,33062,2,0,P|451:112|470:120,1,55,8|8,0:0|0:0,0:0:0:0:
494,105,33299,1,8,0:0:0:0:
494,105,33378,6,0,P|509:145|491:217,1,110,2|8,3:1|0:0,0:0:0:0:
408,273,33851,2,0,P|371:249|294:253,1,110,2|2,3:1|3:2,0:0:0:0:
306,247,34325,2,0,L|254:291,1,55,10|2,0:0|0:0,0:0:0:0:
163,345,34641,6,0,L|149:284,2,55,2|0|8,3:1|0:0|0:0,0:0:0:0:
48,300,35114,2,0,P|46:251|54:182,1,110,2|2,3:1|3:2,0:0:0:0:
52,190,35588,2,0,L|114:150,1,55,10|2,0:0|0:0,0:0:0:0:
206,220,35904,6,0,P|266:227|325:221,1,110,2|8,3:1|0:0,0:0:0:0:
370,123,36378,1,2,3:1:0:0:
370,123,36536,2,0,P|327:119|305:119,1,55,0|2,0:0|3:2,0:0:0:0:
442,201,36851,2,0,P|485:197|507:197,1,55,10|2,0:0|0:0,0:0:0:0:
501,101,37167,1,6,3:1:0:0:
501,101,37325,1,0,3:2:0:0:
503,8,37483,1,10,3:1:0:0:
352,70,37799,6,0,L|305:79,3,27.5,10|8|8|8,0:1|0:0|0:0|0:0,0:0:0:0:
297,110,38114,2,0,L|250:119,3,27.5,10|8|8|8,0:0|0:0|0:0|0:0,0:0:0:0:
224,81,38430,6,0,P|149:85|97:97,3,110,0|0|0|0,3:0|3:0|3:0|3:0,0:0:0:0:
15,243,39693,6,0,P|85:270|127:247,1,98.9999969787599,6|0,3:2|0:0,0:0:0:0:
130,238,40009,2,0,L|206:251,1,65.9999979858399,8|0,0:0|0:0,0:0:0:0:
297,192,40325,1,2,3:2:0:0:
297,192,40483,1,0,3:0:0:0:
362,280,40641,2,0,P|368:328|368:357,1,65.9999979858399,8|0,0:0|0:0,0:0:0:0:
437,201,40957,6,0,P|447:151|429:58,1,131.99999597168,2|8,3:2|0:0,0:0:0:0:
213,0,41588,1,2,3:2:0:0:
257,101,41746,1,0,3:0:0:0:
149,78,41904,2,0,P|107:83|78:89,1,65.9999979858399,8|0,0:0|0:0,0:0:0:0:
242,126,42220,6,0,P|311:119|351:67,2,131.99999597168,2|8|0,3:2|0:0|3:2,0:0:0:0:
242,126,43009,1,0,3:0:0:0:
182,220,43167,2,0,L|190:286,1,65.9999979858399,10|2,0:0|0:0,0:0:0:0:
79,143,43483,6,0,L|89:67,1,65.9999979858399,2|0,3:2|0:0,0:0:0:0:
197,43,43799,2,0,L|187:119,1,65.9999979858399,8|0,0:0|0:0,0:0:0:0:
280,176,44114,2,0,L|270:226,2,32.99999899292,2|0|0,3:2|3:0|3:0,0:0:0:0:
374,132,44430,1,10,0:0:0:0:
450,214,44588,1,10,0:0:0:0:
450,214,44667,1,10,0:0:0:0:
450,214,44746,6,0,B|486:270|486:270|457:349,1,131.99999597168,6|10,3:1|0:0,0:0:0:0:
340,375,45220,2,0,B|298:365|298:365|268:333|268:333|223:322|223:322,1,131.99999597168,2|2,0:1|0:1,0:0:0:0:
123,243,45693,2,0,L|110:166,1,65.9999979858399,10|0,0:0|0:0,0:0:0:0:
161,44,46009,5,2,3:1:0:0:
161,44,46167,1,2,0:0:0:0:
50,81,46325,1,10,0:0:0:0:
137,154,46483,2,0,L|280:123,1,131.99999597168,2|2,0:1|3:1,0:0:0:0:
333,32,46957,6,0,P|380:75|366:166,2,131.99999597168,10|2|10,0:0|3:1|0:0,0:0:0:0:
176,162,47904,1,2,3:2:0:0:
253,233,48062,1,0,3:0:0:0:
157,263,48220,2,0,L|144:337,1,65.9999979858399,10|2,0:0|0:3,0:0:0:0:
236,383,48536,1,0,3:0:0:0:
236,383,48693,1,0,3:0:0:0:
320,317,48851,2,0,P|371:304|432:297,1,98.9999969787599,14|0,0:0|0:0,0:0:0:0:
451,266,49167,2,0,L|458:223,3,32.99999899292,10|8|8|8,0:1|0:0|0:0|0:0,0:0:0:0:
440,187,49483,2,0,L|447:144,3,32.99999899292,8|8|8|8,0:0|0:0|0:0|0:0,0:0:0:0:
410,106,49799,6,0,L|298:125,1,98.9999969787599,6|0,3:2|0:0,0:0:0:0:
287,95,50114,2,0,P|245:72|205:84,1,65.9999979858399,8|0,0:0|0:0,0:0:0:0:
152,153,50430,1,2,3:2:0:0:
152,153,50588,1,0,3:0:0:0:
85,231,50746,2,0,L|15:239,1,65.9999979858399,8|0,0:0|0:0,0:0:0:0:
192,301,51062,6,0,P|250:277|325:280,1,131.99999597168,2|8,3:2|0:0,0:0:0:0:
503,376,51693,1,2,3:2:0:0:
442,306,51851,1,0,3:0:0:0:
488,225,52009,2,0,L|479:158,1,65.9999979858399,8|0,0:0|0:0,0:0:0:0:
418,316,52325,6,0,P|369:325|288:331,2,131.99999597168,2|8|0,3:2|0:0|3:2,0:0:0:0:
418,316,53114,1,0,3:0:0:0:
358,227,53272,2,0,L|374:152,1,65.9999979858399,10|2,0:0|0:0,0:0:0:0:
266,289,53588,6,0,L|189:299,1,65.9999979858399,2|0,3:2|0:0,0:0:0:0:
130,212,53904,2,0,L|195:203,1,65.9999979858399,8|0,0:0|0:0,0:0:0:0:
236,100,54219,2,0,L|287:93,2,32.99999899292,2|0|0,3:2|3:0|3:0,0:0:0:0:
164,17,54536,1,10,0:0:0:0:
68,60,54693,1,10,0:0:0:0:
68,60,54772,1,10,0:0:0:0:
68,60,54851,6,0,B|53:109|53:109|74:138,2,65.9999979858399,6|2|10,3:1|0:1|0:1,0:0:0:0:
153,30,55325,2,0,B|205:38|205:38|214:52|214:52|284:65,1,131.99999597168,2|2,0:1|3:2,0:0:0:0:
275,63,55799,1,10,0:0:0:0:
356,142,55957,6,0,P|395:112|476:124,1,131.99999597168,2|2,0:0|0:1,0:0:0:0:
512,220,56430,1,10,0:1:0:0:
441,293,56588,2,0,B|384:253|384:253|325:277,1,131.99999597168,2|0,0:1|3:0,0:0:0:0:
244,213,57062,2,0,L|154:229,1,65.9999979858399,10|2,0:0|0:0,0:0:0:0:
306,125,57378,6,0,P|370:144|445:146,1,131.99999597168,2|8,3:2|0:0,0:0:0:0:
277,13,58009,2,0,P|232:21|195:34,1,65.9999979858399,0|0,3:0|3:0,0:0:0:0:
137,96,58325,2,0,L|156:221,1,98.9999969787599,8|0,0:0|0:0,0:0:0:0:
131,235,58641,5,0,3:0:0:0:
131,235,58799,1,0,3:0:0:0:
237,302,58957,2,0,P|262:266|362:261,1,131.99999597168,14|2,0:0|3:2,0:0:0:0:
427,186,59430,1,2,3:0:0:0:
357,104,59588,2,0,L|314:109,3,32.99999899292,10|8|8|8,0:1|0:0|0:0|0:0,0:0:0:0:
283,142,59904,6,0,P|298:226|297:261,1,98.9999969787599,6|0,3:2|0:0,0:0:0:0:
269,275,60220,2,0,L|128:297,1,131.99999597168,8|2,0:0|3:2,0:0:0:0:
45,247,60693,1,0,3:0:0:0:
129,202,60851,1,8,0:0:0:0:
262,298,61167,6,0,P|332:316|369:318,1,98.9999969787599,2|0,3:2|0:0,0:0:0:0:
395,295,61483,2,0,P|419:256|526:241,1,131.99999597168,8|2,0:0|3:2,0:0:0:0:
434,142,61957,1,0,3:0:0:0:
502,69,62114,1,8,0:0:0:0:
329,10,62430,6,0,P|252:28|214:33,1,98.9999969787599,2|0,3:2|0:0,0:0:0:0:
203,48,62746,2,0,L|180:195,1,131.99999597168,8|0,0:0|3:2,0:0:0:0:
182,178,63220,1,0,3:0:0:0:
277,253,63378,2,0,L|355:233,1,65.9999979858399,10|2,0:0|0:0,0:0:0:0:
194,319,63693,6,0,P|138:306|82:307,1,98.9999969787599,2|0,3:2|0:0,0:0:0:0:
66,283,64009,2,0,L|39:129,1,131.99999597168,8|2,0:0|3:2,0:0:0:0:
69,63,64483,1,0,3:0:0:0:
134,130,64641,1,10,0:0:0:0:
285,48,64957,6,0,B|303:72|303:72|390:86,1,98.9999969787599,6|0,3:1|0:0,0:0:0:0:
410,59,65272,1,8,0:0:0:0:
312,192,65588,2,0,B|330:216|330:216|417:230,1,98.9999969787599,2|0,3:1|0:0,0:0:0:0:
430,204,65904,2,0,L|507:192,1,65.9999979858399,10|2,0:0|0:0,0:0:0:0:
361,306,66220,6,0,B|279:319|279:319|255:348,1,98.9999969787599,2|0,3:1|0:0,0:0:0:0:
243,370,66536,1,8,0:0:0:0:
158,223,66851,2,0,B|76:236|76:236|52:265,1,98.9999969787599,2|0,3:1|0:0,0:0:0:0:
22,232,67167,2,0,L|6:152,1,65.9999979858399,10|2,0:0|0:0,0:0:0:0:
85,66,67483,6,0,P|121:100|201:97,1,131.99999597168,2|10,3:2|0:0,0:0:0:0:
372,3,68114,1,2,3:1:0:0:
372,3,68272,1,2,3:2:0:0:
462,76,68430,2,0,L|484:216,1,131.99999597168,10|0,0:1|3:0,0:0:0:0:
482,206,68904,1,0,3:0:0:0:
423,286,69062,2,0,L|352:276,1,65.9999979858399,14|0,0:0|0:0,0:0:0:0:
310,190,69378,1,2,3:1:0:0:
383,115,69536,1,8,3:2:0:0:
383,115,69614,1,8,0:2:0:0:
383,115,69693,2,0,L|427:121,3,32.99999899292,8|8|8|8,0:2|0:0|0:0|0:0,0:0:0:0:
352,85,70009,6,0,P|292:73|233:72,1,98.9999969787599,6|0,3:2|0:0,0:0:0:0:
219,92,70325,2,0,L|204:234,1,131.99999597168,8|2,0:0|3:2,0:0:0:0:
123,286,70799,1,0,3:0:0:0:
112,187,70957,1,8,0:0:0:0:
309,157,71272,6,0,L|415:176,1,98.9999969787599,2|0,3:2|0:0,0:0:0:0:
437,200,71588,2,0,P|454:273|405:320,1,131.99999597168,8|2,0:0|3:2,0:0:0:0:
339,354,72062,1,0,3:0:0:0:
273,284,72220,1,8,0:0:0:0:
333,122,72536,6,0,P|340:74|301:19,1,98.9999969787599,2|0,3:2|0:0,0:0:0:0:
278,7,72851,2,0,L|127:29,1,131.99999597168,8|0,0:0|3:2,0:0:0:0:
147,26,73325,1,0,3:0:0:0:
70,108,73483,2,0,L|-1:92,1,65.9999979858399,10|2,0:0|0:0,0:0:0:0:
179,130,73799,6,0,P|188:178|176:246,1,98.9999969787599,2|0,3:2|0:0,0:0:0:0:
205,258,74114,2,0,L|337:275,1,131.99999597168,8|2,0:0|3:2,0:0:0:0:
419,330,74588,1,0,3:0:0:0:
330,371,74746,1,10,0:0:0:0:
227,243,75062,6,0,B|222:199|222:199|207:188|207:188|202:141,1,98.9999969787599,6|0,3:1|0:0,0:0:0:0:
174,125,75378,1,10,0:1:0:0:
249,50,75536,2,0,B|301:34|301:34|360:69,1,98.9999969787599,2|0,0:1|0:0,0:0:0:0:
365,90,75851,1,2,3:2:0:0:
433,172,76009,1,10,0:0:0:0:
433,172,76167,6,0,L|418:256,1,65.9999979858399,2|0,0:0|3:0,0:0:0:0:
338,287,76483,1,2,0:1:0:0:
258,234,76641,1,10,0:1:0:0:
277,140,76799,2,0,P|213:117|147:136,1,131.99999597168,2|0,0:1|3:0,0:0:0:0:
58,145,77272,1,10,0:0:0:0:
106,235,77430,6,0,L|155:240,2,32.99999899292,0|0|14,3:0|3:0|3:2,0:0:0:0:
58,319,77746,1,0,3:0:0:0:
130,384,77904,1,10,3:2:0:0:
130,384,78062,1,0,3:0:0:0:
216,347,78220,1,10,3:2:0:0:
216,347,78378,1,0,3:0:0:0:
211,253,78536,1,10,3:2:0:0:
211,253,78693,1,0,3:0:0:0:
202,158,78851,6,0,L|195:83,1,65.9999979858399,14|0,0:0|3:0,0:0:0:0:
316,22,79167,2,0,L|309:97,1,65.9999979858399,6|8,3:2|0:0,0:0:0:0:
341,119,79404,1,8,0:0:0:0:
341,119,79483,1,14,3:2:0:0:
443,71,79641,1,2,3:1:0:0:
512,157,79799,2,0,L|505:203,3,32.99999899292,10|8|8|8,3:1|0:0|0:0|0:0,0:0:0:0:
481,214,80114,6,2,B|400:204|413:259|341:248,1,121.000003692627,14|8,3:1|0:0,0:1:0:0:
267,180,80588,2,2,P|259:135|309:82,1,121.000003692627,2|2,3:2|3:2,0:1:0:0:
198,14,81062,1,10,0:1:0:0:
198,14,81220,2,2,P|141:49|83:46,1,121.000003692627,2|2,0:1|3:2,0:1:0:0:
22,142,81693,1,10,0:1:0:0:
106,212,81851,2,0,L|235:188,2,121.000003692627,2|2|2,3:1|3:1|0:1,0:0:0:0:
37,292,82641,6,0,L|24:357,1,60.5000018463135,2|2,3:2|0:0,0:0:0:0:
128,323,82957,2,0,L|118:401,1,60.5000018463135,10|2,0:2|3:2,0:0:0:0:
221,291,83272,2,0,L|229:361,1,60.5000018463135,2|2,0:2|3:2,0:0:0:0:
341,301,83588,2,0,L|330:374,1,60.5000018463135,10|2,0:2|0:2,0:0:0:0:
438,248,83904,6,0,L|448:214,3,30.2500009231568,6|2|2|2,3:1|0:0|3:2|0:0,0:0:0:0:
425,182,84219,2,0,L|414:108,1,60.5000018463135,14|2,0:1|0:2,0:0:0:0:
338,43,84504,1,14,3:1:0:0:
259,119,84663,1,10,0:2:0:0:
259,119,84743,1,10,0:0:0:0:
259,119,84823,1,10,3:1:0:0:
192,30,84982,2,0,L|114:19,1,60.5000018463135,10|4,0:2|3:1,0:0:0:0:
79,177,87704,5,10,0:1:0:0:
93,273,87864,1,10,0:1:0:0:
239,123,88186,5,10,0:1:0:0:
253,219,88347,1,10,0:1:0:0:
403,283,88669,5,10,0:2:0:0:
417,187,88830,1,10,0:2:0:0:
