osu file format v14

[General]
AudioFilename: audio.mp3
AudioLeadIn: 0
PreviewTime: 39616
Countdown: 0
SampleSet: Soft
StackLeniency: 0.6
Mode: 0
LetterboxInBreaks: 0
WidescreenStoryboard: 1

[Editor]
Bookmarks: 13169,23274,28327,38432,39695,59906,80116,85169,88801
DistanceSpacing: 1.15
BeatDivisor: 4
GridSize: 32
TimelineZoom: 2.4

[Metadata]
Title:Seishun Complex (TV Size)
TitleUnicode:青春コンプレックス (TV Size)
Artist:kessoku band
ArtistUnicode:結束バンド
Creator:Cami
Version:Normal
Source:ぼっち・ざ・ろっく!
Tags:anime opening bocchi the rock rock! 音羽 otoha 樋口愛 higuchi ai 三井律郎 mitsui ritsuo japanese jrock 喜多郁代 Kita Ikuyo 長谷川育美 Hasegawa Ikumi 山田リョウ Yamada Ryo 水野朔 Mizuno Saku 高間有一 Takama Yuichi 比田井修 Hidai Osamu
BeatmapID:3842593
BeatmapSetID:1867294

[Difficulty]
HPDrainRate:3
CircleSize:3
OverallDifficulty:4
ApproachRate:5.5
SliderMultiplier:1.07
SliderTickRate:1

[Events]
//Background and Video events
Video,0,"hitoribocchee.mp4"
0,0,"bg.jpg",0,0
//Break Periods
2,3264,11969
//Storyboard Layer 0 (Background)
//Storyboard Layer 1 (Fail)
//Storyboard Layer 2 (Pass)
//Storyboard Layer 3 (Foreground)
//Storyboard Layer 4 (Overlay)
//Storyboard Sound Samples

[TimingPoints]
538,315.789473684211,4,2,1,60,1,0
2116,-111.111111111111,4,2,1,60,0,0
13169,-100,4,2,1,50,0,0
22959,-100,4,2,1,60,0,0
23274,-100,4,2,1,70,0,0
28327,-100,4,2,1,60,0,0
38432,-100,4,2,1,50,0,0
39695,-90.9090909090909,4,2,1,75,0,0
59906,-90.9090909090909,4,2,1,80,0,0
83906,-90.9090909090909,4,2,1,85,0,0
85169,-100,4,2,1,60,0,0
87695,-100,4,2,1,70,0,0
88169,-100,4,2,1,80,0,0
88643,-100,4,2,1,90,0,0

[Colours]
Combo1 : 252,221,139
Combo2 : 243,190,242
Combo3 : 135,147,231
Combo4 : 242,119,119

[HitObjects]
61,252,538,5,0,1:0:0:0:
219,225,1011,1,0,1:0:0:0:
377,198,1485,1,0,1:0:0:0:
377,198,2116,6,0,L|389:144,2,48.1499985305787,0|0|2,0:0|0:0|0:3,0:0:0:0:
489,355,3064,1,4,3:2:0:0:
75,256,13169,6,0,P|127:239|185:233,1,107,6|0,3:2|1:0,0:0:0:0:
213,191,13643,1,2,1:2:0:0:
303,257,13959,1,0,3:2:0:0:
303,257,14116,1,2,1:2:0:0:
384,186,14432,2,0,P|397:134|368:79,2,107,2|0|0,3:2|1:0|3:0,0:0:0:0:
424,229,15222,1,0,3:0:0:0:
424,229,15380,1,0,1:0:0:0:
383,327,15695,6,0,P|335:333|264:349,1,107,2|0,3:2|1:0,0:0:0:0:
233,375,16169,2,0,P|185:361|167:306,1,107,0|0,1:2|3:0,0:0:0:0:
189,262,16643,1,0,1:0:0:0:
111,187,16959,2,0,L|97:72,1,107,2|2,3:2|1:2,0:0:0:0:
70,41,17432,1,4,0:3:0:0:
70,41,17590,2,0,L|14:25,2,53.5,2|0|0,3:2|3:0|1:0,0:0:0:0:
176,23,18222,6,0,P|225:21|266:70,1,107,2|0,3:2|1:0,0:0:0:0:
272,113,18695,1,0,1:0:0:0:
294,217,19011,1,0,3:0:0:0:
294,217,19169,1,0,1:0:0:0:
195,259,19485,2,0,L|85:239,2,107,2|0|0,3:2|1:0|3:2,0:0:0:0:
226,308,20274,1,0,3:0:0:0:
226,308,20432,1,0,1:0:0:0:
329,336,20748,6,0,P|381:322|440:316,1,107,2|0,3:2|1:0,0:0:0:0:
482,339,21222,2,0,P|505:303|479:229,1,107,0|0,1:0|3:0,0:0:0:0:
451,208,21695,1,2,1:2:0:0:
382,125,22011,2,0,L|395:63,2,53.5,0|0|0,3:0|3:0|1:0,0:0:0:0:
299,193,22643,2,0,L|312:255,2,53.5,0|0|8,1:0|3:0|0:3,0:0:0:0:
208,135,23274,5,6,3:2:0:0:
114,182,23590,1,4,0:3:0:0:
114,182,23748,2,0,L|97:63,1,107,6|8,3:2|0:3,0:0:0:0:
62,44,24222,1,0,1:0:0:0:
62,44,24380,2,0,P|120:42|175:10,1,107,4|0,3:2|1:0,0:0:0:0:
212,39,24853,1,0,3:0:0:0:
314,7,25169,1,0,3:0:0:0:
388,84,25485,1,0,3:2:0:0:
492,60,25801,6,0,L|502:0,2,53.5,0|0|0,3:0|1:0|1:0,0:0:0:0:
507,111,26274,2,0,P|487:165|487:235,1,107,0|0,3:2|3:0,0:0:0:0:
506,268,26748,1,0,1:0:0:0:
506,268,26906,1,4,3:2:0:0:
426,339,27222,2,0,B|379:315|379:315|317:322,1,107,0|0,1:0|1:0,0:0:0:0:
285,357,27695,2,0,L|231:345,1,53.5,0|0,3:0|1:0,0:0:0:0:
194,307,28011,1,0,1:0:0:0:
104,247,28327,6,0,P|75:250|49:254,2,53.5,6|0|0,3:2|0:0|1:0,0:0:0:0:
141,208,28801,2,0,P|159:153|131:94,1,107,2|0,3:2|3:0,0:0:0:0:
100,76,29274,1,0,1:0:0:0:
191,20,29590,1,2,3:2:0:0:
272,89,29906,2,0,L|327:82,1,53.5,2|0,1:2|3:0,0:0:0:0:
372,57,30222,2,0,P|357:108|349:172,1,107,2|0,0:0|1:0,0:0:0:0:
312,200,30695,5,2,0:0:0:0:
391,271,31011,2,0,L|450:262,1,53.5,2|0,0:0|1:0,0:0:0:0:
484,297,31327,1,2,3:2:0:0:
405,369,31643,1,2,3:2:0:0:
405,369,31801,1,0,1:0:0:0:
306,328,32116,2,0,P|244:335|193:355,1,107,2|2,3:2|1:2,0:0:0:0:
166,318,32590,1,0,3:0:0:0:
166,318,32748,2,0,L|181:254,2,53.5,2|0|0,0:0|3:0|1:0,0:0:0:0:
64,353,33380,6,0,L|48:237,1,107,6|0,3:2|1:0,0:0:0:0:
11,208,33853,2,0,P|-8:166|17:113,1,107,2|0,3:2|3:0,0:0:0:0:
61,85,34327,1,0,1:0:0:0:
134,163,34643,1,2,3:2:0:0:
230,117,34959,2,0,L|296:134,1,53.5,2|0,1:2|3:0,0:0:0:0:
305,178,35274,2,0,P|348:194|419:163,1,107,2|0,0:0|1:0,0:0:0:0:
459,84,35906,6,0,L|517:93,2,53.5,2|0|0,3:2|0:0|1:0,0:0:0:0:
434,36,36380,2,0,L|321:51,1,107,2|0,3:2|3:0,0:0:0:0:
280,25,36853,1,0,1:0:0:0:
228,119,37169,2,0,P|209:171|238:234,1,107,2|0,3:2|1:0,0:0:0:0:
315,274,37801,2,0,L|375:260,1,53.5,2|0,3:2|1:0,0:0:0:0:
388,212,38116,2,0,L|454:200,1,53.5,2|0,1:2|1:0,0:0:0:0:
483,169,38432,5,0,3:0:0:0:
461,64,38748,1,0,3:0:0:0:
371,5,39064,1,0,3:0:0:0:
264,10,39380,1,0,3:0:0:0:
154,53,39695,6,0,L|134:185,1,117.700003591919,6|0,3:2|1:0,0:0:0:0:
88,201,40169,1,0,0:0:0:0:
88,201,40327,2,0,P|66:228|61:259,1,58.8500017959595,2|0,3:2|3:0,0:0:0:0:
88,302,40643,1,0,1:0:0:0:
202,272,40959,2,0,P|246:252|321:279,1,117.700003591919,2|0,3:2|1:0,0:0:0:0:
343,324,41432,1,0,0:0:0:0:
343,324,41590,2,0,L|406:315,1,58.8500017959595,2|0,3:2|3:0,0:0:0:0:
454,341,41906,1,0,1:0:0:0:
504,234,42222,6,0,L|386:221,2,117.700003591919,2|0|0,3:2|1:0|3:0,0:0:0:0:
509,181,43011,1,0,3:0:0:0:
509,181,43169,2,0,P|504:149|494:117,1,58.8500017959595,2|0,1:2|0:0,0:0:0:0:
508,65,43485,1,2,3:2:0:0:
397,22,43801,1,2,1:2:0:0:
304,94,44116,2,0,L|237:107,1,58.8500017959595,2|0,3:2|3:0,0:0:0:0:
204,62,44432,2,0,P|174:45|139:49,1,58.8500017959595,2|0,1:2|0:0,0:0:0:0:
110,89,44748,5,4,3:2:0:0:
177,185,45064,2,0,P|226:184|290:217,1,117.700003591919,2|0,1:2|3:0,0:0:0:0:
336,255,45538,1,0,3:0:0:0:
336,255,45695,1,2,1:2:0:0:
441,307,46011,1,2,3:2:0:0:
343,373,46327,2,0,L|222:359,1,117.700003591919,2|0,1:2|3:0,0:0:0:0:
168,375,46801,1,0,3:0:0:0:
168,375,46959,2,0,P|162:340|154:305,1,58.8500017959595,2|0,1:2|0:0,0:0:0:0:
111,279,47274,5,2,3:2:0:0:
45,180,47590,1,2,1:2:0:0:
108,80,47906,2,0,L|165:67,1,58.8500017959595,2|0,3:2|3:0,0:0:0:0:
214,99,48222,2,0,P|245:101|281:123,1,58.8500017959595,2|0,1:2|0:0,0:0:0:0:
322,86,48538,5,0,3:2:0:0:
322,86,48695,1,0,3:0:0:0:
322,86,48853,1,6,1:2:0:0:
428,135,49169,2,0,L|402:259,1,117.700003591919,2|0,3:2|1:0,0:0:0:0:
445,300,49643,1,0,1:0:0:0:
445,300,49801,6,0,P|416:335|338:331,1,117.700003591919,6|0,3:2|1:0,0:0:0:0:
306,305,50274,1,0,0:0:0:0:
306,305,50432,2,0,P|309:278|309:230,1,58.8500017959595,2|0,3:2|3:0,0:0:0:0:
295,188,50748,1,0,1:0:0:0:
199,257,51064,2,0,P|112:248|72:228,1,117.700003591919,2|0,3:2|1:0,0:0:0:0:
33,261,51538,1,0,0:0:0:0:
33,261,51695,2,0,L|25:196,1,58.8500017959595,2|0,3:2|3:0,0:0:0:0:
7,146,52011,1,0,1:0:0:0:
121,117,52327,6,0,L|108:-3,2,117.700003591919,2|0|0,3:2|1:0|3:0,0:0:0:0:
181,139,53116,1,0,3:0:0:0:
181,139,53274,2,0,P|215:142|247:160,1,58.8500017959595,0|0,1:2|0:0,0:0:0:0:
267,203,53590,1,2,3:2:0:0:
383,216,53906,1,2,1:2:0:0:
452,122,54222,2,0,L|465:55,1,58.8500017959595,2|0,3:2|3:0,0:0:0:0:
422,20,54538,1,2,1:2:0:0:
342,106,54853,5,4,3:2:0:0:
383,216,55169,2,0,P|394:273|394:343,1,117.700003591919,2|0,1:2|3:0,0:0:0:0:
344,359,55643,1,0,3:0:0:0:
344,359,55801,2,0,L|272:347,1,58.8500017959595,2|0,1:2|0:0,0:0:0:0:
238,314,56116,1,2,3:2:0:0:
127,360,56432,2,0,P|68:362|20:318,1,117.700003591919,2|0,1:2|3:0,0:0:0:0:
55,277,56906,1,0,3:0:0:0:
55,277,57064,2,0,P|44:249|44:220,1,58.8500017959595,2|0,1:2|0:0,0:0:0:0:
83,175,57380,5,2,3:2:0:0:
197,200,57695,1,2,1:2:0:0:
191,82,58011,1,2,3:2:0:0:
304,111,58327,1,2,1:2:0:0:
345,221,58643,6,0,L|334:282,1,58.8500017959595,0|0,3:0|3:0,0:0:0:0:
379,317,58959,1,4,1:2:0:0:
489,277,59274,1,2,1:2:0:0:
451,176,59590,1,0,1:0:0:0:
451,176,59748,1,0,1:0:0:0:
451,176,59906,6,0,L|471:55,1,117.700003591919,6|0,3:2|1:0,0:0:0:0:
425,30,60380,1,0,0:0:0:0:
425,30,60538,2,0,P|388:36|369:49,1,58.8500017959595,2|0,3:2|3:0,0:0:0:0:
333,93,60853,1,0,1:0:0:0:
226,143,61169,2,0,L|106:123,1,117.700003591919,2|0,3:2|1:0,0:0:0:0:
65,161,61643,1,0,0:0:0:0:
65,161,61801,2,0,L|74:225,1,58.8500017959595,2|0,3:2|3:0,0:0:0:0:
65,277,62116,1,0,1:0:0:0:
183,260,62432,6,0,L|156:396,2,117.700003591919,2|0|0,3:2|1:0|3:0,0:0:0:0:
240,237,63222,1,0,3:0:0:0:
240,237,63380,2,0,P|272:247|292:267,1,58.8500017959595,2|0,1:2|0:0,0:0:0:0:
318,315,63695,1,2,3:2:0:0:
429,353,64011,1,2,1:2:0:0:
492,253,64327,2,0,L|479:185,1,58.8500017959595,2|0,3:2|3:0,0:0:0:0:
433,160,64643,2,0,P|445:128|447:98,1,58.8500017959595,2|0,1:2|0:0,0:0:0:0:
486,59,64959,5,4,3:2:0:0:
378,11,65274,2,0,L|255:32,1,117.700003591919,2|0,1:2|3:0,0:0:0:0:
209,17,65748,1,0,3:0:0:0:
209,17,65906,2,0,P|194:69|194:87,1,58.8500017959595,2|0,1:2|0:0,0:0:0:0:
224,123,66222,1,2,3:2:0:0:
302,210,66538,2,0,P|312:259|266:322,1,117.700003591919,2|0,1:2|3:0,0:0:0:0:
232,348,67011,1,0,3:0:0:0:
232,348,67169,2,0,L|163:334,1,58.8500017959595,2|0,1:2|0:0,0:0:0:0:
121,362,67485,5,2,3:2:0:0:
76,252,67801,1,2,1:2:0:0:
166,177,68116,2,0,L|150:107,1,58.8500017959595,2|0,3:2|3:0,0:0:0:0:
100,92,68432,1,2,1:2:0:0:
203,35,68748,5,4,3:2:0:0:
203,35,68906,1,0,3:0:0:0:
203,35,69064,1,2,1:2:0:0:
299,102,69380,2,0,L|423:82,1,117.700003591919,2|0,1:2|1:0,0:0:0:0:
459,43,69853,1,0,1:0:0:0:
459,43,70011,6,0,P|490:96|471:162,1,117.700003591919,6|0,3:2|1:0,0:0:0:0:
443,196,70485,1,0,0:0:0:0:
443,196,70643,2,0,L|428:267,1,58.8500017959595,2|0,3:2|3:0,0:0:0:0:
451,309,70959,1,0,1:0:0:0:
350,369,71274,2,0,P|288:360|214:355,1,117.700003591919,2|0,3:2|1:0,0:0:0:0:
178,355,71748,1,0,0:0:0:0:
178,355,71906,2,0,P|167:315|173:288,1,58.8500017959595,2|0,3:2|3:0,0:0:0:0:
180,240,72222,1,0,1:0:0:0:
116,138,72538,6,0,L|-5:150,2,117.700003591919,2|0|0,3:2|1:0|3:0,0:0:0:0:
162,100,73327,1,0,3:0:0:0:
162,100,73485,2,0,P|195:111|223:131,1,58.8500017959595,2|0,1:2|0:0,0:0:0:0:
244,175,73801,5,2,3:2:0:0:
353,218,74116,1,2,1:2:0:0:
449,150,74432,2,0,L|431:74,1,58.8500017959595,2|0,3:2|3:0,0:0:0:0:
453,36,74748,2,0,P|428:21|392:18,1,58.8500017959595,2|0,1:2|0:0,0:0:0:0:
343,39,75064,5,4,3:2:0:0:
254,116,75380,2,0,L|128:95,1,117.700003591919,2|0,1:2|3:0,0:0:0:0:
102,56,75853,1,0,3:0:0:0:
102,56,76011,2,0,P|76:68|52:87,1,58.8500017959595,2|0,1:2|0:0,0:0:0:0:
34,143,76327,5,4,3:2:0:0:
134,204,76643,2,0,P|161:242|149:319,1,117.700003591919,2|0,1:2|3:0,0:0:0:0:
127,364,77116,1,0,3:0:0:0:
127,364,77274,1,2,1:2:0:0:
244,351,77590,6,0,P|270:343|301:340,1,58.8500017959595,6|0,1:2|3:0,0:0:0:0:
348,303,77906,2,0,L|337:235,1,58.8500017959595,2|0,1:2|3:0,0:0:0:0:
284,221,78222,2,0,L|307:90,1,117.700003591919,2|0,1:2|1:0,0:0:0:0:
270,63,78695,1,0,3:2:0:0:
270,63,78853,6,0,P|219:53|162:118,1,117.700003591919,6|0,3:2|1:0,0:0:0:0:
83,173,79485,1,2,1:2:0:0:
170,252,79801,1,2,1:2:0:0:
99,347,80116,5,6,3:2:0:0:
99,347,80274,2,0,P|130:353|165:363,1,58.8500017959595,2|0,0:0|1:0,0:0:0:0:
214,371,80590,2,0,B|263:335|263:335|341:356,1,117.700003591919,2|0,3:2|3:0,0:0:0:0:
374,333,81064,1,0,1:0:0:0:
490,351,81380,6,0,L|471:284,1,58.8500017959595,2|0,3:2|3:0,0:0:0:0:
505,246,81695,1,2,1:2:0:0:
505,246,81853,2,0,P|455:248|390:214,1,117.700003591919,2|0,3:2|3:2,0:0:0:0:
365,167,82327,1,2,1:2:0:0:
428,67,82643,5,2,3:2:0:0:
322,27,82959,1,0,1:0:0:0:
322,27,83116,2,0,B|269:34|269:34|251:48|251:48|198:62,1,117.700003591919,2|0,3:2|3:0,0:0:0:0:
162,25,83590,1,2,1:2:0:0:
91,119,83906,6,0,L|108:195,1,58.8500017959595,2|0,3:2|3:0,0:0:0:0:
58,215,84222,2,0,P|118:218|180:241,1,117.700003591919,0|0,1:0|3:0,0:0:0:0:
214,277,84695,2,0,L|203:342,2,58.8500017959595,0|0|4,1:0|3:0|0:3,0:0:0:0:
268,253,85169,5,6,3:2:0:0:
352,327,85485,1,0,1:0:0:0:
352,327,85643,2,0,B|406:340|406:340|463:301,1,107,2|0,3:2|3:0,0:0:0:0:
501,320,86116,1,0,1:0:0:0:
480,214,86432,2,0,L|491:147,1,53.5,0|0,3:0|3:0,0:0:0:0:
455,118,86748,1,0,1:0:0:0:
361,169,87064,6,0,L|290:181,1,53.5,0|0,3:0|1:0,0:0:0:0:
273,218,87380,2,0,L|209:205,1,53.5,0|0,1:0|3:0,0:0:0:0:
189,171,87695,5,0,1:0:0:0:
189,171,87853,1,0,1:0:0:0:
146,269,88169,1,0,1:0:0:0:
146,269,88327,1,0,1:0:0:0:
103,367,88643,1,0,1:0:0:0:
103,367,88801,1,0,1:0:0:0:
