osu file format v14

[General]
AudioFilename: audio.mp3
AudioLeadIn: 0
PreviewTime: 183083
Countdown: 0
SampleSet: Soft
StackLeniency: 0.7
Mode: 0
LetterboxInBreaks: 0
WidescreenStoryboard: 1

[Editor]
Bookmarks: 1295,2539,12487,14974,24922,34870,44818,54767,56010,77150,78393,88342,89585,99533,109482,119430,129378,130621,151917,153005,162953,172901,182849,185336,206632,207720,217668,220000,226217
DistanceSpacing: 1.6
BeatDivisor: 4
GridSize: 32
TimelineZoom: 1.3

[Metadata]
Title:Guitar to Kodoku to Aoi Hoshi
TitleUnicode:ギターと孤独と蒼い惑星
Artist:kessoku band
ArtistUnicode:結束バンド
Creator:Saggin
Version:pnky's Insane
Source:ぼっち・ざ・ろっく!
Tags:wakusei 喜多郁代 Kita Ikuyo 長谷川育美 Hasegawa Ikumi 三井律郎 mitsui ritsuo zaq 音羽 otoha akkin bocchi the rock za japanese rock j-rock jrock anime _kotachi_ -brethia pnky kanor
BeatmapID:3877167
BeatmapSetID:1879988

[Difficulty]
HPDrainRate:5
CircleSize:4
OverallDifficulty:8
ApproachRate:9
SliderMultiplier:1.66
SliderTickRate:1

[Events]
//Background and Video events
0,0,"bg.jpg",0,0
//Break Periods
2,36172,43633
2,110783,113758
2,163211,171716
2,217926,219060
//Storyboard Layer 0 (Background)
//Storyboard Layer 1 (Fail)
//Storyboard Layer 2 (Pass)
//Storyboard Layer 3 (Foreground)
//Storyboard Layer 4 (Overlay)
//Storyboard Sound Samples

[TimingPoints]
110,310.880829015544,4,2,1,100,1,0
1353,-100,4,2,1,40,0,0
2597,-100,4,2,1,70,0,0
12545,-125,4,2,1,70,0,0
12622,-125,4,2,1,5,0,0
12700,-125,4,2,1,70,0,0
15032,-142.857142857143,4,2,1,40,0,0
24514,-142.857142857143,4,2,1,50,0,0
24747,-142.857142857143,4,2,1,5,0,0
24825,-142.857142857143,4,2,1,50,0,0
24980,-111.111111111111,4,2,1,50,0,0
34928,-111.111111111111,4,2,1,40,0,0
44876,-125,4,2,1,50,0,0
52337,-100,4,2,1,50,0,0
52493,-100,4,2,1,60,0,0
53426,-100,4,2,1,60,0,0
53581,-100,4,2,1,60,0,0
54358,-125,4,2,1,60,0,0
55135,-333.333333333333,4,2,1,40,0,0
55369,-333.333333333333,4,2,1,5,0,0
55446,-333.333333333333,4,2,1,40,0,0
55679,-333.333333333333,4,2,1,5,0,0
55757,-333.333333333333,4,2,1,40,0,0
55990,-333.333333333333,4,2,1,5,0,0
56068,-95.2380952380952,4,2,1,70,0,1
56301,-95.2380952380952,4,2,1,5,0,1
56379,-95.2380952380952,4,2,1,70,0,1
61042,-100,4,2,1,70,0,1
66016,-95.2380952380952,4,2,1,70,0,1
76275,-100,4,2,1,70,0,1
77208,-100,4,2,1,70,0,0
78451,-100,4,2,1,60,0,0
88244,-83.3333333333333,4,2,1,60,0,0
89643,-142.857142857143,4,2,1,40,0,0
99125,-142.857142857143,4,2,1,50,0,0
99358,-142.857142857143,4,2,1,5,0,0
99436,-142.857142857143,4,2,1,50,0,0
99591,-111.111111111111,4,2,1,50,0,0
109540,-111.111111111111,4,2,1,40,0,0
114358,-166.666666666666,4,2,1,40,0,0
119488,-125,4,2,1,50,0,0
126949,-100,4,2,1,50,0,0
127104,-100,4,2,1,60,0,0
129280,-125,4,2,1,60,0,0
129747,-111.111111111111,4,2,1,40,0,0
129980,-111.111111111111,4,2,1,5,0,0
130058,-111.111111111111,4,2,1,40,0,0
130291,-111.111111111111,4,2,1,5,0,0
130369,-111.111111111111,4,2,1,40,0,0
130602,-111.111111111111,4,2,1,5,0,0
130679,-95.2380952380952,4,2,1,70,0,1
135654,-100,4,2,1,70,0,1
140628,-95.2380952380952,4,2,1,70,0,1
151975,-100,4,2,1,70,0,0
162156,-100,4,2,1,5,0,0
162234,-100,4,2,1,70,0,0
162312,-100,4,2,1,5,0,0
162389,-100,4,2,1,70,0,0
163011,-100,4,2,1,40,0,0
172959,-333.333333333333,4,2,1,50,0,0
183218,-500,4,2,1,50,0,0
184462,-250,4,2,1,40,0,0
184695,-250,4,2,1,5,0,0
184773,-250,4,2,1,40,0,0
185006,-250,4,2,1,5,0,0
185084,-250,4,2,1,40,0,0
185317,-250,4,2,1,5,0,0
185394,-95.2380952380952,4,2,1,80,0,1
190369,-100,4,2,1,80,0,1
195343,-95.2380952380952,4,2,1,80,0,1
206690,-100,4,2,1,80,0,0
207778,-100,4,2,1,60,0,0
220058,-250,4,2,1,60,0,0
220835,-250,4,2,1,55,0,0
221457,-250,4,2,1,50,0,0
222078,-250,4,2,1,45,0,0
222700,-250,4,2,1,40,0,0
223322,-250,4,2,1,35,0,0
223944,-250,4,2,1,30,0,0
224565,-250,4,2,1,25,0,0
225187,-250,4,2,1,20,0,0
225654,-250,4,2,1,15,0,0
225964,-250,4,2,1,10,0,0
226353,-250,4,2,1,5,0,0

[Colours]
Combo1 : 255,217,100
Combo2 : 255,176,216
Combo3 : 149,197,255
Combo4 : 247,100,122

[HitObjects]
90,172,2597,6,0,P|89:128|111:93,1,83,6|0,1:2|0:0,0:0:0:0:
253,132,2907,2,0,P|254:176|232:211,1,83,8|2,0:0|0:0,0:0:0:0:
234,208,3141,1,8,0:0:0:0:
234,208,3218,1,0,1:0:0:0:
160,273,3374,1,0,1:0:0:0:
251,310,3529,1,0,0:0:0:0:
355,180,3685,6,0,B|423:133|423:133|524:154,1,166,8|0,0:0|1:0,0:0:0:0:
343,82,4151,2,0,P|311:52|311:2,1,83,8|0,0:0|0:0,0:0:0:0:
306,14,4384,1,8,0:0:0:0:
306,14,4462,1,0,1:0:0:0:
418,114,4617,1,0,1:0:0:0:
239,154,4773,2,0,L|249:196,3,41.5,8|8|8|8,0:0|0:0|0:0|0:0,0:0:0:0:
275,221,5084,6,0,P|237:249|200:253,1,83,0|0,1:0|0:0,0:0:0:0:
90,132,5394,2,0,P|128:104|165:100,1,83,8|2,0:0|0:0,0:0:0:0:
162,99,5628,1,8,0:0:0:0:
162,99,5705,1,0,1:0:0:0:
239,154,5861,1,0,1:0:0:0:
198,227,6016,1,0,0:0:0:0:
126,350,6172,6,0,B|159:380|159:380|281:363,1,166,8|0,0:0|1:0,0:0:0:0:
470,279,6638,1,8,0:0:0:0:
404,205,6793,2,0,P|362:265|311:267,1,124.5,2|0,0:0|0:0,0:0:0:0:
290,253,7104,2,0,L|280:208,1,41.5,8|8,0:0|0:0,0:0:0:0:
126,127,7260,1,8,0:0:0:0:
134,97,7337,1,8,0:0:0:0:
155,74,7415,1,8,0:0:0:0:
183,62,7493,1,8,0:0:0:0:
214,63,7571,6,0,L|235:159,1,83,6|0,1:2|1:0,0:0:0:0:
404,205,7882,2,0,L|386:123,1,83,8|2,0:0|0:0,0:0:0:0:
386,123,8115,1,8,0:0:0:0:
386,123,8192,1,0,1:0:0:0:
422,44,8348,1,2,1:2:0:0:
485,109,8503,1,2,0:0:0:0:
323,233,8659,6,0,B|303:231|286:225|286:225|268:232|268:232|212:229|154:248,1,166,8|0,0:0|1:0,0:0:0:0:
62,156,9125,1,8,0:0:0:0:
0,219,9280,2,0,P|-4:294|75:343,1,166,2|0,0:0|1:0,0:0:0:0:
169,179,9747,2,0,P|172:151|175:134,3,41.5,8|8|8|8,0:0|0:0|0:0|0:0,0:0:0:0:
181,110,10058,6,0,B|211:66|266:85|266:85|284:112|299:113,1,124.5,6|0,1:2|0:0,0:0:0:0:
358,67,10369,5,8,0:0:0:0:
358,67,10524,1,0,1:0:0:0:
473,86,10679,5,8,0:0:0:0:
473,86,10835,1,0,1:0:0:0:
345,190,10990,6,0,P|302:196|253:205,1,83,8|0,0:0|1:0,0:0:0:0:
70,310,11301,5,8,0:0:0:0:
70,310,11457,1,0,1:0:0:0:
200,271,11612,5,8,0:0:0:0:
200,271,11768,1,0,1:0:0:0:
115,224,11922,5,8,0:0:0:0:
115,224,12078,1,0,1:0:0:0:
154,355,12234,5,8,0:0:0:0:
200,271,12389,1,8,0:0:0:0:
70,310,12545,6,0,L|36:319,1,33.2
504,62,15032,6,0,P|450:49|388:43,1,116.199996453858,0|0,1:2|1:0,0:0:0:0:
308,12,15498,2,0,P|280:25|254:41,1,58.0999982269288,0|0,1:0|1:0,0:0:0:0:
228,128,15809,2,0,P|225:166|241:190,1,58.0999982269288,0|0,1:0|1:0,0:0:0:0:
234,182,16120,1,0,1:0:0:0:
344,232,16275,2,0,P|344:164|376:125,2,116.199996453858,0|0|0,1:0|1:0|1:2,0:0:0:0:
145,343,17208,5,0,1:0:0:0:
76,299,17363,1,0,0:0:0:0:
31,367,17519,2,0,P|36:306|-1:257,1,116.199996453858,0|0,1:2|1:0,0:0:0:0:
125,153,17985,1,0,1:0:0:0:
125,153,18141,2,0,P|120:214|157:263,1,116.199996453858,0|0,1:0|1:0,0:0:0:0:
218,337,18607,1,0,1:0:0:0:
297,355,18762,6,0,P|327:349|354:337,1,58.0999982269288,0|0,1:2|0:0,0:0:0:0:
389,246,19073,2,0,P|383:215|371:189,1,58.0999982269288,0|0,1:0|1:0,0:0:0:0:
473,355,19384,2,0,P|489:297|500:227,1,116.199996453858,0|0,1:0|1:0,0:0:0:0:
434,130,19850,1,0,1:0:0:0:
434,130,20006,2,0,P|418:72|407:2,2,116.199996453858,0|0|0,1:0|1:0|1:0,0:0:0:0:
213,55,20939,5,2,1:2:0:0:
143,106,21094,1,0,1:0:0:0:
72,55,21249,2,0,P|39:91|53:167,1,116.199996453858,2|0,1:2|1:0,0:0:0:0:
128,244,21716,1,0,1:0:0:0:
128,244,21871,2,0,P|96:236|68:232,1,58.0999982269288,2|0,1:2|1:0,0:0:0:0:
211,174,22182,2,0,P|219:142|223:114,1,58.0999982269288,2|0,1:2|1:0,0:0:0:0:
284,287,22493,2,0,P|347:302|402:310,1,116.199996453858,2|2,1:2|1:2,0:0:0:0:
397,310,23115,5,2,1:2:0:0:
480,270,23270,1,0,1:0:0:0:
404,219,23426,1,2,1:2:0:0:
404,219,23581,1,0,1:0:0:0:
294,302,23736,6,0,P|230:286|175:278,1,116.199996453858,2|0,1:2|1:0,0:0:0:0:
114,204,24203,1,2,1:2:0:0:
26,270,24358,1,2,1:2:0:0:
153,377,24514,2,0,P|164:331|169:292,1,87.1499973403931,12|0,0:0|0:0,0:0:0:0:
114,204,24825,5,8,0:0:0:0:
103,182,24902,1,8,0:0:0:0:
109,158,24980,2,0,P|118:95|54:46,1,149.399995440674,6|8,1:2|0:0,0:0:0:0:
23,186,25446,2,0,P|72:176|94:145,1,74.699997720337,2|2,0:0|1:2,0:0:0:0:
195,26,25757,1,2,0:0:0:0:
268,86,25913,1,10,0:0:0:0:
268,86,26068,1,2,0:0:0:0:
293,198,26223,6,0,P|297:233|298:273,1,74.699997720337,2|0,1:2|0:2,0:2:0:0:
268,86,26534,2,0,P|303:81|343:80,1,74.699997720337,10|0,0:2|0:2,0:2:0:0:
155,110,26845,2,0,P|150:74|149:34,1,74.699997720337,2|0,1:2|1:0,0:0:0:0:
181,223,27156,2,0,B|144:248|99:231|99:231|65:236,1,112.049996580505,10|0,0:2|0:0,0:0:0:0:
0,177,27467,6,0,P|-8:120|47:49,1,149.399995440674,2|8,1:2|0:0,0:0:0:0:
168,121,27933,1,2,0:0:0:0:
268,86,28089,2,0,P|303:81|343:80,2,74.699997720337,2|0|8,1:2|0:0|0:0,0:0:0:0:
181,223,28555,1,2,0:0:0:0:
298,272,28711,6,0,P|298:234|293:198,1,74.699997720337,2|0,1:2|0:0,0:0:0:0:
196,349,29021,1,8,0:0:0:0:
282,289,29177,1,2,0:0:0:0:
188,245,29332,2,0,P|150:245|113:250,1,74.699997720337,2|0,1:2|0:0,0:0:0:0:
196,349,29643,1,8,0:0:0:0:
193,268,29799,1,2,0:0:0:0:
265,305,29954,6,0,P|265:342|270:379,1,74.699997720337,2|0,1:2|0:0,0:0:0:0:
410,269,30265,2,0,P|409:231|404:194,1,74.699997720337,8|0,0:0|0:0,0:0:0:0:
319,134,30576,2,0,B|290:157|290:157|251:154,1,74.699997720337,0|0,1:0|0:0,0:0:0:0:
82,31,30887,2,0,B|125:-3|125:-3|184:0,1,112.049996580505,10|0,0:0|0:0,0:0:0:0:
239,54,31198,6,0,P|216:94|211:131,1,74.699997720337,2|0,1:2|0:0,0:0:0:0:
419,191,31508,2,0,P|437:148|438:111,1,74.699997720337,10|0,0:0|0:0,0:0:0:0:
211,121,31819,6,0,P|217:166|236:198,1,74.699997720337,2|0,1:2|1:0,0:0:0:0:
439,120,32130,2,0,P|428:75|406:44,1,74.699997720337,10|0,0:0|0:0,0:0:0:0:
230,191,32441,6,0,P|262:223|297:237,1,74.699997720337,2|0,1:2|0:0,0:0:0:0:
413,51,32752,2,0,P|377:21|342:10,1,74.699997720337,10|0,0:2|0:0,0:0:0:0:
288,235,33063,6,0,P|333:241|369:232,1,74.699997720337,2|0,1:2|0:0,0:0:0:0:
351,11,33374,2,0,P|304:8|269:21,1,74.699997720337,8|0,0:0|0:0,0:0:0:0:
361,235,33685,6,0,P|401:212|424:183,1,74.699997720337,2|0,1:2|0:0,0:0:0:0:
277,16,33996,2,0,P|238:41|218:72,1,74.699997720337,8|2,0:0|0:0,0:0:0:0:
419,191,34306,5,0,1:0:0:0:
221,63,34462,1,8,0:0:0:0:
321,127,34617,1,12,0:0:0:0:
419,191,34928,5,2,0:0:0:0:
419,191,44721,5,0,0:0:0:0:
419,190,44876,2,0,P|426:125|438:59,1,132.8,6|0,1:2|1:0,0:0:0:0:
364,8,45343,5,0,0:0:0:0:
429,65,45498,2,0,P|417:131|410:196,1,132.8,2|2,1:2|1:2,0:0:0:0:
341,254,45964,5,0,0:0:0:0:
276,197,46120,2,0,P|283:132|295:66,1,132.8,2|0,1:2|1:0,0:0:0:0:
221,15,46586,5,2,0:0:0:0:
286,72,46741,2,0,P|274:138|267:203,1,132.8,2|2,1:2|1:2,0:0:0:0:
484,247,47208,5,0,1:0:0:0:
398,297,47363,2,0,P|367:281|326:283,1,66.4,2|0,1:2|1:0,0:0:0:0:
234,384,47674,2,0,B|214:357|214:357|218:324,1,66.4,2|0,1:2|1:0,0:0:0:0:
336,280,47985,2,0,B|340:247|340:247|320:220,1,66.4,2|0,1:2|1:0,0:0:0:0:
191,163,48296,2,0,B|172:137|172:137|176:104,1,66.4,2|0,1:2|1:0,0:0:0:0:
278,0,48607,6,0,B|297:26|297:26|293:59,1,66.4,2|0,1:2|0:0,0:0:0:0:
176,104,48918,2,0,B|172:137|172:137|191:163,1,66.4,2|0,1:2|1:0,0:0:0:0:
320,220,49229,2,0,B|340:247|340:247|336:280,1,66.4,2|0,1:2|1:0,0:0:0:0:
218,324,49540,2,0,B|214:357|214:357|234:384,1,66.4,2|0,1:2|1:0,0:0:0:0:
349,266,49850,6,0,P|418:245|492:229,2,132.8,2|0|0,1:2|1:0|1:0,0:0:0:0:
349,266,50783,2,0,P|305:230|319:177,1,99.6,2|0,1:2|0:0,0:0:0:0:
325,181,51094,1,0,1:0:0:0:
250,126,51249,1,2,1:2:0:0:
351,51,51405,2,0,P|337:108|325:182,2,132.8,2|0|2,1:2|1:2|1:2,0:0:0:0:
281,0,52182,5,0,1:0:0:0:
351,51,52337,1,2,1:2:0:0:
243,141,52493,6,0,P|231:125|224:103,3,41.5,8|8|8|8,0:0|0:0|0:0|0:0,0:0:0:0:
256,150,52804,1,8,0:0:0:0:
146,253,52959,6,0,P|126:255|103:250,3,41.5,10|8|8|8,0:0|0:0|0:0|0:0,0:0:0:0:
160,246,53270,1,8,0:0:0:0:
279,275,53426,6,0,B|302:274|302:274|325:286,2,41.5,8|8|2,0:0|0:0|1:2,0:0:0:0:
146,253,53736,6,0,P|126:255|103:250,1,41.5,8|8,0:0|0:0,0:0:0:0:
35,203,53892,2,0,P|23:187|16:165,2,41.5,8|8|10,0:0|0:0|0:0,0:0:0:0:
105,250,54203,5,10,0:0:0:0:
129,60,54358,5,8,0:0:0:0:
97,32,54435,1,8,0:0:0:0:
61,52,54513,1,8,0:0:0:0:
70,95,54591,1,8,0:0:0:0:
112,99,54669,2,0,P|129:93|147:90,1,33.2,8|8,0:0|0:0,0:0:0:0:
315,183,55135,6,0,B|325:188|327:201|327:201|319:198|317:191,1,37.3499988601685,0|0,1:0|0:0,0:0:0:0:
243,141,55446,6,0,B|233:146|221:142|221:142|226:137|234:139,1,37.3499988601685,0|0,1:0|0:0,0:0:0:0:
315,101,55757,6,0,B|314:89|324:80|324:80|326:89|321:94,1,37.3499988601685,0|0,1:0|0:0,0:0:0:0:
317,191,56068,5,6,1:2:0:0:
234,139,56223,1,0,0:0:0:0:
321,94,56379,2,0,L|424:106,1,87.1499973403932,10|0,0:0|0:0,0:0:0:0:
231,237,56690,5,2,1:2:0:0:
317,191,56845,1,0,1:0:0:0:
234,139,57001,2,0,L|147:128,1,87.1499973403932,8|0,0:0|0:0,0:0:0:0:
5,0,57312,6,0,P|-13:61|28:116,1,130.72499601059,2|0,1:2|0:0,0:0:0:0:
91,75,57622,1,8,0:0:0:0:
18,201,57778,1,0,0:0:0:0:
18,201,57856,1,8,0:0:0:0:
18,201,57933,1,0,1:0:0:0:
164,201,58089,1,0,1:0:0:0:
96,257,58244,2,0,P|60:309|78:370,1,130.72499601059,8|0,0:0|0:0,0:0:0:0:
100,364,58555,6,0,P|191:344|287:333,1,174.299994680786,2|10,1:2|1:2,0:0:0:0:
360,286,59021,1,0,0:0:0:0:
360,286,59099,1,0,0:0:0:0:
360,286,59177,1,2,1:2:0:0:
272,241,59332,1,0,1:0:0:0:
358,377,59488,6,0,B|387:334|354:277|354:277|346:235|383:211,1,174.299994680786,10|2,0:0|1:2,0:0:0:0:
375,216,60109,1,8,0:0:0:0:
443,134,60265,1,2,0:0:0:0:
443,134,60343,1,0,0:0:0:0:
443,134,60420,2,0,B|454:91|454:91|423:51,1,87.1499973403932,2|2,1:2|0:0,0:0:0:0:
256,164,60731,2,0,B|245:207|245:207|271:240,1,87.1499973403932,10|2,0:0|0:0,0:0:0:0:
348,335,61042,5,4,1:2:0:0:
348,335,61198,2,0,B|381:330|381:330|432:323,1,83,2|8,0:0|0:0,0:0:0:0:
510,342,61508,1,2,0:0:0:0:
265,323,61664,5,0,1:0:0:0:
265,323,61819,2,0,B|298:328|298:328|349:335,1,83,2|8,1:2|0:0,0:0:0:0:
430,323,62130,1,2,0:0:0:0:
182,334,62286,5,2,1:2:0:0:
182,334,62441,2,0,B|215:329|215:329|266:322,1,83,2|8,0:0|0:0,0:0:0:0:
347,334,62752,1,2,0:0:0:0:
99,322,62907,6,0,B|132:327|132:327|183:334,1,83,0|0,1:0|1:0,0:0:0:0:
179,196,63218,2,0,B|129:202|129:202|96:207,1,83,8|2,0:0|0:0,0:0:0:0:
264,322,63529,1,2,1:2:0:0:
316,246,63685,6,0,P|314:225|307:202,3,41.5,8|8|8|0,0:0|0:0|0:0|1:0,0:0:0:0:
290,190,63996,1,0,1:0:0:0:
173,137,64151,6,0,P|153:143|133:145,3,41.5,8|8|8|8,0:0|0:0|0:0|0:0,0:0:0:0:
104,132,64462,1,0,1:0:0:0:
15,63,64617,6,0,L|3:14,2,41.5,8|8|0,0:0|0:0|1:0,0:0:0:0:
104,132,64928,5,0,1:0:0:0:
110,147,65005,1,0,1:0:0:0:
109,163,65084,2,0,P|102:193|100:212,3,41.5,8|8|8|8,0:0|0:0|0:0|0:0,0:0:0:0:
20,297,65394,6,0,L|59:286,3,41.5,8|8|8|8,0:0|0:0|0:0|0:0,0:0:0:0:
153,304,65705,1,8,0:0:0:0:
163,274,65782,1,8,0:0:0:0:
184,252,65860,1,8,0:0:0:0:
212,240,65938,1,8,0:0:0:0:
243,241,66015,5,12,1:2:0:0:
324,184,66172,1,2,0:0:0:0:
234,147,66327,2,0,B|208:100|208:100|248:116,1,87.1499973403932,8|0,0:0|0:0,0:0:0:0:
405,243,66638,5,0,1:0:0:0:
324,184,66793,1,0,1:0:0:0:
414,147,66950,2,0,B|438:101|438:101|400:116,1,87.1499973403932,10|0,0:0|0:0,0:0:0:0:
219,158,67260,6,0,L|76:182,1,130.72499601059,2|0,1:2|0:0,0:0:0:0:
29,135,67571,2,0,P|12:139|31:132,1,87.1499973403932,10|0,0:0|0:0,0:0:0:0:
108,190,67882,1,2,1:2:0:0:
54,264,68037,1,0,1:0:0:0:
147,275,68192,1,10,0:0:0:0:
227,165,68348,5,0,0:0:0:0:
227,165,68426,1,0,0:0:0:0:
227,165,68503,2,0,P|216:83|271:17,1,174.299994680786,6|8,1:2|0:0,0:0:0:0:
442,71,68970,2,0,P|453:153|397:218,1,174.299994680786,6|0,1:2|1:2,1:2:0:0:
329,157,69436,1,8,0:0:0:0:
242,262,69591,6,0,P|331:243|415:229,1,174.299994680786,4|0,1:2|0:0,0:0:0:0:
204,343,70058,2,0,P|163:304|164:228,1,130.72499601059,8|0,0:0|0:0,0:0:0:0:
221,159,70369,1,10,0:0:0:0:
235,143,70446,1,8,0:0:0:0:
253,152,70524,1,8,0:0:0:0:
251,173,70602,1,8,0:0:0:0:
230,176,70679,2,0,P|209:158|187:150,3,43.5749986701966,10|0|8|8,0:0|0:0|0:0|0:0,0:0:0:0:
126,114,70990,6,0,P|67:135|0:149,1,130.72499601059,6|0,1:2|0:0,0:0:0:0:
4,71,71301,2,0,B|-14:51|-7:20|-7:20|6:35|26:45,1,87.1499973403932,10|2,0:0|1:2,0:0:0:0:
111,205,71612,2,0,B|102:230|72:240|72:240|78:221|77:198,1,87.1499973403932,8|2,0:0|1:2,0:0:0:0:
174,45,71923,2,0,B|200:39|223:60|223:60|204:64|185:77,1,87.1499973403932,10|2,0:0|1:2,0:0:0:0:
1,149,72234,6,0,P|54:134|91:126,1,87.1499973403932,8|0,0:0|1:0,0:0:0:0:
22,338,72545,2,0,P|7:285|-1:248,1,87.1499973403932,10|2,0:0|1:2,0:0:0:0:
211,317,72856,2,0,P|158:332|121:340,1,87.1499973403932,8|0,0:0|0:0,0:0:0:0:
190,128,73166,2,0,P|205:181|213:218,1,87.1499973403932,10|2,0:0|1:2,0:0:0:0:
455,288,73477,6,0,P|427:187|412:119,1,174.299994680786,4|8,1:2|0:0,0:0:0:0:
434,27,73944,1,0,1:0:0:0:
511,100,74099,1,8,0:0:0:0:
511,100,74255,1,0,1:0:0:0:
340,56,74410,2,0,B|305:82|305:82|253:79,1,87.1499973403932,8|0,0:0|1:0,0:0:0:0:
244,64,74643,1,0,0:0:0:0:
226,49,74721,6,0,B|191:23|191:23|139:26,1,87.1499973403932,8|0,0:0|1:0,0:0:0:0:
26,101,75032,2,0,P|20:146|36:182,1,87.1499973403932,8|0,0:0|1:0,0:0:0:0:
237,246,75343,2,0,P|243:202|227:165,1,87.1499973403932,10|0,0:0|1:0,0:0:0:0:
98,323,75654,2,0,B|126:290|172:307|172:307|196:334|237:334,1,130.72499601059,10|0,0:0|0:0,0:0:0:0:
230,336,75964,6,0,P|308:316|411:301,1,174.299994680786,4|0,1:2|1:2,1:2:0:0:
455,240,76431,5,8,0:0:0:0:
471,150,76586,5,8,0:0:0:0:
422,62,76742,5,8,0:0:0:0:
321,23,76897,5,8,0:0:0:0:
211,64,77053,5,8,0:0:0:0:
163,189,77208,5,8,0:0:0:0:
163,189,77363,1,8,0:0:0:0:
302,364,77830,6,0,P|306:337|312:310,1,41.5,8|0,0:0|0:0,0:0:0:0:
308,323,77985,1,8,0:0:0:0:
308,323,78451,6,0,P|271:351|216:346,1,83,6|0,1:2|1:0,0:0:0:0:
143,244,78762,2,0,P|180:216|235:221,1,83,8|2,0:0|0:0,0:0:0:0:
215,214,78996,1,8,0:0:0:0:
215,214,79073,1,0,1:0:0:0:
303,169,79229,1,0,1:0:0:0:
221,121,79384,1,0,0:0:0:0:
132,261,79540,6,0,B|91:228|38:245|38:245|3:285|24:327,1,166,8|0,0:0|1:0,0:0:0:0:
107,361,80006,2,0,P|148:349|193:343,1,83,8|2,0:0|0:0,0:0:0:0:
187,343,80239,1,0,0:0:0:0:
187,343,80317,1,0,0:0:0:0:
132,261,80472,1,0,1:0:0:0:
256,192,80628,2,0,L|302:203,3,41.5,8|8|8|8,0:0|0:0|0:0|0:0,0:0:0:0:
335,208,80939,6,0,B|357:172|357:172|351:131,1,83,6|0,1:2|1:0,0:0:0:0:
213,44,81249,2,0,B|191:80|191:80|197:121,1,83,8|2,0:0|0:0,0:0:0:0:
196,120,81483,1,8,0:0:0:0:
196,120,81560,1,0,1:0:0:0:
256,192,81716,1,0,1:0:0:0:
174,203,81871,1,0,0:0:0:0:
41,139,82027,6,0,B|7:176|7:176|61:136|122:140,1,166,8|0,0:0|1:2,0:0:0:0:
256,192,82493,1,8,0:0:0:0:
338,148,82648,2,0,B|387:110|387:110|463:122,1,124.5,2|0,1:2|0:0,0:0:0:0:
459,136,82959,2,0,B|445:156|445:156|441:183,1,41.5,8|8,0:0|0:0,0:0:0:0:
343,251,83115,1,8,0:0:0:0:
346,271,83192,1,8,0:0:0:0:
350,291,83270,1,8,0:0:0:0:
363,308,83348,1,0,0:0:0:0:
375,324,83426,6,0,L|460:309,1,83,6|0,1:2|0:0,0:0:0:0:
265,241,83736,2,0,L|183:255,1,83,8|2,0:0|0:0,0:0:0:0:
183,255,83970,1,8,0:0:0:0:
183,255,84047,1,0,1:0:0:0:
118,318,84203,1,0,1:0:0:0:
104,228,84358,1,2,0:0:0:0:
262,384,84514,6,0,L|279:207,1,166,10|2,0:0|1:2,0:0:0:0:
447,120,84980,1,8,0:0:0:0:
512,172,85135,2,0,L|335:155,1,166,2|0,0:0|1:0,0:0:0:0:
197,94,85602,2,0,L|153:102,3,41.5,8|8|8|8,0:0|0:0|0:0|0:0,0:0:0:0:
110,105,85913,6,0,B|96:79|96:79|101:42,2,55.3333333333333,14|2|2,1:2|0:0|0:0,0:0:0:0:
190,175,86223,6,0,B|204:149|204:149|199:112,2,55.3333333333333,10|0|0,0:0|0:0|0:0,0:0:0:0:
82,234,86534,6,0,B|63:210|63:210|62:173,2,55.3333333333333,10|2|2,2:0|2:0|2:0,0:0:0:0:
233,289,86845,6,0,B|251:265|251:265|252:228,2,55.3333333333333,10|2|2,2:0|2:0|2:0,0:0:0:0:
88,348,87156,6,0,B|51:315|51:315|104:328,1,83,8|2,0:0|0:0,0:0:0:0:
253,384,87467,1,8,0:0:0:0:
324,311,87622,2,0,B|393:266|393:266|491:278,1,166,0|2,0:0|1:2,0:0:0:0:
390,384,88089,1,10,0:0:0:0:
233,289,88244,2,0,B|196:284|196:284|179:304|179:304|135:297,1,99.5999969604493,8|0,0:0|0:0,0:0:0:0:
143,298,89643,6,0,P|102:237|125:183,1,116.199996453858,0|0,1:0|1:0,0:0:0:0:
192,164,90109,1,0,0:0:0:0:
192,164,90265,2,0,L|201:96,1,58.0999982269288,0|0,1:0|1:2,0:0:0:0:
125,50,90576,2,0,L|117:107,1,58.0999982269288,0|0,1:0|1:0,0:0:0:0:
204,176,90887,2,0,P|259:156|330:144,2,116.199996453858,0|0|0,1:2|1:2|1:0,0:2:0:0:
424,252,91819,5,0,1:0:0:0:
480,312,91975,1,0,1:0:0:0:
400,327,92130,2,0,P|345:307|274:295,1,116.199996453858,0|0,1:0|1:0,0:0:0:0:
138,235,92597,1,0,1:0:0:0:
138,235,92752,2,0,B|111:290|111:290|160:257,1,116.199996453858,0|0,1:0|1:0,0:0:0:0:
247,162,93218,5,0,1:0:0:0:
247,162,93374,2,0,B|240:127|240:127|257:80|230:40,1,116.199996453858,0|0,1:0|1:0,0:0:0:0:
115,21,93840,1,0,1:0:0:0:
115,21,93996,2,0,P|139:8|174:12,1,58.0999982269288,0|0,1:0|1:0,0:0:0:0:
94,149,94306,2,0,P|76:117|74:85,1,58.0999982269288,0|0,1:0|1:0,0:0:0:0:
247,162,94617,2,0,B|311:149|306:195|363:182,1,116.199996453858,0|0,1:0|1:0,0:0:0:0:
423,124,95084,1,0,0:0:0:0:
423,124,95239,1,0,1:0:0:0:
309,315,95550,5,2,1:2:0:0:
234,282,95705,1,0,1:0:0:0:
175,339,95861,2,0,P|119:349|43:372,1,116.199996453858,2|2,1:2|1:2,0:0:0:0:
93,271,96327,1,0,1:0:0:0:
93,271,96483,2,0,P|79:245|78:216,1,58.0999982269288,2|0,1:2|1:0,0:0:0:0:
180,149,96793,2,0,P|193:174|194:203,1,58.0999982269288,2|0,1:2|1:0,0:0:0:0:
32,116,97104,6,0,B|6:91|6:91|46:109|86:111,1,116.199996453858,2|2,1:2|1:2,0:0:0:0:
159,55,97571,1,0,1:0:0:0:
159,55,97726,2,0,P|188:46|231:38,1,58.0999982269288,2|0,1:2|1:0,0:0:0:0:
194,205,98037,2,0,P|185:176|177:133,1,58.0999982269288,2|0,1:2|1:0,0:0:0:0:
320,7,98348,6,0,P|304:55|291:127,1,116.199996453858,2|0,1:2|1:0,0:0:0:0:
331,205,98814,1,2,1:2:0:0:
384,122,98970,1,2,1:2:0:0:
215,40,99125,2,0,P|186:32|125:19,1,87.1499973403931,10|0,0:0|0:0,0:0:0:0:
42,76,99436,5,8,0:0:0:0:
39,95,99513,1,8,0:0:0:0:
54,105,99591,2,0,P|86:140|81:174,1,74.699997720337,6|0,1:2|0:0,0:0:0:0:
18,307,99902,2,0,P|32:261|64:249,1,74.699997720337,10|0,0:0|0:0,0:0:0:0:
203,305,100213,1,2,1:2:0:0:
143,234,100369,1,0,0:0:0:0:
112,322,100524,1,8,0:0:0:0:
112,322,100679,1,2,0:0:0:0:
234,217,100835,6,0,P|239:178|246:138,1,74.699997720337,2|0,1:2|0:0,0:0:0:0:
392,297,101146,2,0,P|397:258|404:218,1,74.699997720337,10|0,0:0|0:0,0:0:0:0:
331,109,101457,2,0,P|336:70|343:30,1,74.699997720337,0|0,1:2|0:0,0:0:0:0:
245,143,101768,1,10,0:0:0:0:
186,77,101923,1,2,0:0:0:0:
215,225,102078,6,0,B|143:207|159:279|75:258,1,149.399995440674,2|8,1:2|0:0,0:0:0:0:
0,351,102545,1,2,0:0:0:0:
97,351,102700,2,0,P|133:358|172:363,2,74.699997720337,2|0|8,1:2|0:0|0:0,0:0:0:0:
215,225,103166,1,2,0:0:0:0:
300,286,103322,6,0,P|293:322|288:361,1,74.699997720337,2|0,1:2|0:0,0:0:0:0:
354,161,103633,1,8,0:0:0:0:
305,273,103788,1,2,0:0:0:0:
229,220,103944,2,0,P|193:213|154:208,1,74.699997720337,2|0,1:2|0:0,0:0:0:0:
242,217,104255,1,8,0:0:0:0:
309,261,104410,1,2,0:0:0:0:
349,173,104565,6,0,P|356:137|361:98,1,74.699997720337,2|0,1:2|0:0,0:0:0:0:
199,19,104876,2,0,P|194:56|187:92,1,74.699997720337,8|0,0:0|0:0,0:0:0:0:
80,128,105187,2,0,P|43:132|8:172,1,74.699997720337,0|0,1:0|0:0,0:0:0:0:
115,301,105498,2,0,P|173:284|229:271,1,112.049996580505,10|0,0:0|0:0,0:0:0:0:
293,323,105809,6,0,B|283:367|283:367|308:348,1,74.699997720337,2|0,1:2|0:0,0:0:0:0:
262,118,106120,2,0,B|237:79|237:79|233:110,1,74.699997720337,10|0,0:2|0:0,0:0:0:0:
378,311,106431,6,0,B|402:349|402:349|406:318,1,74.699997720337,2|0,1:2|0:0,0:0:0:0:
211,187,106742,2,0,B|167:177|167:177|186:202,1,74.699997720337,10|0,0:2|0:0,0:0:0:0:
429,241,107053,6,0,B|473:251|473:251|453:226,1,74.699997720337,2|0,1:2|0:0,0:0:0:0:
223,272,107363,2,0,B|184:296|184:296|215:300,1,74.699997720337,10|0,0:0|0:0,0:0:0:0:
416,156,107674,6,0,B|454:131|454:131|423:127,1,74.699997720337,2|0,1:2|0:0,0:0:0:0:
293,323,107985,2,0,B|283:367|283:367|308:348,1,74.699997720337,10|0,0:0|0:0,0:0:0:0:
347,105,108296,6,0,B|357:61|357:61|332:80,1,74.699997720337,2|0,1:2|0:0,0:0:0:0:
262,118,108529,1,0,0:0:0:0:
262,118,108607,2,0,B|237:79|237:79|233:110,1,74.699997720337,8|2,0:0|0:0,0:0:0:0:
429,241,108918,5,0,1:0:0:0:
211,187,109073,1,8,0:0:0:0:
320,214,109229,1,4,1:2:0:0:
429,241,109540,5,2,0:0:0:0:
240,81,114358,5,2,0:0:0:0:
240,81,114436,1,2,0:0:0:0:
240,81,114514,2,0,B|161:59|168:130|78:104,2,149.399995440674,2|0|0,0:0|0:0|0:0,0:0:0:0:
337,151,115757,2,0,B|360:128|397:133|397:133|421:145|439:148,2,99.5999969604493
231,198,116690,1,0,0:0:0:0:
231,198,117001,2,0,B|251:171|251:137|163:147|175:231|255:224|243:302,2,199.199993920899,2|2|0,0:0|0:0|1:0,0:0:0:0:
159,298,118555,2,0,P|110:293|53:291,2,99.5999969604493,0|0|0,1:0|1:0|1:0,0:0:0:0:
235,202,119332,5,0,0:0:0:0:
235,202,119488,2,0,B|200:134|269:140|237:76,1,132.8,6|2,1:2|1:2,0:0:0:0:
148,49,119954,5,2,1:2:0:0:
228,74,120109,2,0,B|260:138|191:132|226:200,1,132.8,2|0,1:2|1:0,0:0:0:0:
200,285,120576,5,0,1:0:0:0:
121,261,120731,2,0,B|86:193|155:199|123:135,1,132.8,2|0,1:2|1:0,0:0:0:0:
36,108,121198,5,2,1:2:0:0:
116,133,121353,2,0,B|148:197|79:191|114:259,1,132.8,2|0,1:2|1:0,0:0:0:0:
314,226,121819,5,0,1:0:0:0:
381,172,121975,2,0,P|422:157|450:151,1,66.4,2|0,1:2|1:0,0:0:0:0:
395,262,122286,2,0,P|438:269|465:278,1,66.4,2|0,1:2|1:0,0:0:0:0:
320,319,122597,2,0,P|353:347|372:368,1,66.4,2|0,1:2|1:0,0:0:0:0:
234,121,122907,2,0,P|265:108|298:100,1,66.4,2|0,1:2|1:0,0:0:0:0:
174,268,123218,6,0,P|207:296|226:317,1,66.4,2|0,1:2|0:0,0:0:0:0:
368,363,123529,2,0,P|345:339|320:319,1,66.4,2|2,1:2|1:2,0:0:0:0:
459,276,123840,2,0,P|427:267|394:262,1,66.4,2|0,1:2|1:0,0:0:0:0:
444,151,124151,2,0,P|411:159|380:172,1,66.4,2|0,1:2|1:0,0:0:0:0:
222,312,124462,6,0,P|158:302|85:295,2,132.8,2|0|0,1:2|1:0|1:0,0:0:0:0:
110,209,125394,2,0,P|96:158|125:122,1,99.6,2|0,1:2|0:0,0:0:0:0:
142,118,125705,1,2,1:2:0:0:
95,41,125861,1,2,1:2:0:0:
234,102,126016,2,0,B|272:124|317:114|317:114|344:85|372:86,2,132.8,0|0|2,1:2|1:2|1:2,0:0:0:0:
186,17,126793,5,0,1:0:0:0:
234,102,126949,1,2,1:2:0:0:
151,229,127104,6,0,P|145:254|143:280,3,41.5,8|8|8|8,0:0|0:0|0:0|0:0,0:0:0:0:
156,291,127415,1,10,0:2:0:0:
291,355,127571,6,0,P|316:361|342:363,3,41.5,8|8|8|8,0:0|0:0|0:0|0:0,0:0:0:0:
353,350,127882,1,8,0:0:0:0:
166,384,128037,6,0,P|140:378|115:376,2,41.5,8|8|14,0:0|0:0|0:0,0:0:0:0:
151,229,128348,6,0,P|145:254|143:280,1,41.5,8|8,0:0|0:0,0:0:0:0:
43,313,128503,2,0,P|49:288|51:262,2,41.5,8|8|8,0:0|0:0|0:0,0:0:0:0:
143,269,128814,5,0,1:0:0:0:
292,169,128970,5,8,0:0:0:0:
273,137,129047,1,8,0:0:0:0:
237,145,129125,1,8,0:0:0:0:
234,181,129203,1,8,0:0:0:0:
268,196,129280,2,0,L|302:186,1,33.2,8|8,0:0|0:0,0:0:0:0:
103,182,129747,6,0,B|58:170|60:123|60:123|89:133|83:157,1,112.049996580505,0|0,1:0|0:0,0:0:0:0:
143,269,130058,6,0,B|155:313|113:335|113:335|108:305|131:298,1,112.049996580505,0|0,1:0|0:0,0:0:0:0:
198,190,130369,6,0,B|230:157|270:182|270:182|246:201|229:185,1,112.049996580505,0|0,1:0|0:0,0:0:0:0:
103,182,130679,5,6,1:2:0:0:
143,269,130835,1,0,0:0:0:0:
198,190,130990,2,0,P|202:143|209:101,1,87.1499973403932,10|0,0:0|0:0,0:0:0:0:
336,290,131301,5,2,1:2:0:0:
296,203,131457,1,2,1:2:0:0:
241,282,131612,2,0,P|237:329|230:371,1,87.1499973403932,8|0,0:0|0:0,0:0:0:0:
390,206,131923,6,0,P|396:135|406:72,1,130.72499601059,2|0,1:2|1:0,0:2:0:0:
348,13,132234,1,10,0:0:0:0:
258,128,132389,1,0,1:0:0:0:
258,128,132467,1,0,0:0:0:0:
258,128,132545,1,2,1:2:0:0:
118,74,132700,1,0,1:0:0:0:
47,139,132856,2,0,B|23:166|36:205|36:205|67:230|70:258,1,130.72499601059,10|0,0:0|0:0,0:0:0:0:
68,275,133166,6,0,B|97:257|133:263|133:263|148:270|148:270|204:292|255:287,1,174.299994680786,2|10,1:2|0:0,0:0:0:0:
325,229,133633,1,0,0:0:0:0:
325,229,133711,1,0,0:0:0:0:
325,229,133788,1,0,1:2:0:0:
227,188,133944,1,0,0:0:0:0:
334,336,134099,2,0,B|363:354|399:348|399:348|414:341|414:341|470:319|521:324,1,174.299994680786,8|2,0:0|1:2,0:0:0:0:
502,322,134721,5,8,0:0:0:0:
454,242,134876,1,2,0:0:0:0:
454,242,134954,1,0,0:0:0:0:
454,242,135032,2,0,B|459:208|459:208|466:193|466:193|474:147,1,87.1499973403932,2|2,1:2|1:2,0:0:0:0:
278,191,135343,2,0,B|271:226|271:226|264:241|264:241|259:275,1,87.1499973403932,10|2,0:2|1:2,0:0:0:0:
334,336,135654,5,4,0:0:0:0:
334,336,135809,2,0,B|367:314|367:314|414:318,1,83,2|8,0:0|0:0,0:0:0:0:
259,275,136120,1,2,0:0:0:0:
471,242,136275,5,0,1:2:0:0:
471,242,136430,2,0,B|449:209|449:209|453:162,1,83,2|8,1:2|0:0,0:0:0:0:
410,317,136741,1,2,0:0:0:0:
377,104,136897,5,0,1:0:0:0:
377,104,137052,2,0,B|344:126|344:126|297:122,1,83,2|8,1:2|0:0,0:0:0:0:
452,165,137363,1,2,0:0:0:0:
239,197,137519,6,0,B|261:230|261:230|257:277,1,83,2|2,1:2|1:2,0:0:0:0:
334,336,137830,2,0,B|367:314|367:314|414:318,1,83,10|2,0:0|0:0,0:0:0:0:
452,165,138141,5,2,1:2:0:0:
377,104,138296,2,0,L|370:63,3,41.5,8|8|8|8,0:0|0:0|0:0|0:0,0:0:0:0:
365,38,138607,1,0,1:0:0:0:
232,77,138762,6,0,L|225:36,3,41.5,8|8|8|8,0:0|0:0|0:0|0:0,0:0:0:0:
220,11,139073,1,0,1:0:0:0:
109,146,139229,6,0,L|102:105,2,41.5,8|8|8,0:0|0:0|0:0,0:0:0:0:
228,205,139540,5,8,0:0:0:0:
228,205,139617,1,8,0:0:0:0:
228,205,139695,2,0,L|240:244,3,41.5,8|8|8|8,0:0|0:0|0:0|0:0,0:0:0:0:
281,354,140006,6,0,L|242:366,3,41.5,8|8|8|8,0:0|0:0|0:0|0:0,0:0:0:0:
141,351,140317,1,8,0:0:0:0:
125,324,140394,1,8,0:0:0:0:
99,307,140472,1,8,0:0:0:0:
68,304,140550,1,8,0:0:0:0:
39,314,140628,5,6,1:2:0:0:
0,217,140783,1,0,0:0:0:0:
87,159,140939,2,0,B|125:181|125:181|175:175,1,87.1499973403932,10|0,0:0|0:0,0:0:0:0:
216,21,141249,5,2,1:2:0:0:
255,118,141404,1,2,1:2:0:0:
168,176,141560,2,0,B|130:154|130:154|80:160,1,87.1499973403932,10|0,0:0|0:0,0:0:0:0:
276,115,141871,6,0,L|422:86,1,130.72499601059,2|0,1:2|0:0,0:0:0:0:
463,34,142182,2,0,B|475:22|475:22|495:55|495:55|488:85,1,87.1499973403932,10|0,0:2|0:0,0:0:0:0:
404,89,142415,1,0,0:0:0:0:
404,89,142493,1,2,1:2:0:0:
491,167,142648,1,0,1:0:0:0:
395,191,142804,1,10,0:0:0:0:
279,112,142959,5,0,0:0:0:0:
279,112,143037,1,0,0:0:0:0:
279,112,143115,2,0,B|236:93|236:137|192:118,2,87.1499973403932,4|0|8,0:0|1:0|0:0,0:0:0:0:
55,254,143581,2,0,B|55:209|96:181|133:185|133:185|158:206|193:213,1,174.299994680786,6|0,1:2|0:0,0:0:0:0:
196,119,144047,1,8,0:0:0:0:
133,8,144203,6,0,P|95:85|117:168,1,174.299994680786,6|0,1:2|0:0,0:0:0:0:
299,221,144669,2,0,B|348:201|389:240|389:240|432:248,1,130.72499601059,8|0,0:0|0:0,0:0:0:0:
485,186,144980,1,8,0:0:0:0:
496,167,145057,1,8,0:0:0:0:
499,146,145135,1,8,0:0:0:0:
495,125,145213,1,8,0:0:0:0:
482,107,145291,2,0,L|434:118,3,43.5749986701966,8|8|8|8,0:0|0:0|0:0|0:0,0:0:0:0:
366,58,145602,6,0,B|329:45|293:83|293:83|263:119|230:111,1,130.72499601059,12|0,0:0|0:0,0:0:0:0:
177,154,145913,6,0,B|160:131|166:93|166:93|138:67,1,87.1499973403932,10|2,0:0|1:2,0:0:0:0:
297,190,146223,2,0,B|325:186|355:210|355:210|391:199,1,87.1499973403932,8|2,0:0|1:2,0:0:0:0:
205,275,146534,2,0,B|193:301|157:315|157:315|149:352,1,87.1499973403932,10|2,0:0|1:2,0:0:0:0:
50,213,146845,6,0,P|95:219|142:233,1,87.1499973403932,8|0,0:0|1:2,0:0:0:0:
267,99,147156,2,0,P|312:93|359:79,1,87.1499973403932,10|2,0:0|1:2,0:0:0:0:
157,19,147467,2,0,P|133:63|139:106,1,87.1499973403932,8|0,0:0|1:0,0:0:0:0:
268,232,147778,2,0,P|292:276|286:319,1,87.1499973403932,10|2,0:0|1:2,0:0:0:0:
135,384,148089,6,0,P|143:270|151:201,1,174.299994680786,12|8,0:0|0:0,0:0:0:0:
117,111,148555,1,0,1:2:0:0:
51,189,148711,1,8,0:0:0:0:
51,189,148866,1,0,1:2:0:0:
225,125,149021,2,0,B|248:122|248:122|279:143|312:139,1,87.1499973403932,8|0,0:0|1:2,0:0:0:0:
334,131,149255,1,0,0:0:0:0:
355,116,149332,6,0,P|375:76|371:34,1,87.1499973403932,8|0,0:0|1:2,0:0:0:0:
211,154,149643,2,0,P|173:129|156:90,1,87.1499973403932,8|0,0:0|1:2,0:0:0:0:
423,173,149954,2,0,P|463:159|491:127,1,87.1499973403932,10|0,0:0|0:0,0:0:0:0:
179,237,150265,2,0,P|136:246|58:204,1,130.72499601059,10|0,0:0|0:0,0:0:0:0:
39,209,150576,6,0,P|71:275|184:294,1,174.299994680786,12|8,1:2|0:0,0:0:0:0:
238,344,151042,5,8,0:0:0:0:
334,349,151198,5,8,0:0:0:0:
417,286,151353,5,8,0:0:0:0:
442,176,151508,5,8,0:0:0:0:
380,69,151664,5,8,0:0:0:0:
252,43,151819,5,8,0:0:0:0:
252,43,151975,1,8,0:0:0:0:
54,184,152441,6,0,L|63:232,1,41.5,8|0,0:0|0:0,0:0:0:0:
61,224,152597,1,8,0:0:0:0:
407,337,152907,5,0,0:0:0:0:
407,337,152985,1,0,0:0:0:0:
407,337,153063,2,0,L|422:231,2,83,6|2|10,1:2|0:0|0:0,0:0:0:0:
260,258,153529,1,2,0:0:0:0:
260,258,153607,1,8,0:0:0:0:
260,258,153685,2,0,B|242:251|242:251|235:206|235:206|250:190,1,83,2|0,1:2|0:0,0:0:0:0:
376,116,153996,1,2,0:0:0:0:
294,60,154151,6,0,B|257:86|257:86|127:69,1,166,10|2,0:0|0:0,0:0:0:0:
72,8,154617,1,10,0:0:0:0:
0,124,154773,2,0,B|7:154|7:154|18:174|18:174|25:202,1,83,2|0,0:0|1:0,0:0:0:0:
136,259,155084,1,2,0:0:0:0:
14,351,155239,1,10,0:0:0:0:
31,340,155316,1,8,0:0:0:0:
50,330,155395,1,10,0:0:0:0:
68,338,155472,1,8,0:0:0:0:
87,346,155550,6,0,B|124:362|124:362|160:341,1,83,2|2,0:0|1:2,0:0:0:0:
162,186,155861,2,0,B|128:210|128:210|129:252,1,83,10|2,0:0|0:0,0:0:0:0:
129,252,156094,1,8,0:0:0:0:
129,252,156172,1,2,1:2:0:0:
263,330,156327,2,0,B|258:289|258:289|222:268,1,83,2|2,1:2|0:0,0:0:0:0:
133,94,156638,6,0,B|181:99|181:99|205:107|205:107|305:118,1,166,8|2,0:0|1:2,0:0:0:0:
380,61,157104,2,0,B|407:29|407:29|454:22,2,83,8|2|0,0:0|0:0|0:0,0:0:0:0:
292,129,157571,1,8,0:0:0:0:
294,142,157648,1,8,0:0:0:0:
297,156,157726,1,8,0:0:0:0:
300,169,157804,1,8,0:0:0:0:
303,183,157881,1,8,0:0:0:0:
306,196,157959,1,8,0:0:0:0:
308,210,158037,6,0,L|326:293,1,83,4|2,0:0|0:0,0:0:0:0:
480,328,158348,2,0,L|462:246,1,83,10|0,0:0|0:0,0:0:0:0:
462,246,158581,1,8,0:0:0:0:
462,246,158659,1,2,0:0:0:0:
315,303,158814,2,0,B|292:297|292:297|262:315|262:315|236:309,1,83,2|0,1:2|0:0,0:0:0:0:
70,384,159125,6,0,B|31:350|31:350|57:233,1,166,10|2,0:0|1:2,0:0:0:0:
154,182,159591,2,0,L|188:140,1,41.5,8|0,0:0|0:0,0:0:0:0:
173,182,159747,2,0,L|212:165,1,41.5,2|0,0:0|0:0,0:0:0:0:
134,262,159902,1,0,1:0:0:0:
72,151,160058,2,0,L|62:103,1,41.5,0|0,1:2|0:0,0:0:0:0:
178,7,160213,1,10,0:0:0:0:
208,12,160290,1,8,0:0:0:0:
239,17,160368,1,8,0:0:0:0:
270,22,160446,1,8,0:0:0:0:
300,27,160524,6,0,L|348:17,1,41.5,6|2,1:2|0:0,0:0:0:0:
232,115,160679,5,2,0:0:0:0:
232,115,160757,1,2,0:0:0:0:
232,115,160835,2,0,L|176:105,2,55.3333333333333,10|2|2,0:0|0:0|0:0,0:0:0:0:
329,228,161146,6,0,L|518:194,1,166,8|8,0:0|0:0,0:0:0:0:
313,242,161612,1,0,1:0:0:0:
296,254,161689,1,0,0:0:0:0:
280,267,161768,2,0,B|248:245|248:245|247:188,1,83,10|0,0:0|1:0,0:0:0:0:
350,76,162078,2,0,B|382:98|382:98|383:155,1,83,8|0,0:0|1:2,0:0:0:0:
227,211,162389,6,0,B|171:201|171:201|127:228|127:228|59:216,1,166,8|8,0:0|0:0,0:0:0:0:
0,37,162856,1,8,0:0:0:0:
79,83,163011,1,4,0:0:0:0:
324,319,172959,6,0,P|329:282|341:240,1,74.699997720337,4|0,1:2|1:0,0:0:0:0:
221,171,173581,2,0,P|225:182|229:199,2,24.8999992401123,8|0|2,0:0|1:0|0:0,0:0:0:0:
381,69,174203,2,0,P|404:54|431:56,1,49.7999984802247,2|0,1:2|0:0,0:0:0:0:
425,54,174669,1,0,1:0:0:0:
331,134,174825,2,0,L|302:128,2,24.8999992401123,8|0|2,0:0|1:0|0:0,0:0:0:0:
412,206,175291,5,0,1:0:0:0:
412,206,175369,1,2,0:0:0:0:
412,206,175446,2,0,L|491:190,1,74.699997720337,2|2,1:2|1:2,0:0:0:0:
366,310,176068,2,0,B|332:293|332:293|296:298,1,74.699997720337,10|2,0:2|0:0,0:0:0:0:
170,231,176690,2,0,B|136:248|136:248|100:243,1,74.699997720337,2|0,1:2|1:0,0:0:0:0:
34,189,177312,2,0,L|43:154,2,24.8999992401123,10|0|0,0:0|0:0|0:0,0:0:0:0:
121,119,177778,5,8,0:0:0:0:
121,119,177856,1,8,0:0:0:0:
121,119,177933,2,0,B|107:72|107:72|129:93,1,74.699997720337,0|0,1:0|1:0,0:0:0:0:
220,22,178555,2,0,P|246:34|271:32,1,49.7999984802247,8|2,0:0|0:0,0:0:0:0:
360,94,179021,5,0,1:0:0:0:
360,94,179099,1,0,0:0:0:0:
360,94,179177,2,0,L|395:87,1,24.8999992401123,2|0,1:2|0:0,0:0:0:0:
375,167,179488,2,0,L|410:160,1,24.8999992401123,2|0,0:0|1:0,0:0:0:0:
273,188,179799,2,0,L|238:181,1,24.8999992401123,8|0,0:0|0:0,0:0:0:0:
258,261,180110,2,0,L|223:254,1,24.8999992401123,2|2,0:0|0:0,0:0:0:0:
220,262,180343,1,2,0:0:0:0:
207,268,180420,6,0,L|131:279,1,74.699997720337,2|0,1:2|1:0,0:0:0:0:
63,229,181042,2,0,L|11:217,1,49.7999984802247,8|0,0:0|0:0,0:0:0:0:
154,141,181508,5,0,0:0:0:0:
154,141,181586,1,0,0:0:0:0:
154,141,181664,2,0,L|166:86,1,49.7999984802247,0|0,1:2|1:0,0:0:0:0:
164,92,182130,1,0,1:0:0:0:
56,29,182286,2,0,L|45:77,1,49.7999984802247,8|0,0:0|1:0,0:0:0:0:
45,77,182752,1,8,0:0:0:0:
267,142,183218,6,0,L|301:135,2,33.2
256,133,184462,6,0,L|306:122,1,49.8,2|0,0:0|0:0,0:0:0:0:
266,258,184773,6,0,L|231:219,1,49.8,2|0,0:0|0:0,0:0:0:0:
370,187,185084,6,0,L|353:236,1,49.8,2|0,0:0|0:0,0:0:0:0:
267,142,185394,5,6,0:0:0:0:
356,192,185550,1,2,0:0:0:0:
268,243,185705,2,0,B|243:266|243:266|258:321,1,87.1499973403932,10|0,0:0|0:0,0:0:0:0:
445,242,186016,5,2,1:2:0:0:
356,192,186172,1,2,1:2:0:0:
444,141,186327,2,0,B|469:118|469:118|454:63,1,87.1499973403932,10|0,0:0|0:0,0:0:0:0:
296,6,186638,6,0,B|250:11|250:11|223:35|223:35|175:43,1,130.72499601059,2|0,1:2|0:0,0:0:0:0:
107,4,186949,1,8,0:0:0:0:
31,121,187104,1,0,0:0:0:0:
31,121,187182,1,8,0:0:0:0:
31,121,187260,1,2,1:2:0:0:
148,197,187415,1,0,1:0:0:0:
57,227,187571,2,0,B|22:267|22:267|46:353,1,130.72499601059,10|0,0:0|0:0,0:0:0:0:
63,350,187882,6,0,B|157:321|145:397|241:368,1,174.299994680786,2|10,1:2|0:0,0:0:0:0:
321,308,188348,1,0,0:0:0:0:
321,308,188426,1,0,0:0:0:0:
321,308,188503,1,2,1:2:0:0:
227,271,188659,1,0,1:0:0:0:
382,384,188814,2,0,P|423:332|378:214,1,174.299994680786,10|2,0:0|1:2,0:0:0:0:
401,232,189436,5,8,0:0:0:0:
467,149,189591,1,2,0:2:0:0:
467,149,189669,1,0,0:0:0:0:
467,149,189747,2,0,P|470:101|442:66,1,87.1499973403932,2|2,1:2|0:2,0:0:0:0:
253,161,190058,2,0,P|250:209|278:244,1,87.1499973403932,10|2,0:2|0:2,0:0:0:0:
350,327,190369,5,6,1:2:0:0:
350,327,190525,2,0,B|383:322|383:322|434:315,1,83,2|10,0:0|0:0,0:0:0:0:
512,334,190835,1,2,0:0:0:0:
267,315,190991,5,2,1:2:0:0:
267,315,191146,2,0,B|300:320|300:320|351:327,1,83,2|8,1:2|0:0,0:0:0:0:
432,315,191457,1,2,0:0:0:0:
184,326,191613,5,2,1:2:0:0:
184,326,191768,2,0,B|217:321|217:321|268:314,1,83,2|8,0:0|0:0,0:0:0:0:
349,326,192079,1,2,0:0:0:0:
101,314,192234,6,0,B|134:319|134:319|185:326,1,83,2|2,1:2|1:2,0:0:0:0:
173,195,192545,2,0,B|124:202|124:202|91:207,1,83,10|2,0:2|0:0,0:0:0:0:
266,314,192856,5,0,1:0:0:0:
191,226,193011,1,8,0:0:0:0:
172,217,193089,1,8,0:0:0:0:
174,196,193166,1,8,0:0:0:0:
195,192,193244,1,8,0:0:0:0:
205,210,193322,1,0,1:2:0:0:
278,129,193477,6,0,L|324:138,3,41.5,8|8|8|8,0:0|0:0|0:0|0:0,0:0:0:0:
340,166,193788,1,8,0:2:0:0:
509,88,193944,6,0,L|501:41,2,41.5,8|8|8,0:0|0:0|0:0,0:0:0:0:
452,177,194255,1,8,0:0:0:0:
446,188,194332,1,8,0:0:0:0:
440,199,194410,2,0,L|446:239,3,41.5,8|8|8|8,0:0|0:0|0:0|0:0,0:0:0:0:
374,338,194721,6,0,L|367:296,3,41.5,8|8|8|8,0:0|0:0|0:0|0:0,0:0:0:0:
346,207,195032,1,8,0:0:0:0:
344,237,195109,1,8,0:0:0:0:
327,263,195187,1,8,0:0:0:0:
299,277,195265,1,8,0:0:0:0:
269,275,195342,5,6,1:2:0:0:
201,349,195498,1,2,0:0:0:0:
170,253,195654,2,0,P|163:208|157:161,1,87.1499973403932,10|0,0:0|0:0,0:0:0:0:
368,297,195964,5,2,1:2:0:0:
300,371,196120,1,2,1:2:0:0:
269,275,196276,2,0,P|262:230|256:183,1,87.1499973403932,10|0,0:0|0:0,0:0:0:0:
99,68,196586,6,0,P|35:111|57:180,1,130.72499601059,2|0,1:2|0:0,0:0:0:0:
30,240,196897,2,0,B|68:242|96:219|96:219|126:221,1,87.1499973403932,10|0,1:2|0:0,0:0:0:0:
129,223,197130,1,0,0:0:0:0:
145,227,197208,1,2,1:2:0:0:
100,311,197363,1,2,1:2:0:0:
196,308,197519,1,10,0:0:0:0:
247,134,197674,5,0,0:0:0:0:
247,134,197752,1,0,0:0:0:0:
247,134,197830,2,0,P|287:117|335:116,2,87.1499973403932,6|0|8,1:2|1:0|0:0,0:0:0:0:
331,331,198296,2,0,P|411:364|508:367,1,174.299994680786,4|0,1:2|1:0,0:0:0:0:
430,268,198762,1,8,0:0:0:0:
467,101,198918,6,0,P|434:181|431:278,1,174.299994680786,4|0,1:2|2:0,0:0:0:0:
415,258,199306,1,0,0:0:0:0:
404,249,199384,2,0,B|359:238|360:269|321:261,1,87.1499973403932,8|0,0:0|1:0,0:0:0:0:
192,368,199695,2,0,P|144:317|173:252,1,130.72499601059,10|0,0:0|0:0,0:0:0:0:
222,218,200006,1,10,0:0:0:0:
214,238,200083,1,8,0:0:0:0:
199,254,200161,1,8,0:0:0:0:
180,263,200239,1,8,0:0:0:0:
158,264,200317,6,0,P|151:198|132:125,1,130.72499601059,6|0,1:2|0:0,0:0:0:0:
56,98,200628,2,0,B|19:64|19:64|60:67,1,87.1499973403932,10|2,0:0|1:2,0:0:0:0:
227,30,200939,2,0,B|237:-19|237:-19|255:17,1,87.1499973403932,8|2,0:0|1:2,0:0:0:0:
371,144,201249,2,0,B|418:128|418:128|395:162,1,87.1499973403932,10|2,0:0|1:2,0:0:0:0:
379,298,201560,6,0,L|281:277,1,87.1499973403932,8|0,0:0|1:0,0:0:0:0:
416,74,201871,2,0,L|395:172,1,87.1499973403932,10|2,0:0|1:2,0:0:0:0:
192,37,202182,2,0,L|290:58,1,87.1499973403932,8|0,0:0|0:0,0:0:0:0:
155,261,202493,2,0,L|176:163,1,87.1499973403932,10|2,0:0|1:2,0:0:0:0:
379,298,202804,5,14,0:2:0:0:
379,298,202959,1,0,1:0:0:0:
509,266,203115,5,8,0:0:0:0:
509,266,203270,1,0,1:0:0:0:
461,346,203426,5,8,0:0:0:0:
461,346,203581,1,0,1:0:0:0:
427,216,203736,2,0,L|404:117,1,87.1499973403932,8|0,0:0|1:0,0:0:0:0:
401,108,203970,1,0,0:0:0:0:
395,87,204047,6,0,P|350:76|309:70,1,87.1499973403932,8|0,0:0|1:0,0:0:0:0:
308,237,204358,2,0,P|263:248|222:254,1,87.1499973403932,8|0,0:0|1:0,0:0:0:0:
74,161,204669,2,0,P|78:118|117:111,1,87.1499973403932,10|0,0:0|1:0,0:0:0:0:
233,268,204980,2,0,P|225:309|219:358,1,87.1499973403932,10|0,0:0|1:0,0:0:0:0:
230,365,205213,1,0,0:0:0:0:
244,373,205291,6,0,B|332:344|325:402|424:372,1,174.299994680786,6|8,1:2|0:0,0:0:0:0:
486,310,205757,5,8,0:0:0:0:
489,205,205913,5,8,0:0:0:0:
425,111,206068,5,8,0:0:0:0:
309,71,206223,5,8,0:0:0:0:
185,114,206379,5,8,0:0:0:0:
135,244,206534,5,8,0:0:0:0:
135,244,206690,1,8,0:0:0:0:
303,382,207156,6,0,L|308:334,1,41.5,8|0,0:0|0:0,0:0:0:0:
307,340,207312,1,8,0:0:0:0:
307,340,207778,6,0,P|341:308|346:263,1,83,4|0,1:2|1:0,0:0:0:0:
258,153,208089,2,0,P|224:185|219:230,1,83,8|2,0:0|0:0,0:0:0:0:
217,219,208322,1,8,0:0:0:0:
217,219,208400,1,0,1:0:0:0:
190,308,208555,1,0,1:0:0:0:
130,240,208711,1,2,0:0:0:0:
38,349,208866,6,0,P|117:331|202:319,1,166,8|0,0:0|1:0,0:0:0:0:
40,246,209332,2,0,P|30:206|24:164,1,83,8|2,0:0|0:0,0:0:0:0:
25,164,209565,1,0,0:0:0:0:
25,164,209643,1,0,0:0:0:0:
130,240,209799,1,0,1:0:0:0:
110,71,209954,2,0,P|105:90|101:118,3,41.5,8|8|8|8,0:0|0:0|0:0|0:0,0:0:0:0:
115,152,210265,6,0,B|163:140|163:168|206:157,1,83,6|0,1:2|0:0,0:0:0:0:
318,33,210576,2,0,B|270:21|270:49|227:38,1,83,8|2,0:0|0:0,0:0:0:0:
236,39,210809,1,8,0:0:0:0:
236,39,210887,1,0,1:0:0:0:
302,116,211042,1,0,1:0:0:0:
389,86,211198,1,0,0:0:0:0:
296,207,211353,6,0,P|274:253|324:372,1,166,8|0,0:2|1:2,0:2:0:0:
376,307,211819,1,8,0:2:0:0:
206,366,211975,2,0,B|186:361|166:345|166:345|122:367|78:376,1,124.5,2|0,0:2|0:0,0:2:0:0:
62,368,212286,2,0,P|53:349|47:321,1,41.5,8|8,0:0|0:0,0:0:0:0:
101,209,212441,1,8,0:0:0:0:
117,223,212518,1,8,0:0:0:0:
136,232,212596,1,8,0:0:0:0:
158,236,212674,1,8,0:0:0:0:
179,233,212752,6,0,P|186:185|196:142,1,83,6|0,1:2|1:0,0:0:0:0:
292,104,213063,2,0,P|285:56|275:13,1,83,8|2,0:0|0:0,0:0:0:0:
250,4,213296,1,8,0:0:0:0:
220,18,213374,2,0,B|201:28|201:28|179:30,4,41.5,2|2|2|0|2,1:2|0:0|1:2|0:0|0:2,0:0:0:0:
45,114,213840,2,0,B|64:124|64:124|86:126,3,41.5,10|2|2|2,0:0|0:0|0:0|0:0,0:0:0:0:
111,102,214151,1,2,1:2:0:0:
216,231,214306,5,10,0:0:0:0:
216,231,214384,1,2,0:0:0:0:
216,231,214462,2,0,L|203:177,1,41.5,2|2,0:0|0:0,0:0:0:0:
283,125,214617,2,0,P|308:130|332:134,3,41.5,8|0|2|0,0:0|0:0|1:2|0:0,0:0:0:0:
412,179,214928,2,0,P|437:184|461:188,1,41.5,10|0,0:0|0:0,0:0:0:0:
331,220,215084,1,2,1:2:0:0:
445,324,215239,6,0,P|422:323|406:341,3,41.5,6|0|0|0,1:2|0:0|1:0|0:0,0:0:0:0:
321,323,215550,2,0,P|304:338|305:362,3,41.5,8|0|0|0,0:0|0:0|1:0|0:0,0:0:0:0:
183,384,215861,6,0,L|140:377,1,41.5,10|0,0:0|0:0,0:0:0:0:
72,324,216016,2,0,L|29:317,1,41.5,0|0,1:2|0:0,0:0:0:0:
152,289,216172,2,0,P|165:259|170:237,3,41.5,8|0|0|0,0:0|0:0|1:0|0:0,0:0:0:0:
112,103,216483,5,10,0:0:0:0:
116,130,216560,1,0,0:0:0:0:
131,152,216638,1,0,1:0:0:0:
156,166,216716,1,0,0:0:0:0:
184,168,216793,2,0,P|207:178|227:185,1,41.5,8|0,0:0|0:0,0:0:0:0:
291,280,216949,2,0,P|271:272|252:264,1,41.5,0|0,1:0|0:0,0:0:0:0:
222,183,217104,6,0,P|225:139|258:110,1,83,8|0,0:0|1:0,0:0:0:0:
394,259,217415,2,0,P|391:303|358:332,1,83,8|8,0:0|0:0,0:0:0:0:
221,354,217726,1,2,0:0:0:0:
253,368,219747,5,8,0:0:0:0:
176,246,219902,1,8,0:0:0:0:
273,81,220058,6,0,B|249:3|98:-50|25:142|140:235|177:247|177:247|213:268|264:335|164:405|117:428|-7:293|112:217|177:247|177:247|263:254|317:316|312:323|307:330|377:387|441:358|441:358|433:312|462:262|462:262|433:295|406:311|406:311|405:285|392:265|392:265|383:288|367:300,1,1344.6,12|0,0:0|0:0,0:0:0:0:
