osu file format v14

[General]
AudioFilename: audio.mp3
AudioLeadIn: 0
PreviewTime: 183083
Countdown: 0
SampleSet: Soft
StackLeniency: 0.4
Mode: 0
LetterboxInBreaks: 0
WidescreenStoryboard: 1

[Editor]
Bookmarks: 138549
DistanceSpacing: 0.8
BeatDivisor: 4
GridSize: 4
TimelineZoom: 2.1

[Metadata]
Title:Guitar to Kodoku to Aoi Hoshi
TitleUnicode:ギターと孤独と蒼い惑星
Artist:kessoku band
ArtistUnicode:結束バンド
Creator:Saggin
Version:kanor's Hard
Source:ぼっち・ざ・ろっく!
Tags:wakusei 喜多郁代 Kita Ikuyo 長谷川育美 Hasegawa Ikumi 三井律郎 mitsui ritsuo zaq 音羽 otoha akkin bocchi the rock za japanese rock j-rock jrock anime _kotachi_ -brethia pnky kanor
BeatmapID:4002940
BeatmapSetID:1879988

[Difficulty]
HPDrainRate:4
CircleSize:4
OverallDifficulty:7
ApproachRate:8
SliderMultiplier:1.42
SliderTickRate:1

[Events]
//Background and Video events
0,0,"bg.jpg",0,0
//Break Periods
2,12589,14282
2,35239,43633
2,78651,82676
2,109739,118738
2,163211,171898
2,207978,212002
//Storyboard Layer 0 (Background)
//Storyboard Layer 1 (Fail)
//Storyboard Layer 2 (Pass)
//Storyboard Layer 3 (Foreground)
//Storyboard Layer 4 (Overlay)
//Storyboard Sound Samples

[TimingPoints]
110,310.880829015544,4,2,1,100,1,0
1353,-133.333333333333,4,2,1,40,0,0
2597,-100,4,2,1,70,0,0
15032,-133.333333333333,4,2,1,40,0,0
24514,-100,4,2,1,50,0,0
34617,-133.333333333333,4,2,1,50,0,0
34928,-133.333333333333,4,2,1,40,0,0
44876,-100,4,2,1,50,0,0
52493,-100,4,2,1,60,0,0
55135,-133.333333333333,4,2,1,40,0,0
56068,-83.3333333333333,4,2,1,70,0,0
56301,-83.3333333333333,4,2,1,5,0,0
56379,-83.3333333333333,4,2,1,70,0,0
78451,-83.3333333333333,4,2,1,60,0,0
83426,-100,4,2,1,60,0,0
89643,-133.333333333333,4,2,1,40,0,0
99125,-100,4,2,1,50,0,0
109540,-100,4,2,1,40,0,0
119488,-100,4,2,1,50,0,0
127104,-100,4,2,1,60,0,0
129747,-133.333333333333,4,2,1,40,0,0
130679,-83.3333333333333,4,2,1,70,0,0
162156,-83.3333333333333,4,2,1,5,0,0
162234,-83.3333333333333,4,2,1,70,0,0
162312,-83.3333333333333,4,2,1,5,0,0
162389,-83.3333333333333,4,2,1,70,0,0
163011,-83.3333333333333,4,2,1,40,0,0
172959,-200,4,2,1,50,0,0
184462,-125,4,2,1,40,0,0
184695,-125,4,2,1,5,0,0
184773,-125,4,2,1,40,0,0
185006,-125,4,2,1,5,0,0
185084,-125,4,2,1,40,0,0
185317,-125,4,2,1,5,0,0
185394,-83.3333333333333,4,2,1,80,0,0
207778,-83.3333333333333,4,2,1,60,0,0
217726,-133.333333333333,4,2,1,60,0,0
226353,-133.333333333333,4,2,1,5,0,0

[Colours]
Combo1 : 255,217,100
Combo2 : 255,176,216
Combo3 : 149,197,255
Combo4 : 247,100,122

[HitObjects]
64,36,1353,6,0,B|128:32|96:80|164:72,3,106.500004062653,4|4|4|4,1:1|1:1|1:1|1:1,0:0:0:0:
158,72,2597,6,0,L|238:68,1,71,6|0,1:2|0:0,0:0:0:0:
304,92,2907,1,8,0:0:0:0:
368,36,3063,1,2,0:0:0:0:
380,32,3141,1,8,0:0:0:0:
392,28,3218,2,0,L|384:104,1,71,0|0,1:0|1:0,0:0:0:0:
468,72,3529,1,0,0:0:0:0:
512,192,3685,6,0,B|520:280|460:240|476:340,2,142,8|0|0,0:0|1:0|0:0,0:0:0:0:
500,184,4384,1,8,0:0:0:0:
488,176,4462,2,0,P|448:160|412:168,1,71,0|0,1:0|1:0,0:0:0:0:
352,200,4773,2,0,L|352:256,3,35.5,8|8|8|8,0:0|0:0|0:0|0:0,0:0:0:0:
352,256,5084,6,0,L|272:252,1,71,0|0,1:0|0:0,0:0:0:0:
204,272,5394,1,8,0:0:0:0:
156,336,5550,1,2,0:0:0:0:
164,348,5628,1,8,0:0:0:0:
172,360,5705,2,0,L|96:352,1,71,0|0,1:0|1:0,0:0:0:0:
24,348,6016,1,0,0:0:0:0:
96,248,6172,6,0,B|104:160|44:200|60:100,1,142,8|0,0:0|1:0,0:0:0:0:
0,60,6638,1,8,0:0:0:0:
0,60,6793,2,0,P|72:84|124:20,1,142,2|8,0:0|0:0,0:0:0:0:
128,32,7182,1,8,0:0:0:0:
136,16,7260,2,0,L|192:12,3,35.5,8|8|8|8,0:0|0:0|0:0|0:0,0:0:0:0:
216,1,7571,6,0,P|228:33|216:81,1,71,6|0,1:2|1:0,0:0:0:0:
288,116,7881,1,8,0:0:0:0:
216,152,8037,1,2,0:0:0:0:
204,148,8115,1,8,0:0:0:0:
192,144,8192,2,0,P|180:176|192:224,1,71,0|2,1:0|1:2,0:0:0:0:
160,284,8503,1,2,0:0:0:0:
256,360,8659,6,0,B|344:368|304:308|404:324,2,142,8|0|2,0:0|1:0|0:0,0:0:0:0:
268,284,9436,2,0,L|276:208,1,71,0|0,0:0|1:0,0:0:0:0:
312,144,9747,2,0,L|316:88,3,35.5,8|8|8|8,0:0|0:0|0:0|0:0,0:0:0:0:
332,160,10058,5,6,1:2:0:0:
332,160,10369,2,0,L|416:172,1,71,8|0,0:0|1:0,0:0:0:0:
460,112,10679,2,0,L|428:33,1,71,8|0,0:0|1:0,0:0:0:0:
348,32,10990,2,0,L|295:98,1,71,8|0,0:0|1:0,0:0:0:0:
180,160,11301,6,0,L|96:172,1,71,8|0,0:0|1:0,0:0:0:0:
52,112,11611,2,0,L|83:33,1,71,8|0,0:0|1:0,0:0:0:0:
164,32,11922,2,0,L|216:98,1,71,8|0,0:0|1:0,0:0:0:0:
256,152,12234,1,8,0:0:0:0:
256,232,12389,1,8,0:0:0:0:
56,356,15032,5,0,1:2:0:0:
38,338,15343,1,0,1:0:0:0:
56,320,15654,1,0,1:0:0:0:
73,338,15964,1,0,1:0:0:0:
140,296,16275,5,0,1:0:0:0:
82,233,16586,1,0,1:0:0:0:
81,147,16897,1,0,1:2:0:0:
139,84,17208,1,0,1:0:0:0:
231,60,17519,5,0,1:2:0:0:
249,42,17830,1,0,1:0:0:0:
231,24,18141,1,0,1:0:0:0:
214,42,18451,1,0,1:0:0:0:
273,103,18762,5,0,1:2:0:0:
342,54,19073,1,0,1:0:0:0:
427,57,19384,1,0,1:0:0:0:
480,123,19695,1,0,1:0:0:0:
479,213,20006,6,0,L|373:229,1,106.500004062653,0|0,1:0|1:0,0:0:0:0:
373,230,20628,2,0,L|267:246,1,106.500004062653,0|2,1:0|1:2,0:0:0:0:
267,246,21249,6,0,P|253:195|273:147,1,106.500004062653,2|0,1:2|1:0,0:0:0:0:
273,147,21871,6,0,P|286:96|266:48,1,106.500004062653,2|2,1:2|1:2,0:0:0:0:
266,48,22493,6,0,L|382:56,1,106.500004062653,2|2,1:2|1:2,0:0:0:0:
372,55,23115,2,0,L|364:171,1,106.500004062653,2|2,1:2|1:2,0:0:0:0:
364,161,23736,6,0,B|251:132|338:73|172:56,1,213.000008125305,2|2,1:2|1:2,0:0:0:0:
126,12,24514,1,12,0:0:0:0:
8,120,24825,5,8,0:0:0:0:
8,120,24902,1,8,0:0:0:0:
8,120,24980,2,0,P|42:122|76:156,1,71,6|0,1:2|0:0,0:0:0:0:
148,132,25291,2,0,P|163:162|150:208,1,71,8|2,0:0|0:0,0:0:0:0:
88,232,25602,1,2,1:2:0:0:
88,232,25757,1,2,0:0:0:0:
32,284,25913,2,0,P|17:314|30:360,1,71,10|2,0:0|0:0,0:0:0:0:
96,328,26223,6,0,L|188:344,1,71,2|0,1:2|0:2,0:2:0:0:
232,380,26534,2,0,P|244:352|232:300,1,71,10|0,0:2|0:2,0:2:0:0:
280,240,26845,2,0,L|188:224,1,71,2|0,1:2|1:0,0:0:0:0:
140,252,27156,2,0,P|134:217|147:184,1,71,10|0,0:2|1:0,0:0:0:0:
120,88,27467,6,0,L|292:108,1,142,2|8,1:2|0:0,0:0:0:0:
328,56,27933,1,2,0:0:0:0:
328,56,28089,2,0,B|356:56|356:56|376:48|376:48|404:48,1,71,2|0,1:2|0:0,0:0:0:0:
480,20,28400,2,0,L|472:104,1,71,8|2,0:0|0:0,0:0:0:0:
500,168,28711,6,0,B|448:168|448:168|412:136|412:136|360:136,1,142,2|8,1:2|0:0,0:0:0:0:
296,128,29177,1,2,0:0:0:0:
296,128,29332,2,0,L|304:212,1,71,2|0,1:2|0:0,0:0:0:0:
256,256,29643,2,0,P|288:272|336:268,1,71,8|2,0:0|0:0,0:0:0:0:
444,268,29954,6,0,L|436:352,1,71,2|0,1:2|0:0,0:0:0:0:
364,360,30265,1,8,0:0:0:0:
364,360,30420,1,0,0:0:0:0:
284,348,30576,2,0,B|248:336|248:336|204:348,1,71,0|0,1:0|0:0,0:0:0:0:
140,360,30887,2,0,B|104:372|104:372|60:360,1,71,10|0,0:0|0:0,0:0:0:0:
28,300,31198,6,0,L|44:208,1,71,2|0,1:2|0:0,0:0:0:0:
0,168,31509,2,0,P|28:156|80:168,1,71,10|0,0:0|0:0,0:0:0:0:
140,116,31820,2,0,L|156:208,1,71,2|0,1:2|1:0,0:0:0:0:
128,256,32131,2,0,P|162:261|195:248,1,71,10|0,0:0|0:0,0:0:0:0:
260,144,32441,5,2,1:2:0:0:
252,68,32597,1,0,0:0:0:0:
252,68,32752,2,0,B|324:56|308:116|384:108,1,142,10|2,0:2|1:2,0:0:0:0:
432,48,33218,1,0,0:0:0:0:
500,80,33374,2,0,L|492:160,1,71,8|0,0:0|0:0,0:0:0:0:
444,244,33685,6,0,B|412:244|412:244|400:236|400:236|364:236,1,71,2|0,1:2|0:0,0:0:0:0:
296,272,33996,2,0,B|264:272|264:272|252:280|252:280|216:280,1,71,8|2,0:0|0:0,0:0:0:0:
156,240,34306,1,0,1:0:0:0:
88,288,34462,1,8,0:0:0:0:
12,264,34617,2,0,P|-12:208|16:160,1,106.500004062653,12|2,0:0|0:0,0:0:0:0:
40,64,44876,5,6,1:2:0:0:
27,42,45187,1,0,1:0:0:0:
48,29,45498,1,2,1:2:0:0:
61,51,45809,1,2,1:2:0:0:
156,116,46120,5,2,1:2:0:0:
143,94,46431,1,0,1:0:0:0:
164,81,46742,1,2,1:2:0:0:
177,103,47053,1,2,1:2:0:0:
264,48,47363,5,2,1:2:0:0:
251,26,47674,1,2,1:2:0:0:
272,13,47985,1,2,1:2:0:0:
285,35,48296,1,2,1:2:0:0:
380,100,48607,5,2,1:2:0:0:
367,78,48918,1,2,1:2:0:0:
388,65,49229,1,2,1:2:0:0:
401,87,49540,1,2,1:2:0:0:
480,28,49850,6,0,P|489:92|480:168,1,142,2|0,1:2|1:0,0:0:0:0:
479,168,50472,2,0,P|455:228|409:289,1,142,0|2,1:0|1:2,0:0:0:0:
408,289,51094,2,0,P|357:329|286:358,1,142,0|2,1:0|1:2,0:0:0:0:
286,359,51716,2,0,P|221:368|146:359,1,142,0|2,1:2|1:2,0:0:0:0:
145,358,52337,5,2,1:2:0:0:
64,356,52493,1,8,0:0:0:0:
56,348,52571,1,8,0:0:0:0:
48,340,52648,2,0,L|56:288,2,35.5,8|8|8,0:0|0:0|0:0,0:0:0:0:
116,252,52959,1,10,0:0:0:0:
124,244,53037,1,8,0:0:0:0:
132,236,53114,2,0,L|124:184,2,35.5,8|8|8,0:0|0:0|0:0,0:0:0:0:
68,140,53426,2,0,L|76:92,2,35.5,8|8|2,0:0|0:0|1:2,0:0:0:0:
100,24,53736,5,8,0:0:0:0:
108,16,53814,1,8,0:0:0:0:
116,8,53891,2,0,L|168:16,2,35.5,8|8|10,0:0|0:0|0:0,0:0:0:0:
212,60,54203,1,10,0:0:0:0:
288,92,54358,1,8,0:0:0:0:
296,100,54436,1,8,0:0:0:0:
304,108,54513,2,0,L|356:100,2,35.5,8|8|8,0:0|0:0|0:0,0:0:0:0:
492,40,55135,6,0,B|420:48|468:8|372:12,2,106.500004062653,0|0|0,1:0|1:0|1:0,0:0:0:0:
492,40,56068,6,0,P|472:76|480:136,1,85.1999973999024,6|0,1:2|0:0,0:0:0:0:
432,188,56379,1,10,0:0:0:0:
432,188,56690,2,0,P|452:224|444:284,1,85.1999973999024,2|0,1:2|1:0,0:0:0:0:
440,348,57001,1,8,0:0:0:0:
440,348,57312,6,0,L|340:340,1,85.1999973999024,2|0,1:2|0:0,0:0:0:0:
304,280,57622,2,0,L|204:288,1,85.1999973999024,8|0,0:0|0:0,0:0:0:0:
200,280,57856,1,8,0:0:0:0:
184,272,57933,2,0,B|200:316|200:316|180:364,1,85.1999973999024,0|0,1:0|1:0,0:0:0:0:
116,312,58244,2,0,B|100:268|100:268|120:220,1,85.1999973999024,8|0,0:0|1:0,0:0:0:0:
40,148,58555,5,2,1:2:0:0:
40,148,58711,1,0,0:0:0:0:
0,76,58866,2,0,P|49:67|96:96,1,85.1999973999024,10|0,1:2|0:0,0:0:0:0:
172,68,59177,1,2,1:2:0:0:
172,68,59333,1,0,1:0:0:0:
132,140,59488,2,0,P|181:148|228:120,1,85.1999973999024,10|0,0:0|0:0,0:0:0:0:
264,72,59799,6,0,L|452:84,1,170.399994799805,2|8,1:2|0:0,0:0:0:0:
496,36,60265,1,2,0:0:0:0:
434,82,60420,2,0,P|418:110|422:162,1,85.1999973999024,2|2,1:2|0:0,0:0:0:0:
480,212,60731,2,0,P|496:184|492:132,1,85.1999973999024,10|2,0:0|0:0,0:0:0:0:
352,192,61042,5,4,1:2:0:0:
352,192,61198,2,0,L|368:304,1,85.1999973999024,2|8,0:0|0:0,0:0:0:0:
420,348,61508,1,2,0:0:0:0:
420,348,61664,2,0,L|308:364,1,85.1999973999024,0|2,1:0|1:2,0:0:0:0:
288,296,61975,2,0,L|176:312,1,85.1999973999024,8|2,0:0|0:0,0:0:0:0:
144,356,62286,6,0,P|128:320|148:260,1,85.1999973999024,2|2,1:2|0:0,0:0:0:0:
56,252,62597,2,0,P|64:210|47:172,1,85.1999973999024,8|2,0:0|0:0,0:0:0:0:
76,104,62907,1,0,1:0:0:0:
76,104,63063,1,0,1:0:0:0:
40,32,63218,1,8,0:0:0:0:
40,32,63374,1,2,0:0:0:0:
144,56,63529,5,2,1:2:0:0:
212,16,63685,2,0,L|256:20,4,42.5999986999512,8|8|8|0|0,0:0|0:0|0:0|1:0|1:0,0:0:0:0:
324,52,64151,2,0,L|368:56,4,42.5999986999512,8|8|8|8|0,0:0|0:0|0:0|0:0|1:0,0:0:0:0:
260,96,64617,1,8,0:0:0:0:
260,96,64695,1,8,0:0:0:0:
260,96,64773,2,0,L|197:93,2,42.5999986999512,0|0|0,1:0|0:0|1:0,0:0:0:0:
313,157,65084,2,0,L|369:165,2,42.5999986999512,8|8|8,0:0|0:0|0:0,0:0:0:0:
288,228,65394,1,8,0:0:0:0:
284,244,65471,1,8,0:0:0:0:
280,260,65549,1,8,0:0:0:0:
248,332,65705,2,0,L|304:340,2,42.5999986999512,8|8|8,0:0|0:0|0:0,0:0:0:0:
364,364,66016,6,0,L|384:264,1,85.1999973999024,12|2,1:2|0:0,0:0:0:0:
372,204,66327,1,8,0:0:0:0:
372,204,66638,2,0,L|392:104,1,85.1999973999024,0|0,1:0|1:0,0:0:0:0:
380,44,66949,1,10,0:0:0:0:
380,44,67260,6,0,P|412:27|468:44,1,85.1999973999024,2|0,1:2|0:0,0:0:0:0:
467,113,67571,2,0,P|434:129|379:113,1,85.1999973999024,10|0,0:0|0:0,0:0:0:0:
296,56,67881,2,0,B|312:100|312:100|292:148,1,85.1999973999024,2|0,1:2|1:0,0:0:0:0:
228,180,68192,2,0,B|212:136|212:136|232:88,1,85.1999973999024,10|0,0:0|0:0,0:0:0:0:
168,40,68503,6,0,P|118:48|72:20,1,85.1999973999024,6|2,1:2|1:2,0:0:0:0:
20,80,68814,1,8,0:0:0:0:
20,80,68970,2,0,L|28:268,1,170.399994799805,6|0,1:2|1:2,1:2:0:0:
108,280,69436,5,8,0:0:0:0:
108,280,69592,2,0,L|100:92,1,170.399994799805,4|0,1:2|0:0,0:0:0:0:
180,88,70058,2,0,L|184:192,1,85.1999973999024,8|0,0:0|0:0,0:0:0:0:
192,248,70369,2,0,L|256:260,2,42.5999986999512,10|8|8,0:0|0:0|0:0,0:0:0:0:
264,328,70679,2,0,L|328:316,2,42.5999986999512,10|0|8,0:0|0:0|0:0,0:0:0:0:
384,352,70990,5,6,1:2:0:0:
384,352,71301,2,0,P|400:312|384:260,1,85.1999973999024,10|2,0:0|1:2,0:0:0:0:
464,244,71612,2,0,P|437:210|384:198,1,85.1999973999024,8|2,0:0|1:2,0:0:0:0:
412,120,71923,2,0,P|369:126|332:166,1,85.1999973999024,10|2,0:0|1:2,0:0:0:0:
280,104,72234,6,0,P|263:144|280:196,1,85.1999973999024,8|0,0:0|1:0,0:0:0:0:
304,264,72545,2,0,L|192:252,1,85.1999973999024,10|2,0:0|1:2,0:0:0:0:
160,208,72856,2,0,P|143:248|160:300,1,85.1999973999024,8|0,0:0|0:0,0:0:0:0:
184,368,73167,2,0,L|72:356,1,85.1999973999024,10|2,0:0|1:2,0:0:0:0:
24,344,73477,5,4,1:2:0:0:
24,344,73633,1,0,1:0:0:0:
40,264,73788,2,0,L|36:168,1,85.1999973999024,8|0,0:0|1:0,0:0:0:0:
8,100,74099,5,8,0:0:0:0:
8,100,74255,1,0,1:0:0:0:
88,116,74410,2,0,L|184:112,1,85.1999973999024,8|0,0:0|1:0,0:0:0:0:
252,84,74721,5,8,0:0:0:0:
252,84,74877,1,0,1:0:0:0:
236,164,75032,2,0,L|240:260,1,85.1999973999024,8|0,0:0|1:0,0:0:0:0:
320,284,75343,2,0,L|316:188,1,85.1999973999024,10|0,0:0|1:0,0:0:0:0:
392,152,75654,2,0,L|396:248,1,85.1999973999024,10|0,0:0|1:0,0:0:0:0:
456,332,75964,6,0,B|372:356|388:280|296:300,1,170.399994799805,4|0,1:2|1:2,1:2:0:0:
228,340,76431,1,8,0:0:0:0:
228,340,76586,2,0,L|128:332,1,85.1999973999024,8|8,0:0|0:0,0:0:0:0:
84,280,76897,2,0,L|-16:272,2,85.1999973999024,8|8|8,0:0|0:0|0:0,0:0:0:0:
140,224,77363,1,8,0:0:0:0:
140,224,77830,1,8,0:0:0:0:
29,30,78451,5,6,1:2:0:0:
176,384,83426,6,0,P|164:352|176:304,1,71,6|0,1:2|0:0,0:0:0:0:
224,268,83736,1,8,0:0:0:0:
296,232,83892,1,2,0:0:0:0:
308,236,83970,1,8,0:0:0:0:
320,240,84047,2,0,P|332:208|320:160,1,71,0|0,1:0|1:0,0:0:0:0:
352,100,84358,1,2,0:0:0:0:
256,24,84514,6,0,B|168:16|208:76|108:60,2,142,10|2|2,0:0|1:2|0:0,0:0:0:0:
244,100,85291,2,0,L|236:176,1,71,0|0,0:0|1:0,0:0:0:0:
200,240,85602,2,0,L|196:296,3,35.5,8|8|8|8,0:0|0:0|0:0|0:0,0:0:0:0:
180,224,85913,5,14,1:2:0:0:
180,224,86224,2,0,P|144:212|96:228,1,71,10|2,0:0|1:2,0:0:0:0:
36,216,86534,2,0,P|43:253|81:286,1,71,10|0,2:0|0:0,0:0:0:0:
100,344,86845,2,0,P|128:318|138:269,1,71,10|0,2:0|0:0,0:0:0:0:
252,336,87156,6,0,L|344:328,1,71,8|2,0:0|0:0,0:0:0:0:
360,248,87467,2,0,L|268:256,1,71,8|0,0:0|0:0,0:0:0:0:
244,180,87778,2,0,L|336:172,1,71,8|2,0:0|1:2,0:0:0:0:
376,124,88089,1,10,0:0:0:0:
448,148,88244,1,8,0:0:0:0:
456,28,89643,5,0,1:0:0:0:
474,46,89954,1,0,1:0:0:0:
456,64,90265,1,0,1:0:0:0:
439,46,90575,1,0,1:0:0:0:
372,88,90886,5,0,1:2:0:0:
300,52,91197,1,0,1:2:0:0:
212,52,91508,1,0,1:0:0:0:
140,88,91819,1,0,1:0:0:0:
56,28,92130,5,0,1:0:0:0:
38,46,92441,1,0,1:0:0:0:
56,64,92752,1,0,1:0:0:0:
73,46,93062,1,0,1:0:0:0:
140,88,93373,5,0,1:0:0:0:
212,52,93684,1,0,1:0:0:0:
300,52,93995,1,0,1:0:0:0:
372,88,94306,1,0,1:0:0:0:
456,28,94617,6,0,L|448:144,1,106.500004062653,0|0,1:0|1:0,0:0:0:0:
449,135,95239,2,0,L|441:251,1,106.500004062653,0|2,1:0|1:2,0:0:0:0:
442,242,95860,6,0,P|392:256|336:228,1,106.500004062653,2|2,1:2|1:2,0:0:0:0:
344,236,96482,2,0,P|294:222|238:250,1,106.500004062653,2|2,1:2|1:2,0:0:0:0:
246,243,97104,6,0,L|130:235,1,106.500004062653,2|2,1:2|1:2,0:0:0:0:
140,236,97726,2,0,L|132:352,1,106.500004062653,2|2,1:2|1:2,0:0:0:0:
132,342,98347,6,0,B|251:318|214:397|340:378,1,213.000008125305,2|2,1:2|1:2,0:0:0:0:
411,384,99125,1,10,0:0:0:0:
395,232,99436,5,8,0:0:0:0:
395,232,99514,1,8,0:0:0:0:
395,232,99591,2,0,P|361:234|327:268,1,71,6|0,1:2|0:0,0:0:0:0:
407,306,99902,2,0,P|441:304|475:270,1,71,10|0,0:0|0:0,0:0:0:0:
512,223,100213,1,2,1:2:0:0:
512,223,100368,1,0,0:0:0:0:
480,148,100524,2,0,L|482:72,1,71,8|2,0:0|0:0,0:0:0:0:
428,20,100834,6,0,L|336:36,1,71,2|0,1:2|0:0,0:0:0:0:
288,8,101145,2,0,P|282:42|295:75,1,71,10|0,0:0|0:0,0:0:0:0:
344,140,101457,2,0,L|252:156,1,71,0|0,1:2|0:0,0:0:0:0:
204,128,101768,2,0,P|198:162|211:195,1,71,10|2,0:0|0:0,0:0:0:0:
280,280,102078,6,0,L|108:260,1,142,2|8,1:2|0:0,0:0:0:0:
64,280,102544,1,2,0:0:0:0:
64,280,102700,2,0,B|64:252|64:252|72:232|72:232|72:204,1,71,2|0,1:2|0:0,0:0:0:0:
32,144,103011,2,0,B|32:116|32:116|24:96|24:96|24:68,1,71,8|2,0:0|0:0,0:0:0:0:
0,0,103322,6,0,B|52:0|52:0|88:32|88:32|140:32,1,142,2|8,1:2|0:0,0:0:0:0:
208,12,103788,1,2,0:0:0:0:
208,12,103943,2,0,L|200:96,1,71,2|0,1:2|0:0,0:0:0:0:
256,136,104255,2,0,L|248:220,1,71,8|2,0:0|0:0,0:0:0:0:
152,260,104565,6,0,P|192:261|224:292,1,71,2|0,1:2|0:0,0:0:0:0:
260,348,104876,1,8,0:0:0:0:
260,348,105031,1,0,0:0:0:0:
336,328,105187,2,0,B|420:336,1,71,0|0,1:0|0:0,0:0:0:0:
472,372,105498,2,0,B|484:336|484:336|472:292,1,71,10|0,0:0|0:0,0:0:0:0:
452,232,105809,6,0,L|468:140,1,71,2|0,1:2|0:0,0:0:0:0:
491,92,106120,2,0,P|456:87|424:100,1,71,10|0,0:2|0:0,0:0:0:0:
360,144,106431,2,0,P|327:156|292:151,1,71,2|0,1:2|0:0,0:0:0:0:
228,120,106742,2,0,L|240:50,1,71,10|0,0:2|0:0,0:0:0:0:
168,20,107052,5,2,1:2:0:0:
92,24,107208,1,0,0:0:0:0:
92,24,107363,2,0,B|80:96|140:80|132:156,1,142,10|2,0:0|1:2,0:0:0:0:
52,144,107829,1,0,0:0:0:0:
52,144,107985,2,0,L|60:224,1,71,10|0,0:0|0:0,0:0:0:0:
0,296,108296,6,0,B|32:296|32:296|44:304|44:304|80:304,1,71,2|0,1:2|0:0,0:0:0:0:
140,348,108607,2,0,B|172:348|172:348|184:340|184:340|220:340,1,71,8|2,0:0|0:0,0:0:0:0:
272,296,108917,1,0,1:0:0:0:
344,320,109073,1,8,0:0:0:0:
412,280,109229,2,0,B|440:252|440:252|452:368,1,142,4|2,1:2|0:0,0:0:0:0:
376,261,119488,5,6,1:2:0:0:
325,312,119799,1,2,1:2:0:0:
256,330,120109,1,2,1:2:0:0:
186,312,120420,1,0,1:0:0:0:
26,232,120731,5,2,1:2:0:0:
77,181,121042,1,0,1:0:0:0:
146,163,121352,1,2,1:2:0:0:
216,181,121663,1,0,1:0:0:0:
325,312,121975,5,2,1:2:0:0:
389,278,122286,1,2,1:2:0:0:
428,218,122596,1,2,1:2:0:0:
432,146,122907,1,2,1:2:0:0:
399,83,123218,5,2,1:2:0:0:
339,43,123528,1,2,1:2:0:0:
267,39,123839,1,2,1:2:0:0:
203,72,124150,1,2,1:2:0:0:
165,140,124462,6,0,P|121:133|11:125,2,142,2|0|0,1:2|1:0|1:0,0:0:0:0:
165,140,125394,1,2,1:2:0:0:
219,2,125705,2,0,P|289:12|312:84,1,142,2|0,1:2|1:2,0:0:0:0:
394,192,126327,1,0,1:2:0:0:
394,192,126638,2,0,L|388:268,1,71,2|0,1:2|1:0,0:0:0:0:
452,304,126949,5,2,1:2:0:0:
384,340,127105,1,8,0:0:0:0:
376,348,127183,1,8,0:0:0:0:
368,356,127260,2,0,L|316:348,2,35.5,8|8|10,0:0|0:0|0:2,0:0:0:0:
272,292,127571,1,8,0:0:0:0:
264,300,127649,1,8,0:0:0:0:
256,308,127726,2,0,L|204:300,2,35.5,8|8|8,0:0|0:0|0:0,0:0:0:0:
152,348,128038,2,0,L|104:340,2,35.5,8|8|14,0:0|0:0|0:0,0:0:0:0:
40,356,128348,5,8,0:0:0:0:
32,348,128426,1,8,0:0:0:0:
24,340,128503,2,0,L|32:288,2,35.5,8|8|8,0:0|0:0|0:0,0:0:0:0:
88,252,128815,1,0,1:0:0:0:
16,224,128970,1,8,0:0:0:0:
8,216,129048,1,8,0:0:0:0:
0,208,129125,2,0,L|8:156,2,35.5,8|8|8,0:0|0:0|0:0,0:0:0:0:
144,52,129747,6,0,B|136:28|136:28|80:16|80:16|56:32|56:32,2,106.500004062653,0|0|0,1:0|1:0|1:0,0:0:0:0:
144,52,130679,6,0,P|124:88|132:148,1,85.1999973999024,6|0,1:2|0:0,0:0:0:0:
104,204,130990,1,10,0:0:0:0:
104,204,131301,2,0,P|145:203|193:166,1,85.1999973999024,2|2,1:2|1:2,0:0:0:0:
200,108,131612,1,8,0:0:0:0:
200,108,131923,6,0,L|300:100,1,85.1999973999024,2|0,1:2|0:2,0:2:0:0:
336,40,132233,2,0,L|436:48,1,85.1999973999024,10|0,0:0|1:0,0:0:0:0:
440,40,132467,1,0,0:0:0:0:
456,32,132544,2,0,P|472:80|456:120,1,85.1999973999024,2|0,1:2|1:0,0:0:0:0:
512,168,132856,2,0,P|469:195|426:190,1,85.1999973999024,10|0,0:0|0:0,0:0:0:0:
320,184,133166,5,2,1:2:0:0:
320,184,133322,1,0,0:0:0:0:
264,244,133477,2,0,L|256:328,1,85.1999973999024,10|0,0:0|0:0,0:0:0:0:
180,360,133788,1,0,1:2:0:0:
180,360,133944,1,0,0:0:0:0:
124,300,134099,2,0,L|116:216,1,85.1999973999024,8|0,0:0|0:0,0:0:0:0:
44,184,134410,6,0,P|129:168|116:92,1,170.399994799805,2|8,1:2|0:0,0:0:0:0:
72,44,134876,1,2,0:0:0:0:
124,100,135031,2,0,L|226:94,1,85.1999973999024,2|2,1:2|1:2,0:0:0:0:
268,144,135342,2,0,P|284:116|280:64,1,85.1999973999024,10|2,0:2|1:2,0:0:0:0:
408,24,135653,5,4,0:0:0:0:
408,24,135809,2,0,B|452:16|452:16|496:40,1,85.1999973999024,2|8,0:0|0:0,0:0:0:0:
512,108,136120,1,2,0:0:0:0:
512,108,136276,2,0,B|468:116|468:116|424:92,1,85.1999973999024,0|2,1:2|1:2,0:0:0:0:
356,120,136586,2,0,L|368:216,1,85.1999973999024,8|2,0:0|0:0,0:0:0:0:
432,244,136897,6,0,P|468:228|528:248,1,85.1999973999024,0|2,1:0|1:2,0:0:0:0:
484,304,137208,2,0,P|445:320|404:312,1,85.1999973999024,8|2,0:0|0:0,0:0:0:0:
336,356,137518,1,2,1:2:0:0:
336,356,137674,1,2,1:2:0:0:
256,312,137829,1,10,0:0:0:0:
256,312,137985,1,2,0:0:0:0:
180,356,138140,5,2,1:2:0:0:
116,312,138296,2,0,L|112:264,4,42.5999986999512,8|8|8|8|0,0:0|0:0|0:0|0:0|1:0,0:0:0:0:
56,212,138762,2,0,L|48:171,4,42.5999986999512,8|8|8|8|0,0:0|0:0|0:0|0:0|1:0,0:0:0:0:
103,92,139229,1,8,0:0:0:0:
103,92,139306,1,8,0:0:0:0:
103,92,139384,2,0,L|97:46,2,42.5999986999512,8|0|8,0:0|0:0|0:0,0:0:0:0:
188,119,139695,2,0,L|175:172,2,42.5999986999512,8|8|8,0:0|0:0|0:0,0:0:0:0:
248,58,140006,1,8,0:0:0:0:
264,62,140083,1,8,0:0:0:0:
280,66,140161,1,8,0:0:0:0:
363,73,140317,2,0,L|411:58,2,42.5999986999512,8|8|8,0:0|0:0|0:0,0:0:0:0:
469,131,140627,6,0,P|409:159|373:139,1,85.1999973999024,6|0,1:2|0:0,0:0:0:0:
309,142,140939,1,10,0:0:0:0:
309,142,141249,2,0,L|293:250,1,85.1999973999024,2|2,1:2|1:2,0:0:0:0:
247,294,141560,1,10,0:0:0:0:
247,294,141871,6,0,P|215:277|159:294,1,85.1999973999024,2|0,1:2|0:0,0:0:0:0:
91,326,142182,2,0,P|58:342|3:326,1,85.1999973999024,10|0,0:2|0:0,0:0:0:0:
60,248,142492,2,0,B|76:204|76:204|56:156,1,85.1999973999024,2|0,1:2|1:0,0:0:0:0:
28,100,142803,2,0,B|12:56|12:56|32:8,1,85.1999973999024,10|0,0:0|0:0,0:0:0:0:
112,108,143114,6,0,P|162:116|208:88,1,85.1999973999024,4|0,0:0|1:0,0:0:0:0:
272,56,143425,1,8,0:0:0:0:
272,56,143581,2,0,B|364:32|320:116|432:96,1,170.399994799805,6|0,1:2|0:0,0:0:0:0:
432,187,144047,5,8,0:0:0:0:
432,187,144203,2,0,B|340:163|384:247|272:227,1,170.399994799805,6|0,1:2|0:0,0:0:0:0:
204,180,144669,2,0,P|188:224|200:268,1,85.1999973999024,8|0,0:0|0:0,0:0:0:0:
248,320,144980,2,0,L|312:308,2,42.5999986999512,8|8|8,0:0|0:0|0:0,0:0:0:0:
184,364,145291,2,0,L|120:352,2,42.5999986999512,8|8|8,0:0|0:0|0:0,0:0:0:0:
80,312,145601,5,12,0:0:0:0:
80,312,145912,2,0,P|64:272|80:220,1,85.1999973999024,10|2,0:0|1:2,0:0:0:0:
0,204,146223,2,0,P|27:170|80:158,1,85.1999973999024,8|2,0:0|1:2,0:0:0:0:
52,80,146534,2,0,P|95:86|132:126,1,85.1999973999024,10|2,0:0|1:2,0:0:0:0:
140,184,146845,6,0,L|252:172,1,85.1999973999024,8|0,0:0|1:2,0:0:0:0:
288,224,147156,2,0,P|305:184|288:132,1,85.1999973999024,10|2,0:0|1:2,0:0:0:0:
280,64,147467,2,0,L|392:76,1,85.1999973999024,8|0,0:0|1:0,0:0:0:0:
428,24,147778,2,0,P|445:64|428:116,1,85.1999973999024,10|2,0:0|1:2,0:0:0:0:
496,168,148088,5,12,0:0:0:0:
496,168,148244,1,0,1:2:0:0:
424,200,148399,2,0,L|420:296,1,85.1999973999024,8|0,0:0|1:2,0:0:0:0:
376,352,148711,5,8,0:0:0:0:
376,352,148867,1,0,1:2:0:0:
304,320,149022,2,0,L|300:224,1,85.1999973999024,8|0,0:0|1:2,0:0:0:0:
240,184,149332,5,8,0:0:0:0:
240,184,149488,1,0,1:2:0:0:
168,216,149643,2,0,L|164:312,1,85.1999973999024,8|0,0:0|1:2,0:0:0:0:
84,352,149954,2,0,L|80:256,1,85.1999973999024,10|0,0:0|0:0,0:0:0:0:
0,292,150265,2,0,L|4:196,1,85.1999973999024,10|0,0:0|0:0,0:0:0:0:
0,128,150576,6,0,B|84:152|68:76|160:96,1,170.399994799805,12|8,1:2|0:0,0:0:0:0:
216,40,151042,1,8,0:0:0:0:
216,40,151197,2,0,P|240:84|228:132,1,85.1999973999024,8|8,0:0|0:0,0:0:0:0:
256,192,151508,2,0,P|205:190|170:156,2,85.1999973999024,8|8|8,0:0|0:0|0:0,0:0:0:0:
312,136,151974,1,8,0:0:0:0:
312,136,152441,1,8,0:0:0:0:
312,136,153063,6,0,L|319:30,2,85.1999973999024,6|2|10,1:2|0:0|0:0,0:0:0:0:
392,116,153529,2,0,L|396:60,2,42.5999986999512,2|8|2,0:0|0:0|1:2,0:0:0:0:
476,64,153840,2,0,L|470:149,1,85.1999973999024,0|2,0:0|0:0,0:0:0:0:
512,240,154151,6,0,B|457:226|457:226|416:252|416:252|348:232,1,170.399994799805,10|2,0:0|0:0,0:0:0:0:
280,220,154617,1,10,0:0:0:0:
220,268,154773,1,2,0:0:0:0:
144,248,154928,2,0,B|132:204|132:204|160:148,1,85.1999973999024,0|2,1:0|0:0,0:0:0:0:
196,104,155239,2,0,L|268:108,3,42.5999986999512,10|8|10|8,0:0|0:0|0:0|0:0,0:0:0:0:
176,96,155550,6,0,B|188:52|188:52|160:-4,1,85.1999973999024,2|2,0:0|1:2,0:0:0:0:
108,64,155861,1,10,0:0:0:0:
32,28,156016,1,2,0:0:0:0:
32,28,156094,1,8,0:0:0:0:
32,28,156172,2,0,L|24:120,1,85.1999973999024,2|2,1:2|1:2,0:0:0:0:
76,180,156483,1,2,0:0:0:0:
0,188,156638,54,0,B|116:176|40:244|156:248,1,170.399994799805,8|2,0:0|1:2,0:0:0:0:
208,204,157104,2,0,P|226:235|204:296,1,85.1999973999024,8|2,0:0|0:0,0:0:0:0:
176,348,157415,1,0,0:0:0:0:
256,352,157571,1,8,0:0:0:0:
264,364,157648,1,8,0:0:0:0:
272,376,157726,2,0,L|328:376,3,42.5999986999512,8|8|8|8,0:0|0:0|0:0|0:0,0:0:0:0:
348,360,158037,6,0,P|336:316|348:272,1,85.1999973999024,4|2,0:0|0:0,0:0:0:0:
420,240,158348,1,10,0:0:0:0:
500,272,158503,1,0,0:0:0:0:
500,272,158581,1,8,0:0:0:0:
500,272,158659,2,0,P|512:320|500:372,2,85.1999973999024,2|2|0,0:0|1:2|0:0,0:0:0:0:
416,316,159125,6,0,L|424:136,1,170.399994799805,10|2,0:0|1:2,0:0:0:0:
472,88,159591,2,0,P|440:68|388:80,1,85.1999973999024,8|2,0:0|0:0,0:0:0:0:
332,24,159902,1,0,1:0:0:0:
264,60,160058,1,0,1:2:0:0:
192,24,160213,2,0,L|184:72,2,42.5999986999512,10|8|0,0:0|0:0|0:0,0:0:0:0:
108,76,160524,22,0,P|87:46|32:40,2,85.1999973999024,6|2|10,1:2|0:0|0:0,0:0:0:0:
40,112,160990,1,0,0:0:0:0:
12,184,161146,2,0,L|28:272,1,85.1999973999024,8|0,0:0|1:0,0:0:0:0:
104,304,161457,2,0,L|120:216,1,85.1999973999024,8|0,0:0|1:0,0:0:0:0:
196,184,161768,5,10,0:0:0:0:
252,248,161923,1,0,1:0:0:0:
328,224,162078,2,0,L|344:312,1,85.1999973999024,8|0,0:0|1:2,0:0:0:0:
412,364,162389,2,0,B|424:312|424:312|468:280|468:280|488:204,1,170.399994799805,8|8,0:0|0:0,0:0:0:0:
504,144,162856,1,8,0:0:0:0:
504,144,163011,1,4,0:0:0:0:
88,69,172648,5,2,0:0:0:0:
88,69,172959,6,0,B|145:83|145:83|152:90|152:90|200:102,1,106.5,4|0,1:2|1:0,0:0:0:0:
251,59,173581,1,8,0:0:0:0:
251,59,173892,1,2,0:0:0:0:
251,59,174203,2,0,B|282:73|335:82,1,71,2|0,1:2|0:0,0:0:0:0:
369,140,174669,1,0,1:0:0:0:
369,140,174825,2,0,B|400:126|453:117,1,71,8|2,0:0|0:0,0:0:0:0:
395,263,175446,6,0,B|329:270|353:295|291:304,1,106.5,2|2,1:2|1:2,0:0:0:0:
231,335,176068,2,0,P|217:296|238:227,1,106.5,10|2,0:2|0:0,0:0:0:0:
288,185,176690,2,0,L|280:103,1,71,2|0,1:2|0:0,0:0:0:0:
232,57,177156,1,0,1:0:0:0:
232,57,177312,2,0,P|197:83|128:74,1,106.5,10|8,0:0|0:0,0:0:0:0:
73,39,177933,2,0,L|87:157,1,106.5,0|0,1:0|1:0,0:0:0:0:
41,205,178555,1,8,0:0:0:0:
41,205,178866,6,0,L|51:251,1,35.5,2|0,0:0|1:0,0:0:0:0:
21,309,179177,2,0,P|60:296|103:294,1,71,2|2,1:2|0:0,0:0:0:0:
129,230,179643,1,0,1:0:0:0:
129,230,179799,2,0,P|168:243|211:245,1,71,8|2,0:0|0:0,0:0:0:0:
306,347,180420,2,0,B|359:337|338:309|413:308,1,106.5,2|0,1:2|1:0,0:0:0:0:
462,262,181042,2,0,P|476:232|455:189,1,71,8|0,0:0|0:0,0:0:0:0:
464,197,181664,1,0,1:2:0:0:
364,85,181975,6,0,L|325:92,1,35.5,0|0,1:0|1:0,0:0:0:0:
290,155,182286,2,0,L|251:148,1,35.5,8|0,0:0|1:0,0:0:0:0:
203,101,182597,1,0,1:0:0:0:
203,101,182752,1,8,0:0:0:0:
138,314,184462,6,0,P|96:300|8:289,2,113.6,2|2|2,0:0|0:0|0:0,0:0:0:0:
141,313,185394,6,0,B|183:329|183:329|191:336|191:336|251:355,1,85.1999973999024,6|2,0:0|0:0,0:0:0:0:
291,371,185705,1,10,0:0:0:0:
291,371,186016,2,0,B|304:332|304:332|288:282,1,85.1999973999024,2|2,1:2|1:2,0:0:0:0:
234,237,186327,1,10,0:0:0:0:
234,237,186638,6,0,L|248:144,1,85.1999973999024,2|0,1:2|0:0,0:0:0:0:
327,124,186949,2,0,L|314:39,1,85.1999973999024,8|0,0:0|0:0,0:0:0:0:
304,23,187182,1,8,0:0:0:0:
290,10,187260,2,0,P|236:24|216:76,1,85.1999973999024,2|0,1:2|1:0,0:0:0:0:
149,93,187571,2,0,P|95:79|75:27,1,85.1999973999024,10|0,0:0|1:0,0:0:0:0:
0,0,187882,6,0,P|8:57|10:154,1,127.799996099854,2|0,1:2|0:0,0:0:0:0:
28,140,188192,2,0,P|24:205|25:254,1,85.1999973999024,10|0,0:0|0:0,0:0:0:0:
2,307,188503,1,2,1:2:0:0:
2,307,188659,1,0,1:0:0:0:
82,280,188814,2,0,L|183:299,1,85.1999973999024,10|0,0:0|0:0,0:0:0:0:
248,322,189125,6,0,P|200:318|208:206,1,170.399994799805,2|8,1:2|0:0,0:0:0:0:
255,161,189591,1,2,0:2:0:0:
194,100,189747,2,0,P|201:51|208:-2,1,85.1999973999024,2|2,1:2|0:2,0:0:0:0:
289,0,190058,2,0,P|283:42|277:84,1,85.1999973999024,10|2,0:2|0:2,0:0:0:0:
342,139,190369,5,6,1:2:0:0:
415,95,190524,2,0,P|467:108|517:115,1,85.1999973999024,2|10,0:0|0:0,0:0:0:0:
505,198,190835,1,2,0:0:0:0:
505,198,190990,1,2,1:2:0:0:
505,198,191146,2,0,B|478:235|473:290,1,85.1999973999024,2|8,1:2|0:0,0:0:0:0:
409,332,191457,1,2,0:0:0:0:
346,274,191612,6,0,P|292:294|247:301,1,85.1999973999024,2|2,1:2|0:0,0:0:0:0:
214,368,191923,2,0,P|160:348|115:341,1,85.1999973999024,8|2,0:0|0:0,0:0:0:0:
50,365,192234,1,2,1:2:0:0:
50,365,192389,1,2,1:2:0:0:
10,298,192545,1,10,0:2:0:0:
10,298,192700,1,2,0:0:0:0:
62,231,192856,5,0,1:0:0:0:
134,267,193011,2,0,L|122:322,4,42.5999986999512,8|8|8|8|0,0:0|0:0|0:0|0:0|1:2,0:0:0:0:
199,214,193477,2,0,L|252:196,4,42.5999986999512,8|8|8|8|8,0:0|0:0|0:0|0:0|0:2,0:0:0:0:
125,182,193944,1,8,0:0:0:0:
125,182,194021,1,8,0:0:0:0:
125,182,194099,2,0,L|83:144,2,42.5999986999512,8|0|8,0:0|0:0|0:0,0:0:0:0:
156,64,194410,2,0,L|150:131,2,42.5999986999512,8|8|8,0:0|0:0|0:0,0:0:0:0:
236,54,194721,1,8,0:0:0:0:
234,71,194799,1,8,0:0:0:0:
232,88,194877,1,8,0:0:0:0:
308,69,195032,2,0,L|311:26,2,42.5999986999512,8|8|8,0:0|0:0|0:0,0:0:0:0:
371,141,195343,6,0,P|363:196|360:252,1,85.1999973999024,6|2,1:2|0:0,0:0:0:0:
403,299,195654,1,10,0:0:0:0:
403,299,195964,2,0,B|364:279|364:279|296:302,1,85.1999973999024,2|2,1:2|1:2,0:0:0:0:
267,343,196275,1,10,0:0:0:0:
267,343,196586,6,0,P|214:334|165:334,1,85.1999973999024,2|0,1:2|0:0,0:0:0:0:
73,248,196897,2,0,P|115:245|157:238,1,85.1999973999024,10|0,1:2|0:0,0:0:0:0:
234,172,197208,2,0,P|250:129|227:79,1,85.1999973999024,2|2,1:2|1:2,0:0:0:0:
126,32,197519,2,0,P|137:108|139:140,1,85.1999973999024,10|0,0:0|0:0,0:0:0:0:
245,171,197830,6,0,B|301:161|345:160|346:159,1,85.1999973999024,6|0,1:2|1:0,0:0:0:0:
369,89,198141,1,8,0:0:0:0:
306,0,198296,2,0,B|315:75|315:75|322:74|322:74|332:185,1,170.399994799805,4|0,1:2|1:0,0:0:0:0:
438,236,198762,5,8,0:0:0:0:
412,164,198918,2,0,P|340:168|336:272,1,170.399994799805,4|0,1:2|2:0,0:0:0:0:
352,334,199384,2,0,P|298:329|252:326,1,85.1999973999024,8|0,0:0|1:0,0:0:0:0:
232,248,199695,2,0,P|178:253|132:256,1,85.1999973999024,10|0,0:0|1:0,0:0:0:0:
125,266,199928,1,0,0:0:0:0:
125,266,200006,2,0,L|133:322,3,42.5999986999512,10|8|8|8,0:0|0:0|0:0|0:0,0:0:0:0:
99,264,200317,6,0,P|69:227|96:104,1,170.399994799805,6|10,1:2|0:0,0:0:0:0:
59,32,200783,2,0,L|155:50,1,85.1999973999024,2|8,1:2|0:0,0:0:0:0:
217,20,201093,1,2,1:2:0:0:
217,20,201249,1,10,0:0:0:0:
297,7,201405,6,0,B|293:92|229:72|244:182,1,170.399994799805,2|0,1:2|1:0,0:0:0:0:
183,223,201871,1,10,0:0:0:0:
183,223,202027,1,2,1:2:0:0:
244,269,202182,2,0,L|234:369,1,85.1999973999024,8|0,0:0|0:0,0:0:0:0:
309,369,202493,2,0,P|368:367|386:335,1,85.1999973999024,10|2,0:0|1:2,0:0:0:0:
441,301,202804,6,0,B|434:199|434:198,1,85.1999973999024,14|0,0:2|1:0,0:0:0:0:
339,196,203115,2,0,B|346:94|346:93,1,85.1999973999024,8|0,0:0|1:0,0:0:0:0:
298,49,203426,2,0,B|258:33|258:33|202:61,1,85.1999973999024,8|0,0:0|1:0,0:0:0:0:
172,119,203736,2,0,B|132:135|132:135|76:107,1,85.1999973999024,8|0,0:0|1:0,0:0:0:0:
49,53,204047,2,0,L|70:247,1,170.399994799805,8|8,0:0|0:0,0:0:0:0:
23,286,204514,1,0,1:0:0:0:
103,358,204669,6,0,P|152:354|170:311,1,85.1999973999024,10|0,0:0|1:0,0:0:0:0:
231,231,204980,2,0,P|280:235|298:278,1,85.1999973999024,10|0,0:0|1:0,0:0:0:0:
336,349,205291,6,0,B|341:266|341:266|351:262|351:262|357:153,1,170.399994799805,6|8,1:2|0:0,0:0:0:0:
412,134,205757,1,8,0:0:0:0:
462,76,205913,1,8,0:0:0:0:
462,76,206068,1,8,0:0:0:0:
411,18,206223,1,8,0:0:0:0:
411,18,206379,1,8,0:0:0:0:
345,57,206534,5,8,0:0:0:0:
274,25,206690,1,8,0:0:0:0:
274,25,207156,5,8,0:0:0:0:
345,57,207312,1,8,0:0:0:0:
222,296,207778,5,4,1:2:0:0:
82,330,212752,5,6,1:2:0:0:
82,330,212907,2,0,B|73:255|6:270|23:163,1,170.399994799805,0|2,1:0|0:0,0:0:0:0:
46,107,213374,2,0,P|22:94|-18:97,2,42.5999986999512,2|2|2,1:2|0:0|1:2,0:0:0:0:
106,157,213685,1,2,0:2:0:0:
171,200,213840,2,0,P|160:222|113:238,2,42.5999986999512,10|2|2,0:0|0:0|0:0,0:0:0:0:
180,127,214151,1,2,1:2:0:0:
249,96,214306,6,0,L|241:46,3,42.5999986999512,10|2|2|2,0:0|0:0|0:0|0:0,0:0:0:0:
268,26,214617,2,0,P|317:36|333:73,1,85.1999973999024,8|2,0:0|1:2,0:0:0:0:
409,67,214928,2,0,P|403:135|402:182,1,85.1999973999024,10|2,0:0|1:2,0:0:0:0:
482,232,215239,6,0,B|444:254|444:254|388:228|388:227,1,85.1999973999024,6|0,1:2|1:0,0:0:0:0:
318,189,215550,2,0,B|280:167|280:167|224:193|224:194,1,85.1999973999024,8|0,0:0|1:0,0:0:0:0:
179,245,215861,2,0,P|192:317|195:355,1,85.1999973999024,10|0,0:0|1:2,0:0:0:0:
114,368,216172,2,0,P|61:359|46:325,1,85.1999973999024,8|0,0:0|1:0,0:0:0:0:
7,238,216483,6,0,B|95:221|52:166|160:160,1,170.399994799805,10|8,0:0|0:0,0:0:0:0:
215,102,216949,1,0,1:0:0:0:
163,34,217104,1,8,0:0:0:0:
163,34,217415,5,8,0:0:0:0:
215,102,217571,1,8,0:0:0:0:
282,56,217726,6,0,P|315:67|390:75,1,106.500004062653,2|2,0:0|0:0,0:0:0:0:
468,143,218348,1,2,0:0:0:0:
468,143,218503,1,2,0:0:0:0:
388,213,218814,5,2,0:0:0:0:
290,170,219125,1,2,0:0:0:0:
209,239,219436,1,2,0:0:0:0:
209,239,219747,5,8,0:0:0:0:
156,179,219902,1,8,0:0:0:0:
208,118,220058,1,12,0:0:0:0:
256,192,220135,12,0,226353,0:0:0:0:
