osu file format v14

[General]
AudioFilename: audio.mp3
AudioLeadIn: 0
PreviewTime: 183083
Countdown: 0
SampleSet: Soft
StackLeniency: 0.7
Mode: 0
LetterboxInBreaks: 0
WidescreenStoryboard: 0

[Editor]
DistanceSpacing: 1.4
BeatDivisor: 4
GridSize: 32
TimelineZoom: 1.3

[Metadata]
Title:Guitar to Kodoku to Aoi Hoshi
TitleUnicode:ギターと孤独と蒼い惑星
Artist:kessoku band
ArtistUnicode:結束バンド
Creator:Saggin
Version:Noise
Source:ぼっち・ざ・ろっく!
Tags:wakusei 喜多郁代 Kita Ikuyo 長谷川育美 Hasegawa Ikumi 三井律郎 mitsui ritsuo zaq 音羽 otoha akkin bocchi the rock za japanese rock j-rock jrock anime _kotachi_ -brethia pnky kanor
BeatmapID:3870266
BeatmapSetID:1879988

[Difficulty]
HPDrainRate:5
CircleSize:3.8
OverallDifficulty:9.2
ApproachRate:9.6
SliderMultiplier:1.72
SliderTickRate:1

[Events]
//Background and Video events
0,0,"bg.jpg",0,0
//Break Periods
//Storyboard Layer 0 (Background)
//Storyboard Layer 1 (Fail)
//Storyboard Layer 2 (Pass)
//Storyboard Layer 3 (Foreground)
//Storyboard Layer 4 (Overlay)
//Storyboard Sound Samples

[TimingPoints]
110,310.880829015544,4,2,1,100,1,0
1353,-100,4,2,1,40,0,0
2597,-100,4,2,1,70,0,0
15032,-111.111111111111,4,2,1,40,0,0
24514,-66.6666666666667,4,2,1,50,0,0
24980,-100,4,2,1,50,0,0
34928,-133.333333333333,4,2,1,40,0,0
44876,-100,4,2,1,50,0,0
52493,-90.9090909090909,4,2,1,60,0,0
55135,-90.9090909090909,4,2,1,40,0,0
56068,-66.6666666666667,4,2,1,70,0,1
56301,-66.6666666666667,4,2,1,5,0,1
56379,-83.3333333333333,4,2,1,70,0,1
77363,-83.3333333333333,4,2,1,70,0,0
77830,-83.3333333333333,4,2,1,70,0,1
77985,-83.3333333333333,4,2,1,70,0,0
78451,-100,4,2,1,60,0,0
89643,-111.111111111111,4,2,1,40,0,0
99125,-66.6666666666667,4,2,1,50,0,0
99591,-100,4,2,1,50,0,0
109540,-133.333333333333,4,2,1,40,0,0
119488,-100,4,2,1,50,0,0
127104,-100,4,2,1,60,0,0
129747,-100,4,2,1,40,0,0
130679,-66.6666666666667,4,2,1,70,0,1
130990,-83.3333333333333,4,2,1,70,0,1
140628,-66.6666666666667,4,2,1,70,0,1
140939,-83.3333333333333,4,2,1,70,0,1
151975,-83.3333333333333,4,2,1,70,0,0
152441,-83.3333333333333,4,2,1,70,0,1
152597,-83.3333333333333,4,2,1,70,0,0
153063,-83.3333333333333,4,2,1,70,0,1
162156,-83.3333333333333,4,2,1,5,0,1
162234,-83.3333333333333,4,2,1,70,0,1
162312,-83.3333333333333,4,2,1,5,0,1
162389,-83.3333333333333,4,2,1,70,0,1
163011,-83.3333333333333,4,2,1,40,0,0
164255,-133.333333333333,4,2,1,40,0,0
172959,-111.111111111111,4,2,1,50,0,0
184462,-111.111111111111,4,2,1,40,0,0
184695,-111.111111111111,4,2,1,5,0,0
184773,-100,4,2,1,40,0,0
185006,-100,4,2,1,5,0,0
185084,-90.9090909090909,4,2,1,40,0,0
185317,-90.9090909090909,4,2,1,5,0,0
185394,-66.6666666666667,4,2,1,80,0,1
185705,-83.3333333333333,4,2,1,80,0,1
206690,-83.3333333333333,4,2,1,80,0,0
207156,-83.3333333333333,4,2,1,80,0,1
207312,-83.3333333333333,4,2,1,80,0,0
207778,-100,4,2,1,60,0,0

[Colours]
Combo1 : 255,217,100
Combo2 : 255,176,216
Combo3 : 149,197,255
Combo4 : 247,100,122

[HitObjects]
383,86,1353,5,4,1:1:0:0:
381,99,1664,5,4,1:1:0:0:
379,112,1975,5,4,1:1:0:0:
376,125,2286,5,4,1:1:0:0:
374,140,2597,6,0,P|365:189|353:247,1,86,6|0,1:2|0:0,0:0:0:0:
248,339,2907,1,8,0:0:0:0:
438,231,3063,1,2,0:0:0:0:
438,231,3141,1,8,0:0:0:0:
438,231,3218,1,0,1:0:0:0:
285,147,3374,2,0,P|237:160|189:165,1,86,0|0,1:0|0:0,0:0:0:0:
44,78,3685,5,8,0:0:0:0:
146,244,3840,1,2,0:0:0:0:
235,84,3996,2,0,P|243:41|251:0,1,86,0|8,1:0|0:0,0:0:0:0:
35,170,4306,1,0,0:0:0:0:
35,170,4384,1,8,0:0:0:0:
35,170,4462,2,0,P|42:212|51:254,1,86,0|0,1:0|1:0,0:0:0:0:
279,355,4773,5,8,0:0:0:0:
328,349,4850,1,8,0:0:0:0:
375,326,4928,1,8,0:0:0:0:
397,279,5006,1,8,0:0:0:0:
387,228,5084,2,0,P|336:237|285:249,1,86,0|0,1:0|0:0,0:0:0:0:
162,384,5394,1,8,0:0:0:0:
43,254,5550,1,2,0:0:0:0:
43,254,5628,1,8,0:0:0:0:
43,254,5705,1,0,1:0:0:0:
185,140,5861,2,0,P|179:193|178:239,1,86,0|0,1:0|0:0,0:0:0:0:
25,354,6172,6,0,P|76:351|97:316,1,86,8|0,0:0|0:0,0:0:0:0:
281,363,6483,2,0,P|318:327|311:287,1,86,0|8,1:0|0:0,0:0:0:0:
486,256,6793,2,0,P|491:205|461:178,1,86,2|0,0:0|1:0,0:0:0:0:
469,37,7104,5,8,0:0:0:0:
469,37,7182,1,8,0:0:0:0:
469,37,7260,2,0,L|407:47,1,43,8|8,0:0|0:0,0:0:0:0:
368,175,7415,2,0,L|306:165,1,43,8|8,0:0|0:0,0:0:0:0:
200,20,7571,6,0,B|205:72|205:72|209:73|209:73|215:127,1,86,6|0,1:2|1:0,0:0:0:0:
122,306,7882,1,8,0:0:0:0:
67,112,8037,1,2,0:0:0:0:
67,112,8115,1,8,0:0:0:0:
67,112,8192,1,0,1:0:0:0:
222,299,8348,1,2,1:2:0:0:
358,95,8503,1,2,0:0:0:0:
135,194,8659,6,0,P|183:199|225:209,1,86,8|0,0:0|0:0,0:0:0:0:
204,13,8970,2,0,P|245:22|288:26,1,86,0|8,1:0|0:0,0:0:0:0:
469,161,9280,2,0,P|461:110|344:112,1,172,2|0,0:0|1:0,0:0:0:0:
225,189,9747,5,8,0:0:0:0:
229,214,9825,1,8,0:0:0:0:
233,239,9902,1,8,0:0:0:0:
238,264,9980,1,8,0:0:0:0:
242,289,10058,2,0,P|251:354|256:404,1,86,6|0,1:2|0:0,0:0:0:0:
364,182,10369,5,8,0:0:0:0:
157,302,10524,1,0,1:0:0:0:
338,326,10679,5,8,0:0:0:0:
125,188,10835,1,0,1:0:0:0:
59,376,10990,5,8,0:0:0:0:
232,195,11146,1,0,1:0:0:0:
54,57,11301,5,8,0:0:0:0:
148,296,11457,1,0,1:0:0:0:
170,56,11612,5,8,0:0:0:0:
47,288,11768,1,0,1:0:0:0:
170,56,11923,5,8,0:0:0:0:
248,305,12078,1,0,1:0:0:0:
293,13,12234,5,8,0:0:0:0:
142,306,12389,1,8,0:0:0:0:
142,306,15032,6,0,B|206:288|210:344|311:314,1,154.799995275879,0|0,1:2|1:0,0:0:0:0:
439,358,15498,2,0,P|449:319|435:278,1,77.3999976379395,0|0,1:0|1:0,0:0:0:0:
271,168,15809,1,0,1:0:0:0:
283,244,15964,1,0,1:0:0:0:
293,318,16120,1,0,1:0:0:0:
469,187,16275,6,0,P|417:197|378:199,1,77.3999976379395,0|0,1:0|1:0,0:0:0:0:
393,66,16586,2,0,P|341:76|302:78,1,77.3999976379395,0|0,1:0|1:0,0:0:0:0:
187,246,16897,2,0,P|233:246|261:145,1,154.799995275879,0|0,1:2|1:0,0:0:0:0:
268,156,17519,6,0,P|253:119|141:136,1,154.799995275879,0|0,1:2|1:0,0:0:0:0:
27,259,17985,1,0,1:0:0:0:
27,259,18141,2,0,P|34:309|34:342,1,77.3999976379395,0|0,1:0|1:0,0:0:0:0:
178,327,18451,2,0,P|176:288|170:250,1,77.3999976379395,0|0,1:0|1:0,0:0:0:0:
29,108,18762,6,0,B|108:91|78:39|173:35,1,154.799995275879,0|0,1:2|1:0,0:0:0:0:
337,142,19229,1,0,1:0:0:0:
316,65,19384,2,0,P|251:67|243:167,1,154.799995275879,0|0,1:0|1:0,0:0:0:0:
292,304,19850,1,0,1:0:0:0:
292,304,20006,2,0,P|357:293|471:281,2,154.799995275879,0|0|0,1:0|1:0|1:0,0:0:0:0:
292,304,20939,6,0,P|236:314|189:324,1,77.3999976379395,2|0,1:2|1:0,0:0:0:0:
53,356,21249,2,0,B|63:281|3:304|15:197,1,154.799995275879,2|0,1:2|1:0,0:0:0:0:
141,55,21716,1,0,1:0:0:0:
141,55,21871,2,0,P|157:96|122:141,1,77.3999976379395,2|0,1:2|1:0,0:0:0:0:
20,128,22182,2,0,P|3:87|38:42,1,77.3999976379395,2|0,1:2|1:0,0:0:0:0:
169,202,22493,6,0,P|124:208|79:222,1,77.3999976379395,2|0,1:2|1:0,0:0:0:0:
216,69,22804,2,0,P|177:64|140:54,1,77.3999976379395,2|0,1:2|1:0,0:0:0:0:
336,198,23115,2,0,P|297:202|260:212,1,77.3999976379395,2|0,1:2|1:0,0:0:0:0:
404,40,23426,2,0,P|365:35|328:25,1,77.3999976379395,2|0,1:2|1:0,0:0:0:0:
417,229,23736,6,0,P|420:185|532:196,1,154.799995275879,2|0,1:2|1:0,0:0:0:0:
403,318,24203,1,2,1:2:0:0:
318,211,24358,1,2,1:2:0:0:
482,347,24514,6,0,L|415:361,1,64.5000024604798,12|0,0:0|0:0,0:0:0:0:
418,360,24825,5,8,0:0:0:0:
418,360,24902,1,8,0:0:0:0:
418,360,24980,2,0,B|324:347|381:292|262:290,1,172,6|8,1:2|0:0,0:0:0:0:
85,211,25446,1,2,0:0:0:0:
245,111,25602,1,2,1:2:0:0:
229,217,25757,5,2,0:0:0:0:
75,54,25913,1,10,0:0:0:0:
229,217,26068,1,2,0:0:0:0:
99,374,26223,6,0,P|91:321|77:279,1,86,2|0,1:2|0:2,0:2:0:0:
323,200,26534,2,0,P|311:241|305:283,1,86,10|0,0:2|0:2,0:2:0:0:
142,185,26845,6,0,P|187:205|237:205,1,86,2|0,1:2|1:0,0:0:0:0:
308,366,27156,2,0,P|353:346|403:346,1,86,10|0,0:2|1:0,0:0:0:0:
511,192,27467,6,0,P|504:145|387:154,1,172,2|8,1:2|0:0,0:0:0:0:
214,87,27933,1,2,0:0:0:0:
326,1,28089,2,0,P|317:63|304:196,1,172,2|8,1:2|0:0,0:0:0:0:
156,308,28555,5,2,0:0:0:0:
17,210,28711,2,0,B|51:166|116:175|116:175|139:213|182:216,1,172,2|8,1:2|0:0,0:0:0:0:
348,341,29177,1,2,0:0:0:0:
391,222,29332,2,0,B|292:233|339:286|220:299,1,172,2|8,1:2|0:0,0:0:0:0:
0,318,29799,5,2,0:0:0:0:
90,378,29954,2,0,P|110:328|77:207,2,172,2|8|0,1:2|0:0|1:0,0:0:0:0:
205,226,30731,1,0,0:0:0:0:
87,113,30887,2,0,P|39:133|-7:141,1,86,10|0,0:0|0:0,0:0:0:0:
199,225,31198,6,0,P|215:184|188:138,1,86,2|0,1:2|0:0,0:0:0:0:
0,46,31508,2,0,P|8:99|6:140,1,86,10|0,0:0|0:0,0:0:0:0:
155,50,31819,5,2,1:2:0:0:
29,207,31975,1,0,1:0:0:0:
160,325,32130,2,0,P|206:312|224:271,1,86,10|0,0:0|0:0,0:0:0:0:
104,128,32441,2,0,P|110:176|113:226,1,86,2|0,1:2|0:0,0:0:0:0:
310,330,32752,2,0,P|313:287|318:244,1,86,10|0,0:2|0:0,0:0:0:0:
345,55,33063,2,0,P|391:68|409:109,1,86,2|0,1:2|0:0,0:0:0:0:
497,257,33374,2,0,P|441:266|400:279,1,86,8|0,0:0|0:0,0:0:0:0:
225,368,33685,6,0,B|127:359|180:304|65:302,1,172,2|8,1:2|0:0,0:0:0:0:
287,139,34151,1,2,0:0:0:0:
215,285,34306,1,0,1:0:0:0:
113,87,34462,5,8,0:0:0:0:
340,234,34617,1,12,0:0:0:0:
0,302,34928,6,0,B|32:217|134:246|132:321|132:321|149:365|193:346,1,258.000009841919,2|0,0:0|0:0,0:0:0:0:
177,350,35861,1,0,0:0:0:0:
475,211,36172,6,0,B|433:133|366:150|366:150|317:196|352:286,1,258.000009841919,2|0,0:0|0:0,0:0:0:0:
344,263,37104,1,0,0:0:0:0:
164,365,37415,5,2,0:0:0:0:
114,303,37726,1,2,0:0:0:0:
174,248,38037,1,2,0:0:0:0:
341,126,38348,5,2,0:0:0:0:
169,35,38659,6,0,B|197:6|200:-17|200:-17|211:69|127:96|170:196,1,258.000009841919,2|0,0:0|0:0,0:0:0:0:
161,171,39591,1,0,0:0:0:0:
1,363,39902,6,0,P|-6:316|152:311,1,258.000009841919,2|0,0:0|0:0,0:0:0:0:
147,298,40835,1,0,0:0:0:0:
449,334,41146,6,0,B|473:279|406:205|323:283|273:365,1,258.000009841919,2|0,0:0|0:0,0:0:0:0:
282,350,42078,1,0,0:0:0:0:
122,211,42389,5,2,0:0:0:0:
201,227,42700,5,2,0:0:0:0:
276,242,43011,5,2,0:0:0:0:
416,151,43322,5,2,0:0:0:0:
261,27,43633,6,0,P|266:71|267:100,1,64.5000024604798,0|0,1:0|0:0,0:0:0:0:
405,83,43944,6,0,P|400:127|399:156,1,64.5000024604798,0|0,1:0|0:0,0:0:0:0:
293,206,44255,6,0,P|298:250|299:279,1,64.5000024604798,0|0,1:0|0:0,0:0:0:0:
428,281,44565,6,0,P|423:325|422:354,1,64.5000024604798,0|0,1:0|0:0,0:0:0:0:
282,193,44876,6,0,B|208:214|208:214|202:231|202:231|103:262,1,172,6|0,1:2|1:0,0:0:0:0:
20,143,45343,1,0,0:0:0:0:
136,60,45498,2,0,P|127:117|124:161,1,86,2|0,1:2|0:0,0:0:0:0:
35,312,45809,2,0,P|30:269|23:226,1,86,2|0,1:2|0:0,0:0:0:0:
225,54,46120,6,0,P|269:37|325:140,1,172,2|0,1:2|1:0,0:0:0:0:
443,300,46586,1,2,0:0:0:0:
508,186,46742,2,0,P|463:195|396:203,1,86,2|0,1:2|1:0,0:0:0:0:
315,359,47053,2,0,P|357:364|399:373,1,86,2|0,1:2|1:0,0:0:0:0:
237,231,47363,5,2,1:2:0:0:
414,119,47519,1,0,1:0:0:0:
286,23,47674,2,0,P|294:75|296:119,1,86,2|0,1:2|1:0,0:0:0:0:
499,193,47985,2,0,P|491:245|489:289,1,86,2|0,1:2|1:0,0:0:0:0:
320,365,48296,2,0,P|304:322|326:276,1,86,2|0,1:2|1:0,0:0:0:0:
500,109,48607,6,0,B|390:114|448:179|324:187,1,172,2|2,1:2|1:2,0:0:0:0:
168,236,49073,1,0,1:0:0:0:
149,51,49229,2,0,P|157:103|159:147,1,86,2|0,1:2|1:0,0:0:0:0:
187,334,49540,1,2,1:2:0:0:
252,106,49695,1,0,1:0:0:0:
20,222,49850,6,0,P|91:228|222:254,2,172,2|0|0,1:2|1:0|1:0,0:0:0:0:
97,335,50628,1,0,1:0:0:0:
158,149,50783,2,0,P|166:102|180:54,1,86,2|0,1:2|1:0,0:0:0:0:
19,217,51094,5,0,1:0:0:0:
206,271,51249,1,2,1:2:0:0:
19,217,51405,2,0,P|11:170|-3:122,1,86,2|0,1:2|1:0,0:0:0:0:
243,175,51716,2,0,P|231:216|224:258,1,86,0|0,1:2|1:0,0:0:0:0:
347,84,52027,5,2,1:2:0:0:
117,226,52182,1,0,1:0:0:0:
9,2,52337,1,2,1:2:0:0:
240,146,52493,5,8,0:0:0:0:
240,146,52571,1,8,0:0:0:0:
240,146,52648,2,0,L|160:161,1,47.3000014434815,8|8,0:0|0:0,0:0:0:0:
7,278,52804,2,0,L|54:289,1,47.3000014434815,8|8,0:0|0:0,0:0:0:0:
245,378,52959,5,10,0:0:0:0:
253,348,53037,1,8,0:0:0:0:
261,318,53115,1,8,0:0:0:0:
268,289,53192,1,8,0:0:0:0:
276,259,53270,2,0,L|289:206,1,47.3000014434815,8|8,0:0|0:0,0:0:0:0:
105,100,53426,1,8,0:0:0:0:
105,100,53503,1,8,0:0:0:0:
105,100,53581,2,0,L|117:177,1,47.3000014434815,2|0,1:2|0:0,0:0:0:0:
253,348,53736,5,8,0:0:0:0:
302,363,53814,1,8,0:0:0:0:
354,359,53892,1,8,0:0:0:0:
395,326,53970,1,8,0:0:0:0:
416,279,54047,1,10,0:0:0:0:
413,226,54125,1,8,0:0:0:0:
383,183,54203,5,10,0:0:0:0:
329,153,54280,1,8,0:0:0:0:
268,163,54358,1,8,0:0:0:0:
229,210,54436,1,8,0:0:0:0:
178,236,54514,5,8,0:0:0:0:
100,219,54591,5,8,0:0:0:0:
40,164,54669,5,8,0:0:0:0:
36,83,54747,5,8,0:0:0:0:
86,20,54825,5,8,0:0:0:0:
320,256,55135,5,0,1:0:0:0:
320,256,55446,5,0,1:0:0:0:
320,256,55757,5,0,1:0:0:0:
320,256,56068,6,0,B|245:271|245:271|218:303|218:303|102:334,1,193.50000738144,6|0,1:2|0:0,0:0:0:0:
76,274,56379,2,0,P|50:225|75:174,1,103.199996850586,10|0,0:0|0:0,0:0:0:0:
244,21,56690,1,2,1:2:0:0:
143,214,56845,1,0,1:0:0:0:
0,88,57001,2,0,P|54:97|111:103,1,103.199996850586,8|0,0:0|0:0,0:0:0:0:
368,191,57312,6,0,B|387:140|387:140|365:81,1,103.199996850586,2|0,1:2|0:0,0:0:0:0:
92,0,57622,2,0,P|101:57|102:107,1,103.199996850586,8|0,0:0|0:0,0:0:0:0:
103,119,57856,1,8,0:0:0:0:
103,119,57933,1,0,1:0:0:0:
230,339,58089,1,0,1:0:0:0:
23,185,58244,1,8,0:0:0:0:
234,28,58400,1,0,1:0:0:0:
113,264,58555,6,0,P|51:272|-3:289,1,103.199996850586,2|0,1:2|0:0,0:0:0:0:
298,139,58866,2,0,P|246:133|197:119,1,103.199996850586,10|0,1:2|0:0,0:0:0:0:
230,328,59177,2,0,P|212:275|238:227,1,103.199996850586,2|0,1:2|1:0,0:0:0:0:
387,158,59410,1,0,1:0:0:0:
387,158,59488,2,0,P|377:224|376:290,1,103.199996850586,10|0,0:0|0:0,0:0:0:0:
459,19,59799,6,0,B|341:15|395:96|261:115,1,206.399993701172,2|8,1:2|0:0,0:0:0:0:
49,249,60265,1,2,0:0:0:0:
200,41,60420,1,2,1:2:0:0:
224,317,60576,1,2,0:0:0:0:
86,105,60731,1,10,0:0:0:0:
44,356,60887,1,2,0:0:0:0:
278,119,61042,5,4,1:2:0:0:
142,379,61198,2,0,P|138:323|126:271,1,103.199996850586,2|8,0:0|0:0,0:0:0:0:
83,23,61508,5,2,0:0:0:0:
208,247,61664,1,0,1:0:0:0:
83,23,61819,2,0,P|28:44|15:89,1,103.199996850586,2|8,1:2|0:0,0:0:0:0:
5,261,62130,5,2,0:0:0:0:
176,108,62286,1,2,1:2:0:0:
9,258,62441,2,0,P|66:265|120:278,1,103.199996850586,2|8,0:0|0:0,0:0:0:0:
278,354,62752,5,2,0:0:0:0:
106,184,62907,1,0,1:0:0:0:
290,40,63063,1,0,1:0:0:0:
196,294,63218,1,8,0:0:0:0:
92,23,63374,1,2,0:0:0:0:
324,197,63529,1,2,1:2:0:0:
56,320,63685,5,8,0:0:0:0:
56,320,63762,1,8,0:0:0:0:
56,320,63840,2,0,L|44:253,1,51.599998425293,8|0,0:0|1:0,0:0:0:0:
219,203,63996,2,0,L|228:152,1,51.599998425293,0|0,1:0|1:0,0:0:0:0:
2,5,64151,5,8,0:0:0:0:
8,45,64229,1,8,0:0:0:0:
13,85,64306,1,8,0:0:0:0:
20,125,64384,1,8,0:0:0:0:
28,165,64462,2,0,L|87:153,1,51.599998425293,0|0,1:0|0:0,0:0:0:0:
232,21,64617,1,8,0:0:0:0:
232,21,64695,1,8,0:0:0:0:
232,21,64773,2,0,L|291:33,1,51.599998425293,0|0,1:0|0:0,0:0:0:0:
280,198,64928,2,0,L|229:208,1,51.599998425293,0|0,1:0|1:0,0:0:0:0:
61,320,65084,5,8,0:0:0:0:
91,326,65161,1,8,0:0:0:0:
121,332,65239,1,8,0:0:0:0:
151,338,65317,1,8,0:0:0:0:
181,344,65394,1,8,0:0:0:0:
210,352,65472,1,8,0:0:0:0:
240,359,65550,1,8,0:0:0:0:
270,364,65628,1,8,0:0:0:0:
310,372,65705,5,8,0:0:0:0:
379,349,65783,1,8,0:0:0:0:
427,295,65861,1,8,0:0:0:0:
418,222,65939,1,8,0:0:0:0:
370,168,66016,5,12,1:2:0:0:
152,260,66172,1,2,0:0:0:0:
239,30,66327,2,0,P|244:81|248:132,1,103.199996850586,8|0,0:0|0:0,0:0:0:0:
169,365,66638,1,0,1:0:0:0:
127,83,66793,1,0,1:0:0:0:
284,242,66949,2,0,P|210:253|138:281,1,103.199996850586,10|0,0:0|0:0,0:0:0:0:
29,38,67260,6,0,P|93:55|98:105,1,103.199996850586,2|0,1:2|0:0,0:0:0:0:
39,329,67571,2,0,P|32:269|25:225,1,103.199996850586,10|0,0:0|0:0,0:0:0:0:
242,29,67882,5,2,1:2:0:0:
112,265,68037,1,0,1:0:0:0:
366,211,68192,2,0,P|427:198|490:192,1,103.199996850586,10|0,0:0|0:0,0:0:0:0:
242,29,68503,5,6,1:2:0:0:
284,326,68659,1,2,1:2:0:0:
242,29,68814,1,8,0:0:0:0:
26,226,68970,6,0,B|117:239|117:239|136:269|136:269|238:285,1,206.399993701172,6|0,1:2|1:2,1:2:0:0:
424,45,69436,1,8,0:0:0:0:
212,196,69591,1,4,1:2:0:0:
350,362,69747,6,0,P|371:287|328:156,1,206.399993701172,2|8,1:2|0:0,0:0:0:0:
215,2,70213,1,0,0:0:0:0:
414,57,70369,5,10,0:0:0:0:
379,66,70446,1,8,0:0:0:0:
344,76,70524,1,8,0:0:0:0:
309,86,70602,1,8,0:0:0:0:
275,98,70679,2,0,L|211:119,1,51.599998425293,10|0,0:0|0:0,0:0:0:0:
37,31,70835,5,8,0:0:0:0:
37,31,70913,1,8,0:0:0:0:
37,31,70990,2,0,P|48:97|61:163,1,103.199996850586,6|0,1:2|0:0,0:0:0:0:
109,352,71301,5,10,0:0:0:0:
234,73,71457,1,2,1:2:0:0:
212,372,71612,5,8,0:0:0:0:
138,53,71768,1,2,1:2:0:0:
212,372,71923,5,10,0:0:0:0:
330,93,72078,1,2,1:2:0:0:
314,384,72234,5,8,0:0:0:0:
236,72,72389,1,0,1:0:0:0:
474,231,72545,5,10,0:0:0:0:
208,364,72700,1,2,1:2:0:0:
339,105,72856,2,0,P|330:169|324:243,1,103.199996850586,8|0,0:0|0:0,0:0:0:0:
143,2,73166,5,10,0:0:0:0:
274,292,73322,1,2,1:2:0:0:
475,13,73477,5,4,1:2:0:0:
245,174,73633,1,0,1:0:0:0:
465,329,73788,5,8,0:0:0:0:
337,114,73944,1,0,1:0:0:0:
186,332,74099,5,8,0:0:0:0:
415,189,74255,1,0,1:0:0:0:
172,31,74410,5,8,0:0:0:0:
325,218,74565,1,0,1:0:0:0:
157,349,74721,5,8,0:0:0:0:
269,62,74876,1,0,1:0:0:0:
278,366,75032,5,8,0:0:0:0:
172,38,75187,1,0,1:0:0:0:
5,242,75343,6,0,P|67:246|128:258,1,103.199996850586,10|0,0:0|1:0,0:0:0:0:
371,50,75654,2,0,P|320:58|268:61,1,103.199996850586,10|0,0:0|1:0,0:0:0:0:
427,342,75964,6,0,B|345:321|345:321|324:293|324:293|239:274,1,206.399993701172,4|0,1:2|1:2,1:2:0:0:
53,45,76431,5,8,0:0:0:0:
234,188,76586,1,8,0:0:0:0:
36,331,76742,1,8,0:0:0:0:
149,58,76897,1,8,0:0:0:0:
261,367,77053,1,8,0:0:0:0:
0,188,77208,5,8,0:0:0:0:
356,10,77363,1,8,0:0:0:0:
356,10,77830,5,8,0:0:0:0:
93,136,77985,1,8,0:0:0:0:
93,136,78451,6,0,P|151:144|202:160,1,86,6|0,1:2|1:0,0:0:0:0:
392,203,78762,1,8,0:0:0:0:
254,33,78918,1,2,0:0:0:0:
254,33,78996,1,8,0:0:0:0:
254,33,79073,1,0,1:0:0:0:
267,258,79229,2,0,P|274:329|274:370,1,86,0|0,1:0|0:0,0:0:0:0:
352,127,79540,5,8,0:0:0:0:
158,279,79695,1,2,0:0:0:0:
368,353,79850,2,0,P|421:337|433:296,1,86,0|8,1:0|0:0,0:0:0:0:
483,113,80161,2,0,B|397:95|447:31|309:35,1,172,2|0,0:0|1:0,0:0:0:0:
162,190,80628,5,8,0:0:0:0:
112,176,80705,1,8,0:0:0:0:
80,135,80783,1,8,0:0:0:0:
75,83,80861,1,8,0:0:0:0:
102,39,80939,2,0,P|150:48|201:53,1,86,6|0,1:2|1:0,0:0:0:0:
365,199,81249,1,8,0:0:0:0:
170,300,81405,1,2,0:0:0:0:
170,300,81483,1,8,0:0:0:0:
170,300,81560,1,0,1:0:0:0:
278,128,81716,2,0,P|272:180|267:227,1,86,0|0,1:0|0:0,0:0:0:0:
27,337,82027,6,0,P|44:298|108:295,1,86,8|0,0:0|0:0,0:0:0:0:
90,124,82337,2,0,P|128:105|179:143,1,86,0|8,1:2|0:0,0:0:0:0:
298,24,82648,2,0,P|339:33|353:96,1,86,2|0,1:2|1:0,0:0:0:0:
471,253,82959,5,8,0:0:0:0:
433,261,83037,1,8,0:0:0:0:
395,269,83115,1,8,0:0:0:0:
357,278,83192,1,8,0:0:0:0:
319,286,83270,2,0,L|259:300,1,43,8|0,0:0|0:0,0:0:0:0:
181,98,83426,6,0,B|226:105|226:105|230:110|230:110|291:122,1,86,6|0,1:2|0:0,0:0:0:0:
100,281,83736,1,8,0:0:0:0:
0,95,83892,1,2,0:0:0:0:
0,95,83970,1,8,0:0:0:0:
0,95,84047,1,0,1:0:0:0:
183,216,84203,1,0,1:0:0:0:
283,32,84358,1,2,0:0:0:0:
79,171,84514,6,0,P|86:219|92:274,1,86,10|0,0:0|0:0,0:0:0:0:
291,378,84825,2,0,P|296:335|302:292,1,86,2|8,1:2|0:0,0:0:0:0:
481,150,85135,2,0,P|461:108|338:136,1,172,2|0,0:0|1:0,0:0:0:0:
224,274,85602,5,8,0:0:0:0:
186,268,85679,1,8,0:0:0:0:
147,261,85757,1,8,0:0:0:0:
108,253,85835,1,8,0:0:0:0:
69,245,85913,5,14,1:2:0:0:
18,191,86016,5,2,0:0:0:0:
27,116,86120,5,2,0:0:0:0:
89,76,86223,5,10,0:0:0:0:
241,196,86379,1,2,1:2:0:0:
375,32,86534,1,10,2:0:0:0:
336,36,86638,2,0,P|309:42|290:67,1,57.3333333333333,2|2,2:0|2:0,2:0:0:0:
166,136,86845,1,10,2:0:0:0:
149,172,86949,2,0,P|141:198|153:227,1,57.3333333333333,2|2,2:0|2:0,2:0:0:0:
350,345,87156,6,0,L|357:279,1,43,8|0,0:0|0:0,0:0:0:0:
512,191,87312,2,0,L|502:128,1,43,2|0,0:0|0:0,0:0:0:0:
443,274,87467,1,10,0:0:0:0:
309,146,87622,6,0,P|257:155|230:196,1,86,2|8,0:0|0:0,0:0:0:0:
88,275,87933,1,2,1:2:0:0:
160,31,88089,5,10,0:0:0:0:
271,310,88244,1,8,0:0:0:0:
275,303,89643,6,0,P|322:295|451:280,2,154.799995275879,0|0|0,1:0|1:0|1:0,0:0:0:0:
139,359,90420,1,0,1:2:0:0:
139,359,90576,2,0,P|124:299|149:273,1,77.3999976379395,0|0,1:0|1:0,0:0:0:0:
264,187,90887,2,0,P|257:141|252:97,1,77.3999976379395,0|0,1:2|1:2,0:2:0:0:
135,27,91198,2,0,P|130:65|124:103,1,77.3999976379395,0|0,1:2|1:2,0:2:0:0:
0,247,91508,2,0,P|33:199|134:215,1,154.799995275879,0|0,1:0|1:0,0:0:0:0:
303,310,91975,1,0,1:0:0:0:
197,357,92130,6,0,B|207:287|216:168|216:168,1,154.799995275879,0|0,1:0|1:0,0:0:0:0:
343,82,92597,1,0,1:0:0:0:
396,159,92752,2,0,P|350:164|299:178,1,77.3999976379395,0|0,1:0|1:0,0:0:0:0:
288,12,93063,2,0,P|325:3|364:0,1,77.3999976379395,0|0,1:0|1:0,0:0:0:0:
231,120,93374,6,0,B|150:111|191:61|77:60,1,154.799995275879,0|0,1:0|1:0,0:0:0:0:
33,229,93840,1,0,1:0:0:0:
0,140,93996,2,0,P|44:146|98:147,1,77.3999976379395,0|0,1:0|1:0,0:0:0:0:
97,305,94306,2,0,P|135:299|173:297,1,77.3999976379395,0|0,1:0|1:0,0:0:0:0:
295,359,94617,6,0,P|276:315|308:200,2,154.799995275879,0|0|0,1:0|1:0|1:0,0:0:0:0:
304,361,95550,2,0,P|349:353|405:352,1,77.3999976379395,2|0,1:2|1:0,0:0:0:0:
512,186,95861,6,0,B|466:145|409:182|409:182|407:208|368:226,1,154.799995275879,2|2,1:2|1:2,0:0:0:0:
271,118,96327,1,0,1:0:0:0:
271,118,96483,2,0,P|313:130|330:171,1,77.3999976379395,2|0,1:2|1:0,0:0:0:0:
461,256,96793,2,0,P|485:292|472:334,1,77.3999976379395,2|0,1:2|1:0,0:0:0:0:
230,294,97104,6,0,P|237:353|238:389,1,77.3999976379395,2|0,1:2|1:0,0:0:0:0:
386,225,97415,2,0,P|379:284|378:320,1,77.3999976379395,2|0,1:2|1:0,0:0:0:0:
244,105,97726,2,0,P|251:164|252:200,1,77.3999976379395,2|0,1:2|1:0,0:0:0:0:
417,33,98037,2,0,P|410:92|409:128,1,77.3999976379395,2|0,1:2|1:0,0:0:0:0:
302,254,98348,6,0,P|275:215|153:233,1,154.799995275879,2|0,1:2|1:0,0:0:0:0:
2,361,98814,1,2,1:2:0:0:
174,199,98970,1,2,1:2:0:0:
8,44,99125,6,0,L|14:120,1,64.5000024604798,10|0,0:0|0:0,0:0:0:0:
14,120,99436,5,8,0:0:0:0:
14,120,99514,1,8,0:0:0:0:
14,120,99591,2,0,B|58:126|58:126|64:133|64:133|126:143,1,86,6|0,1:2|0:0,0:0:0:0:
319,85,99902,2,0,P|332:37|312:-4,1,86,10|0,0:0|0:0,0:0:0:0:
169,204,100213,2,0,P|178:258|181:303,1,86,2|0,1:2|0:0,0:0:0:0:
237,109,100524,1,8,0:0:0:0:
76,246,100679,1,2,0:0:0:0:
262,340,100835,6,0,P|308:326|322:287,1,86,2|0,1:2|0:0,0:0:0:0:
479,152,101146,2,0,P|415:161|376:169,1,86,10|0,0:0|0:0,0:0:0:0:
288,7,101457,2,0,P|224:16|185:24,1,86,0|0,1:2|0:0,0:0:0:0:
317,199,101768,1,10,0:0:0:0:
405,37,101923,1,2,0:0:0:0:
223,170,102078,6,0,P|235:242|242:360,1,172,2|8,1:2|0:0,0:0:0:0:
148,214,102545,1,2,0:0:0:0:
324,347,102700,2,0,P|374:354|407:235,1,172,2|8,1:2|0:0,0:0:0:0:
289,70,103166,5,2,0:0:0:0:
459,119,103322,2,0,B|365:114|414:183|286:193,1,172,2|8,1:2|0:0,0:0:0:0:
137,61,103788,1,2,0:0:0:0:
9,150,103944,2,0,P|65:154|181:182,1,172,2|8,1:2|0:0,0:0:0:0:
376,284,104410,5,2,0:0:0:0:
301,351,104565,2,0,P|283:307|321:176,2,172,2|8|0,1:2|0:0|1:0,0:0:0:0:
442,217,105343,1,0,0:0:0:0:
306,94,105498,2,0,P|249:113|235:152,1,86,10|0,0:0|0:0,0:0:0:0:
65,15,105809,6,0,P|71:66|74:107,1,86,2|0,1:2|0:0,0:0:0:0:
228,233,106120,2,0,P|231:190|236:147,1,86,10|0,0:2|0:0,0:0:0:0:
22,198,106431,2,0,P|74:203|112:212,1,86,2|0,1:2|0:0,0:0:0:0:
195,51,106742,2,0,P|237:59|279:63,1,86,10|0,0:2|0:0,0:0:0:0:
444,190,107053,6,0,P|459:141|429:90,1,86,2|0,1:2|0:0,0:0:0:0:
342,246,107363,2,0,P|348:295|350:343,1,86,10|0,0:0|0:0,0:0:0:0:
354,150,107674,2,0,B|248:167|306:220|185:239,1,172,2|10,1:2|0:0,0:0:0:0:
10,301,108141,1,0,0:0:0:0:
102,365,108296,2,0,P|118:312|74:175,1,172,2|8,1:2|0:0,0:0:0:0:
249,34,108762,1,2,0:0:0:0:
191,228,108918,1,0,1:0:0:0:
45,80,109073,5,8,0:0:0:0:
315,171,109229,1,4,1:2:0:0:
324,175,109540,6,0,B|345:154|368:143|368:143|242:153|298:226|175:228,1,258.000009841919,2|0,0:0|0:0,0:0:0:0:
190,227,110472,1,0,0:0:0:0:
0,27,110783,6,0,B|80:-2|108:66|108:66|102:75|102:75|124:145|223:114,1,258.000009841919,2|0,0:0|0:0,0:0:0:0:
196,120,111716,1,0,0:0:0:0:
396,2,112027,5,2,0:0:0:0:
387,81,112337,5,2,0:0:0:0:
379,158,112648,5,2,0:0:0:0:
219,287,112959,5,2,0:0:0:0:
445,363,113270,6,0,P|457:320|300:304,1,258.000009841919,2|0,0:0|0:0,0:0:0:0:
306,286,114203,1,0,0:0:0:0:
208,354,114358,5,2,0:0:0:0:
208,354,114436,1,2,0:0:0:0:
208,354,114514,2,0,B|220:253|151:289|164:167,1,193.50000738144,2|0,0:0|0:0,0:0:0:0:
248,208,115135,1,0,0:0:0:0:
126,332,115446,1,0,0:0:0:0:
5,155,115757,6,0,P|39:159|53:251,2,129.00000492096
5,155,116690,1,0,0:0:0:0:
196,32,117001,5,2,0:0:0:0:
187,107,117312,5,2,0:0:0:0:
177,185,117622,5,2,0:0:0:0:
5,300,117933,5,2,0:0:0:0:
185,379,118244,6,0,P|190:337|199:293,1,64.5000024604798,0|0,1:0|0:0,0:0:0:0:
92,291,118555,6,0,P|87:249|78:205,1,64.5000024604798,0|0,1:0|0:0,0:0:0:0:
248,209,118866,6,0,P|253:167|262:123,1,64.5000024604798,0|0,1:0|0:0,0:0:0:0:
92,111,119177,6,0,P|87:69|78:25,1,64.5000024604798,0|0,1:0|0:0,0:0:0:0:
328,110,119488,6,0,B|257:125|257:125|240:146|240:146|137:173,1,172,6|2,1:2|1:2,0:0:0:0:
342,297,119954,1,2,1:2:0:0:
224,364,120109,2,0,P|232:301|236:253,1,86,2|0,1:2|1:0,0:0:0:0:
431,252,120420,2,0,P|425:209|420:166,1,86,0|0,1:0|1:0,0:0:0:0:
209,27,120731,6,0,P|163:20|116:139,1,172,2|0,1:2|1:0,0:0:0:0:
236,273,121198,1,2,1:2:0:0:
284,160,121353,2,0,P|221:169|178:170,1,86,2|0,1:2|1:0,0:0:0:0:
129,374,121664,2,0,P|171:376|214:384,1,86,0|0,1:0|1:0,0:0:0:0:
14,291,121975,5,2,1:2:0:0:
198,170,122130,1,0,1:0:0:0:
73,76,122286,2,0,P|79:134|78:185,1,86,2|0,1:2|1:0,0:0:0:0:
271,290,122597,2,0,P|272:247|277:204,1,86,2|0,1:2|1:0,0:0:0:0:
412,45,122907,2,0,P|384:30|326:58,1,86,2|0,1:2|1:0,0:0:0:0:
358,282,123218,6,0,B|447:273|408:200|524:217,1,172,2|2,1:2|1:2,0:0:0:0:
365,376,123685,1,2,1:2:0:0:
508,215,123840,2,0,P|500:272|498:320,1,86,2|0,1:2|1:0,0:0:0:0:
324,156,124151,1,2,1:2:0:0:
491,12,124306,1,0,1:0:0:0:
404,227,124462,6,0,P|423:168|384:47,2,172,2|0|0,1:2|1:0|1:0,0:0:0:0:
295,379,125239,1,0,1:0:0:0:
208,245,125394,2,0,P|259:252|301:255,1,86,2|0,1:2|1:0,0:0:0:0:
129,120,125705,5,2,1:2:0:0:
88,349,125861,1,2,1:2:0:0:
129,120,126016,2,0,P|138:70|150:25,1,86,0|0,1:2|1:0,0:0:0:0:
22,262,126327,2,0,P|14:219|4:177,1,86,0|0,1:2|1:0,0:0:0:0:
190,366,126638,5,2,1:2:0:0:
246,115,126793,1,0,1:0:0:0:
88,323,126949,1,2,1:2:0:0:
0,84,127104,5,8,0:0:0:0:
0,84,127182,1,8,0:0:0:0:
0,84,127260,2,0,L|68:102,1,43,8|8,0:0|0:0,0:0:0:0:
190,233,127415,2,0,L|231:221,1,43,10|0,0:2|0:0,0:0:0:0:
423,25,127571,5,8,0:0:0:0:
381,33,127648,1,8,0:0:0:0:
338,42,127726,1,8,0:0:0:0:
295,51,127804,1,8,0:0:0:0:
253,61,127882,2,0,L|262:112,1,43,8|0,0:0|0:0,0:0:0:0:
399,216,128037,1,8,0:0:0:0:
399,216,128115,1,8,0:0:0:0:
399,216,128192,2,0,L|385:286,1,43,14|0,0:0|0:0,0:0:0:0:
241,384,128348,5,8,0:0:0:0:
185,378,128426,1,8,0:0:0:0:
145,338,128503,1,8,0:0:0:0:
134,282,128581,1,8,0:0:0:0:
156,230,128659,2,0,L|221:240,1,43,8|0,0:0|0:0,0:0:0:0:
21,375,128814,2,0,L|14:316,1,43,0|0,1:0|0:0,0:0:0:0:
0,111,128970,5,8,0:0:0:0:
63,119,129047,1,8,0:0:0:0:
127,125,129125,1,8,0:0:0:0:
191,133,129203,1,8,0:0:0:0:
254,140,129280,1,8,0:0:0:0:
318,147,129358,1,8,0:0:0:0:
382,152,129436,1,8,0:0:0:0:
116,348,129747,5,0,1:0:0:0:
116,348,130058,5,0,1:0:0:0:
116,348,130369,5,0,1:0:0:0:
116,348,130679,6,0,B|182:365|182:365|188:371|188:371|253:388,1,129.00000492096,6|0,1:2|0:0,0:0:0:0:
445,210,130990,2,0,B|462:264|462:264|437:312,1,103.199996850586,10|0,0:0|0:0,0:0:0:0:
248,148,131301,1,2,1:2:0:0:
432,0,131457,1,2,1:2:0:0:
351,172,131612,2,0,P|345:109|334:45,1,103.199996850586,8|0,0:0|0:0,0:0:0:0:
127,6,131923,6,0,P|70:27|57:79,1,103.199996850586,2|0,1:2|0:2,0:2:0:0:
54,83,132156,1,0,1:0:0:0:
54,83,132234,1,10,0:0:0:0:
137,343,132389,1,0,1:0:0:0:
146,86,132545,1,2,1:2:0:0:
18,333,132700,1,0,1:0:0:0:
284,284,132856,2,0,P|348:271|402:263,1,103.199996850586,10|0,0:0|0:0,0:0:0:0:
146,86,133166,6,0,P|126:141|155:189,1,103.199996850586,2|0,1:2|0:0,0:0:0:0:
271,384,133477,2,0,P|277:315|289:260,1,103.199996850586,10|0,0:0|0:0,0:0:0:0:
478,133,133788,2,0,P|481:184|490:235,1,103.199996850586,0|0,1:2|0:0,0:0:0:0:
246,103,134099,2,0,B|225:52|225:52|248:-3,1,103.199996850586,8|0,0:0|0:0,0:0:0:0:
397,239,134410,6,0,B|402:210|381:180|381:180|213:212,1,206.399993701172,2|8,1:2|0:0,0:0:0:0:
15,141,134876,1,2,0:0:0:0:
265,279,135032,1,2,1:2:0:0:
0,384,135187,1,2,1:2:0:0:
239,206,135343,1,10,0:2:0:0:
19,39,135498,1,2,1:2:0:0:
114,286,135654,5,4,0:0:0:0:
19,39,135809,2,0,P|26:102|28:160,1,103.199996850586,2|8,0:0|0:0,0:0:0:0:
134,371,136120,5,2,0:0:0:0:
0,217,136275,1,0,1:2:0:0:
134,371,136431,2,0,P|195:356|213:296,1,103.199996850586,2|8,1:2|0:0,0:0:0:0:
323,102,136742,5,2,0:0:0:0:
136,287,136897,1,0,1:0:0:0:
323,102,137053,2,0,P|384:117|402:177,1,103.199996850586,2|8,1:2|0:0,0:0:0:0:
301,370,137363,5,2,0:0:0:0:
491,177,137519,1,2,1:2:0:0:
280,3,137674,1,2,1:2:0:0:
348,289,137830,1,10,0:0:0:0:
471,3,137985,1,2,0:0:0:0:
475,301,138141,1,2,1:2:0:0:
218,146,138296,5,8,0:0:0:0:
218,146,138374,1,8,0:0:0:0:
218,146,138451,2,0,L|147:159,1,51.599998425293,8|8,0:0|0:0,0:0:0:0:
68,306,138607,2,0,L|-3:293,1,51.599998425293,0|0,1:0|1:0,0:0:0:0:
257,384,138762,5,8,0:0:0:0:
269,328,138840,1,8,0:0:0:0:
283,272,138918,1,8,0:0:0:0:
294,216,138996,1,8,0:0:0:0:
307,161,139073,2,0,L|318:99,1,51.599998425293,0|0,1:0|0:0,0:0:0:0:
103,22,139229,1,8,0:0:0:0:
103,22,139306,1,8,0:0:0:0:
103,22,139384,2,0,L|117:108,1,51.599998425293,8|0,0:0|0:0,0:0:0:0:
160,362,139540,5,8,0:0:0:0:
108,355,139617,1,8,0:0:0:0:
65,325,139695,1,8,0:0:0:0:
47,277,139773,1,8,0:0:0:0:
48,225,139850,1,8,0:0:0:0:
79,185,139928,1,8,0:0:0:0:
125,162,140006,1,8,0:0:0:0:
186,170,140084,1,8,0:0:0:0:
245,183,140161,1,8,0:0:0:0:
305,197,140239,1,8,0:0:0:0:
364,213,140317,5,8,0:0:0:0:
439,198,140394,1,8,0:0:0:0:
485,135,140472,1,8,0:0:0:0:
476,57,140550,1,8,0:0:0:0:
415,8,140628,6,0,B|405:70|405:70|409:78|409:78|395:149,1,129.00000492096,6|0,1:2|0:0,0:0:0:0:
182,344,140939,2,0,B|162:300|162:300|182:241,1,103.199996850586,10|0,0:0|0:0,0:0:0:0:
331,17,141249,5,2,1:2:0:0:
260,297,141405,1,2,1:2:0:0:
115,121,141560,2,0,P|173:126|196:183,1,103.199996850586,10|0,0:0|0:0,0:0:0:0:
435,328,141871,6,0,P|370:337|315:351,1,103.199996850586,2|0,1:2|0:0,0:0:0:0:
512,145,142182,2,0,P|460:138|410:127,1,103.199996850586,10|0,0:2|0:0,0:0:0:0:
167,32,142493,5,2,1:2:0:0:
368,237,142648,1,0,1:0:0:0:
299,0,142804,2,0,P|289:50|287:102,1,103.199996850586,10|0,0:0|0:0,0:0:0:0:
129,327,143115,5,4,0:0:0:0:
408,124,143270,1,0,1:0:0:0:
129,327,143426,1,8,0:0:0:0:
37,29,143581,6,0,B|135:6|135:6|173:49|149:112,1,206.399993701172,6|0,1:2|0:0,0:0:0:0:
266,345,144047,5,8,0:0:0:0:
40,135,144203,1,6,1:2:0:0:
291,245,144358,6,0,B|166:249|231:318|100:330,1,206.399993701172,2|8,1:2|0:0,0:0:0:0:
251,144,144825,1,0,0:0:0:0:
354,317,144980,5,8,0:0:0:0:
394,309,145058,1,8,0:0:0:0:
434,301,145135,1,8,0:0:0:0:
474,293,145213,1,8,0:0:0:0:
512,287,145291,2,0,L|501:223,1,51.599998425293,8|8,0:0|0:0,0:0:0:0:
512,39,145446,5,8,0:0:0:0:
512,39,145524,1,8,0:0:0:0:
512,39,145602,2,0,P|449:57|392:80,1,103.199996850586,12|0,0:0|0:0,0:0:0:0:
197,17,145913,5,10,0:0:0:0:
256,318,146068,1,2,1:2:0:0:
314,17,146223,5,8,0:0:0:0:
372,306,146379,1,2,1:2:0:0:
314,17,146534,5,10,0:0:0:0:
255,311,146690,1,2,1:2:0:0:
85,29,146845,5,8,0:0:0:0:
311,218,147001,1,0,1:2:0:0:
52,332,147156,5,10,0:0:0:0:
253,147,147312,1,2,1:2:0:0:
75,30,147467,6,0,P|86:113|92:164,1,103.199996850586,8|0,0:0|1:0,0:0:0:0:
271,359,147778,5,10,0:0:0:0:
3,174,147933,1,2,1:2:0:0:
271,6,148089,5,12,0:0:0:0:
175,306,148244,1,0,1:2:0:0:
445,196,148400,5,8,0:0:0:0:
155,84,148555,1,0,1:2:0:0:
286,350,148711,5,8,0:0:0:0:
401,95,148866,1,0,1:2:0:0:
145,202,149021,5,8,0:0:0:0:
408,325,149177,1,0,1:2:0:0:
212,38,149332,5,8,0:0:0:0:
308,348,149488,1,0,1:2:0:0:
316,27,149643,5,8,0:0:0:0:
209,348,149799,1,0,1:2:0:0:
2,112,149954,6,0,P|66:121|125:125,1,103.199996850586,10|0,0:0|0:0,0:0:0:0:
432,222,150265,2,0,P|380:226|329:234,1,103.199996850586,10|0,0:0|0:0,0:0:0:0:
11,356,150576,6,0,B|-27:308|20:264|20:264|138:277,1,206.399993701172,12|8,1:2|0:0,0:0:0:0:
374,62,151042,1,8,0:0:0:0:
146,192,151198,1,8,0:0:0:0:
387,302,151353,1,8,0:0:0:0:
93,368,151508,1,8,0:0:0:0:
412,183,151664,1,8,0:0:0:0:
182,10,151819,5,8,0:0:0:0:
275,366,151975,1,8,0:0:0:0:
275,366,152441,5,8,0:0:0:0:
205,101,152597,1,8,0:0:0:0:
205,101,152907,6,0,L|197:178,1,51.599998425293
88,306,153063,5,6,1:2:0:0:
277,165,153218,1,2,0:0:0:0:
384,368,153374,1,10,0:0:0:0:
224,235,153529,1,2,0:0:0:0:
224,235,153607,1,8,0:0:0:0:
224,235,153685,2,0,B|327:202|327:202|372:242|357:300,1,206.399993701172,2|2,1:2|0:0,0:0:0:0:
512,142,154151,6,0,B|460:147|444:102|444:102|430:103|430:103|427:34|321:47,1,206.399993701172,10|2,0:0|0:0,0:0:0:0:
200,147,154617,1,10,0:0:0:0:
40,30,154773,2,0,P|92:37|161:71,1,103.199996850586,2|0,0:0|1:0,0:0:0:0:
0,199,155084,1,2,0:0:0:0:
151,325,155239,5,10,0:0:0:0:
201,313,155317,1,8,0:0:0:0:
251,302,155394,1,10,0:0:0:0:
301,291,155472,1,8,0:0:0:0:
352,282,155550,2,0,P|354:218|372:174,1,103.199996850586,2|2,0:0|1:2,0:0:0:0:
238,22,155861,1,10,0:0:0:0:
275,217,156016,1,2,0:0:0:0:
275,217,156094,1,8,0:0:0:0:
275,217,156172,1,2,1:2:0:0:
441,146,156327,1,2,1:2:0:0:
283,300,156483,1,2,0:0:0:0:
158,107,156638,6,0,B|95:101|82:151|82:151|83:161|83:161|54:217|-32:194,1,206.399993701172,8|2,0:0|1:2,0:0:0:0:
123,323,157104,1,8,0:0:0:0:
286,137,157260,6,0,B|429:104|429:104|459:130|445:207,1,206.399993701172,2|8,0:0|0:0,0:0:0:0:
504,214,157648,1,8,0:0:0:0:
501,234,157726,1,8,0:0:0:0:
497,254,157804,1,8,0:0:0:0:
494,274,157882,1,8,0:0:0:0:
490,294,157959,1,8,0:0:0:0:
485,314,158037,5,4,0:0:0:0:
309,211,158192,1,2,0:0:0:0:
139,329,158348,6,0,B|152:298|143:251|143:251|165:288|230:300,1,154.799995275879,10|8,0:0|0:0,0:0:0:0:
271,323,158659,1,2,0:0:0:0:
407,154,158814,2,0,P|343:175|332:218,1,103.199996850586,2|0,1:2|0:0,0:0:0:0:
142,337,159125,6,0,B|18:321|18:321|-25:281|24:225,1,206.399993701172,10|2,0:0|1:2,0:0:0:0:
209,103,159591,1,8,0:0:0:0:
71,24,159747,2,0,P|101:86|111:157,1,103.199996850586,2|0,0:0|1:0,0:0:0:0:
255,235,160058,2,0,P|268:185|292:139,1,103.199996850586,0|10,1:2|0:0,0:0:0:0:
422,49,160369,5,8,0:0:0:0:
422,49,160446,1,8,0:0:0:0:
422,49,160524,2,0,L|348:61,1,51.599998425293,6|0,1:2|0:0,0:0:0:0:
198,114,160679,1,2,0:0:0:0:
198,114,160757,1,2,0:0:0:0:
198,114,160835,5,10,0:0:0:0:
147,48,160939,5,2,0:0:0:0:
215,2,161042,5,2,0:0:0:0:
290,48,161146,5,8,0:0:0:0:
78,178,161301,1,0,1:0:0:0:
40,56,161457,5,8,0:0:0:0:
229,226,161612,1,0,1:0:0:0:
0,339,161768,6,0,P|32:288|91:300,1,103.199996850586,10|0,0:0|1:0,0:0:0:0:
199,313,162001,1,2,0:0:0:0:
199,313,162078,2,0,L|185:386,1,51.599998425293,8|0,0:0|0:0,0:0:0:0:
9,213,162234,2,0,L|0:162,1,51.599998425293,0|0,1:2|0:0,0:0:0:0:
316,181,162389,6,0,B|272:200|232:188|225:173|225:173|217:194|217:194|172:165|93:197,1,206.399993701172,8|8,0:0|0:0,0:0:0:0:
339,24,162856,1,8,0:0:0:0:
268,281,163011,1,4,0:0:0:0:
268,281,163944,5,0,0:0:0:0:
218,207,164255,2,0,P|251:229|346:198,2,129.00000492096,2|0|0,0:0|0:0|0:0,0:0:0:0:
70,75,165187,1,0,0:0:0:0:
171,17,165498,6,0,P|159:61|141:220,1,193.50000738144,2|0,0:0|0:0,0:0:0:0:
13,350,166120,2,0,P|23:309|151:334,1,193.50000738144
207,372,166742,1,2,0:0:0:0:
207,372,167053,1,0,0:0:0:0:
364,190,167363,5,0,0:0:0:0:
419,252,167674,1,0,0:0:0:0:
356,306,167985,2,0,P|319:297|210:289,2,129.00000492096,2|0|0,0:0|0:0|0:0,0:0:0:0:
356,306,168918,5,0,0:0:0:0:
512,199,169229,2,0,B|445:178|472:145|381:139,1,129.00000492096,2|0,0:0|0:0,0:0:0:0:
306,18,169850,2,0,P|258:34|172:50,1,129.00000492096
11,162,170472,6,0,B|-1:88|101:58|143:125|127:177|127:177|95:252|169:298|223:243,1,387.000014762879,2|0,0:0|0:0,0:0:0:0:
374,76,171716,2,0,B|346:-12|204:94|338:209,1,258.000009841919,2|0,0:0|0:0,0:0:0:0:
331,203,172648,1,0,0:0:0:0:
477,313,172959,6,0,B|488:292|515:283|515:283|418:287|453:348|357:364,1,232.199992913819,4|0,1:2|1:0,0:0:0:0:
232,286,173581,2,0,P|218:247|241:201,1,77.3999976379395,8|0,0:0|1:0,0:0:0:0:
272,143,173892,1,2,0:0:0:0:
31,52,174203,6,0,P|73:39|112:134,1,154.799995275879,2|0,1:2|0:0,0:0:0:0:
28,258,174669,1,0,1:0:0:0:
0,179,174825,2,0,P|47:187|93:189,1,77.3999976379395,8|0,0:0|1:0,0:0:0:0:
89,321,175135,2,0,P|127:314|165:311,1,77.3999976379395,2|0,0:0|1:0,0:0:0:0:
234,370,175369,5,2,0:0:0:0:
234,370,175446,2,0,B|281:297|225:203|225:203|233:239|220:270,1,232.199992913819,2|2,1:2|1:2,0:0:0:0:
82,325,176068,2,0,B|69:341|70:378|70:378|33:275|93:212,1,232.199992913819,10|2,0:2|0:0,0:0:0:0:
123,33,176690,2,0,B|216:40|164:78|281:91,1,154.799995275879,2|0,1:2|0:0,0:0:0:0:
440,152,177156,1,0,1:0:0:0:
362,29,177312,6,0,P|352:95|343:210,1,154.799995275879,10|0,0:0|0:0,0:0:0:0:
416,342,177778,1,8,0:0:0:0:
416,342,177856,1,8,0:0:0:0:
416,342,177933,2,0,P|421:291|280:281,1,232.199992913819,0|0,1:0|1:0,0:0:0:0:
172,353,178555,1,8,0:0:0:0:
172,353,178866,6,0,P|122:341|109:316,1,77.3999976379395,2|0,0:0|1:0,0:0:0:0:
27,188,179177,2,0,B|101:192|69:240|184:246,1,154.799995275879,2|2,1:2|0:0,0:0:0:0:
300,107,179643,1,0,1:0:0:0:
218,40,179799,2,0,P|227:110|231:214,1,154.799995275879,8|2,0:0|0:0,0:0:0:0:
377,310,180265,5,2,0:0:0:0:
377,310,180343,1,2,0:0:0:0:
377,310,180420,2,0,B|390:237|253:224|212:361,1,232.199992913819,2|0,1:2|1:0,0:0:0:0:
62,268,181042,2,0,P|46:226|69:189,1,77.3999976379395,8|0,0:0|0:0,0:0:0:0:
115,139,181353,1,0,0:0:0:0:
290,304,181664,6,0,P|334:294|459:277,1,154.799995275879,0|0,1:2|1:0,0:0:0:0:
321,138,182130,1,0,1:0:0:0:
482,81,182286,5,8,0:0:0:0:
365,212,182441,1,0,1:0:0:0:
492,342,182597,1,0,1:0:0:0:
413,141,182752,5,8,0:0:0:0:
167,208,184462,6,0,P|215:210|300:230,1,116.099996456909,2|0,0:0|0:0,0:0:0:0:
320,134,184773,6,0,B|297:113|297:113|316:234,1,129,2|0,0:0|0:0,0:0:0:0:
360,290,185084,6,0,P|345:242|256:249,1,141.900004330444,2|0,0:0|0:0,0:0:0:0:
280,319,185394,6,0,B|221:331|221:331|218:338|218:338|138:355,1,129.00000492096,6|2,0:0|0:0,0:0:0:0:
32,125,185705,2,0,P|94:140|102:190,1,103.199996850586,10|0,0:0|0:0,0:0:0:0:
268,337,186016,5,2,1:2:0:0:
392,138,186172,1,2,1:2:0:0:
480,250,186327,2,0,P|421:260|350:277,1,103.199996850586,10|0,0:0|0:0,0:0:0:0:
168,100,186638,6,0,P|152:80|185:1,1,103.199996850586,2|0,1:2|0:0,0:0:0:0:
287,257,186949,2,0,P|280:328|280:381,1,103.199996850586,8|0,0:0|0:0,0:0:0:0:
277,381,187182,1,8,0:0:0:0:
277,381,187260,1,2,1:2:0:0:
106,190,187415,1,0,1:0:0:0:
285,30,187571,1,10,0:0:0:0:
183,259,187726,1,0,1:0:0:0:
444,251,187882,5,2,1:2:0:0:
224,135,188037,1,0,0:0:0:0:
465,103,188192,5,10,0:0:0:0:
206,253,188348,1,0,0:0:0:0:
375,9,188503,6,0,P|431:19|499:21,1,103.199996850586,2|0,1:2|1:0,0:0:0:0:
330,224,188814,2,0,P|273:231|204:253,1,103.199996850586,10|0,0:0|0:0,0:0:0:0:
34,40,189125,6,0,P|51:94|192:78,1,206.399993701172,2|8,1:2|0:0,0:0:0:0:
430,198,189591,1,2,0:2:0:0:
169,313,189747,1,2,1:2:0:0:
261,36,189902,1,2,0:2:0:0:
324,312,190058,1,10,0:2:0:0:
512,125,190213,1,2,0:2:0:0:
248,215,190369,5,6,1:2:0:0:
395,0,190524,2,0,P|385:50|382:102,1,103.199996850586,2|10,0:0|0:0,0:0:0:0:
318,342,190835,5,2,0:0:0:0:
492,204,190990,1,2,1:2:0:0:
318,342,191146,2,0,P|269:330|248:284,1,103.199996850586,2|8,1:2|0:0,0:0:0:0:
174,39,191457,5,2,0:0:0:0:
343,239,191612,1,2,1:2:0:0:
174,39,191768,2,0,P|236:51|296:55,1,103.199996850586,2|8,0:0|0:0,0:0:0:0:
113,272,192078,5,2,0:0:0:0:
22,32,192234,1,2,1:2:0:0:
208,206,192389,1,2,1:2:0:0:
385,23,192545,1,10,0:2:0:0:
131,149,192700,1,2,0:0:0:0:
370,267,192856,1,0,1:0:0:0:
250,18,193011,5,8,0:0:0:0:
250,18,193089,1,8,0:0:0:0:
250,18,193166,2,0,L|258:84,1,51.599998425293,8|8,0:0|0:0,0:0:0:0:
443,146,193322,2,0,L|435:212,1,51.599998425293,0|0,1:2|0:2,0:0:0:0:
274,333,193477,5,8,0:0:0:0:
223,321,193555,1,8,0:0:0:0:
172,311,193633,1,8,0:0:0:0:
121,300,193711,1,8,0:0:0:0:
71,287,193788,2,0,L|17:274,1,51.599998425293,8|0,0:2|0:0,0:0:0:0:
249,170,193944,1,8,0:0:0:0:
249,170,194021,1,8,0:0:0:0:
249,170,194099,2,0,L|325:155,1,51.599998425293,8|0,0:0|0:0,0:0:0:0:
175,384,194255,5,8,0:0:0:0:
169,338,194332,1,8,0:0:0:0:
164,291,194410,1,8,0:0:0:0:
159,244,194488,1,8,0:0:0:0:
153,198,194565,1,8,0:0:0:0:
147,151,194643,1,8,0:0:0:0:
139,105,194721,5,8,0:0:0:0:
181,46,194799,1,8,0:0:0:0:
251,22,194876,1,8,0:0:0:0:
322,38,194954,1,8,0:0:0:0:
368,100,195032,1,8,0:0:0:0:
374,176,195109,1,8,0:0:0:0:
328,241,195187,1,8,0:0:0:0:
249,263,195265,1,8,0:0:0:0:
172,241,195343,5,6,1:2:0:0:
442,110,195498,1,2,0:0:0:0:
247,14,195654,2,0,P|256:85|257:165,1,103.199996850586,10|0,0:0|0:0,0:0:0:0:
275,357,195964,5,2,1:2:0:0:
358,74,196120,1,2,1:2:0:0:
510,238,196275,2,0,P|434:249|369:269,1,103.199996850586,10|0,0:0|0:0,0:0:0:0:
173,360,196586,6,0,B|152:316|152:316|180:240,1,103.199996850586,2|0,1:2|0:0,0:0:0:0:
456,32,196897,2,0,B|474:83|474:83|453:127,1,103.199996850586,10|0,1:2|0:0,0:0:0:0:
235,17,197208,5,2,1:2:0:0:
400,257,197363,1,2,1:2:0:0:
107,212,197519,2,0,P|39:199|-23:197,1,103.199996850586,10|0,0:0|0:0,0:0:0:0:
227,18,197830,5,6,1:2:0:0:
282,342,197985,1,0,1:0:0:0:
227,18,198141,1,8,0:0:0:0:
483,230,198296,6,0,P|465:185|326:194,1,206.399993701172,4|0,1:2|1:0,0:0:0:0:
99,308,198762,1,8,0:0:0:0:
316,116,198918,1,4,1:2:0:0:
67,0,199073,6,0,B|72:45|72:45|76:51|76:51|85:120,1,103.199996850586,2|0,1:2|2:0,2:0:0:0:
256,324,199384,5,8,0:0:0:0:
20,165,199540,1,0,1:0:0:0:
274,2,199695,5,10,0:0:0:0:
109,265,199850,1,0,1:0:0:0:
418,131,200006,5,10,0:0:0:0:
366,139,200084,1,8,0:0:0:0:
315,147,200161,1,8,0:0:0:0:
263,155,200239,1,8,0:0:0:0:
212,164,200317,2,0,B|140:177|87:188|88:187,1,103.199996850586,6|0,1:2|0:0,0:0:0:0:
259,341,200628,5,10,0:0:0:0:
330,49,200783,1,2,1:2:0:0:
391,351,200939,5,8,0:0:0:0:
456,53,201094,1,2,1:2:0:0:
391,351,201249,5,10,0:0:0:0:
330,49,201405,1,2,1:2:0:0:
261,349,201560,5,8,0:0:0:0:
194,46,201716,1,0,1:0:0:0:
125,347,201871,5,10,0:0:0:0:
368,163,202027,1,2,1:2:0:0:
95,0,202182,2,0,P|104:70|102:123,1,103.199996850586,8|0,0:0|0:0,0:0:0:0:
261,349,202493,5,10,0:0:0:0:
23,141,202648,1,2,1:2:0:0:
320,48,202804,5,14,0:2:0:0:
102,218,202959,1,0,1:0:0:0:
364,256,203115,5,8,0:0:0:0:
108,112,203270,1,0,1:0:0:0:
413,15,203426,5,8,0:0:0:0:
185,171,203581,1,0,1:0:0:0:
468,243,203736,5,8,0:0:0:0:
190,82,203892,1,0,1:0:0:0:
269,367,204047,5,8,0:0:0:0:
354,76,204203,1,0,1:0:0:0:
379,360,204358,5,8,0:0:0:0:
262,37,204514,1,0,1:0:0:0:
84,309,204669,5,10,0:0:0:0:
442,154,204825,1,0,1:0:0:0:
108,148,204980,5,10,0:0:0:0:
463,294,205135,1,0,1:0:0:0:
254,18,205291,6,0,B|260:98|260:98|274:114|274:114|283:246,1,206.399993701172,6|8,1:2|0:0,0:0:0:0:
156,342,205757,1,8,0:0:0:0:
377,181,205913,1,8,0:0:0:0:
130,35,206068,1,8,0:0:0:0:
266,312,206223,1,8,0:0:0:0:
376,0,206379,1,8,0:0:0:0:
44,180,206534,5,8,0:0:0:0:
447,349,206690,1,8,0:0:0:0:
447,349,207156,5,8,0:0:0:0:
134,211,207312,1,8,0:0:0:0:
128,205,207778,6,0,P|135:144|134:100,1,86,4|0,1:2|1:0,0:0:0:0:
207,346,208089,1,8,0:0:0:0:
25,182,208244,1,2,0:0:0:0:
25,182,208322,1,8,0:0:0:0:
25,182,208400,1,0,1:0:0:0:
208,19,208555,2,0,P|252:30|301:35,1,86,0|2,1:0|0:0,0:0:0:0:
474,181,208866,6,0,P|489:137|461:87,1,86,8|0,0:0|0:0,0:0:0:0:
337,267,209177,2,0,P|348:326|349:370,1,86,0|8,1:0|0:0,0:0:0:0:
366,131,209488,2,0,B|275:134|314:186|201:212,1,172,2|0,0:0|1:0,0:0:0:0:
35,328,209954,5,8,0:0:0:0:
81,338,210032,1,8,0:0:0:0:
126,348,210109,1,8,0:0:0:0:
171,361,210187,1,8,0:0:0:0:
216,372,210265,2,0,B|234:327|234:327|221:280,1,86,6|0,1:2|0:0,0:0:0:0:
382,58,210576,1,8,0:0:0:0:
308,281,210731,1,2,0:0:0:0:
308,281,210809,1,8,0:0:0:0:
308,281,210887,1,0,1:0:0:0:
90,157,211042,2,0,P|137:167|178:170,1,86,0|0,1:0|0:0,0:0:0:0:
448,15,211353,6,0,P|395:33|380:78,1,86,8|0,0:2|0:2,0:2:0:0:
202,9,211664,2,0,P|172:56|190:100,1,86,0|8,1:2|0:2,0:2:0:0:
0,137,211975,2,0,P|8:192|50:214,1,86,2|0,0:2|1:2,0:2:0:0:
266,107,212286,6,0,L|256:171,1,43,8|8,0:0|0:0,0:0:0:0:
107,320,212441,2,0,L|100:277,1,43,8|8,0:0|0:0,0:0:0:0:
39,62,212597,5,8,0:0:0:0:
39,62,212674,1,8,0:0:0:0:
39,62,212752,1,6,1:2:0:0:
250,239,212907,2,0,P|299:234|321:184,1,86,0|8,1:0|0:0,0:0:0:0:
409,21,213218,2,0,L|421:77,1,43,2|8,0:0|0:0,0:0:0:0:
470,204,213374,5,2,1:2:0:0:
470,204,213451,1,2,0:0:0:0:
470,204,213529,2,0,L|411:217,1,43,2|0,1:2|0:0,0:0:0:0:
307,339,213685,2,0,L|242:329,1,43,2|0,0:2|0:0,0:0:0:0:
25,346,213840,5,10,0:0:0:0:
25,346,213918,1,2,0:0:0:0:
25,346,213996,2,0,L|41:281,1,43,2|2,0:0|0:0,0:0:0:0:
186,155,214151,2,0,L|170:90,1,43,2|2,1:2|0:0,0:0:0:0:
24,208,214306,5,10,0:0:0:0:
77,223,214384,1,2,0:0:0:0:
131,235,214462,1,2,0:0:0:0:
185,248,214540,1,2,0:0:0:0:
239,259,214617,5,8,0:0:0:0:
69,98,214773,1,2,1:2:0:0:
289,21,214928,1,10,0:0:0:0:
347,232,215084,1,2,1:2:0:0:
418,18,215239,5,6,1:2:0:0:
331,306,215394,1,0,1:0:0:0:
216,119,215550,1,8,0:0:0:0:
453,215,215705,1,0,1:0:0:0:
208,354,215861,5,10,0:0:0:0:
78,51,216016,1,0,1:2:0:0:
25,296,216172,1,8,0:0:0:0:
297,167,216327,1,0,1:0:0:0:
398,384,216483,5,10,0:0:0:0:
168,188,216638,1,0,1:0:0:0:
401,12,216793,1,8,0:0:0:0:
283,253,216949,1,0,1:0:0:0:
72,58,217104,5,8,0:0:0:0:
177,287,217260,1,0,1:0:0:0:
243,44,217415,5,8,0:0:0:0:
161,375,217571,1,8,0:0:0:0:
35,206,217726,6,0,B|77:189|77:189|132:214|133:213,1,86,2|0,0:0|0:0,0:0:0:0:
177,287,218037,2,0,B|221:304|221:304|274:279|275:280,1,86,2|0,0:0|0:0,0:0:0:0:
328,232,218348,5,2,0:0:0:0:
227,135,218503,2,0,P|210:175|229:210,1,86,2|0,0:0|0:0,0:0:0:0:
342,350,218814,5,2,0:0:0:0:
355,347,219125,5,2,0:0:0:0:
364,343,219436,5,2,0:0:0:0:
376,340,219747,5,8,0:0:0:0:
240,127,219902,1,8,0:0:0:0:
444,262,220058,1,12,0:0:0:0:
