osu file format v14

[General]
AudioFilename: audio.mp3
AudioLeadIn: 0
PreviewTime: 45025
Countdown: 0
SampleSet: Soft
StackLeniency: 0.3
Mode: 0
LetterboxInBreaks: 0
WidescreenStoryboard: 1

[Editor]
DistanceSpacing: 1
BeatDivisor: 4
GridSize: 32
TimelineZoom: 1

[Metadata]
Title:Distortion!! (TV Size)
TitleUnicode:Distortion!! (TV Size)
Artist:kessoku band
ArtistUnicode:結束バンド
Creator:[-Shabondama-]
Version:Normal!!
Source:ぼっち・ざ・ろっく!
Tags:bocchi the rock anime ed ending j-pop japanese pop jpop jrock j-rock rock female vocal vocalist monkerzaza 谷口鮪 青山 吉能 Aoyama Yoshino 後藤 ひとり Gotoh Hitori 鈴代 紗弓 Suzushiro Sayumi 伊地知 虹夏 Ijichi Nijika 水野 朔 Mizuno Saku 山田 リョウ Yamada Ryo 長谷川 育美 Hasegawa Ikumi 喜多 郁代 Kita Ikuyo
BeatmapID:3856238
BeatmapSetID:1874060

[Difficulty]
HPDrainRate:3
CircleSize:3.2
OverallDifficulty:4
ApproachRate:5.5
SliderMultiplier:0.999999999999999
SliderTickRate:1

[Events]
//Background and Video events
Video,-40,"video.mp4"
0,0,"distortion.jpg",0,0
//Break Periods
//Storyboard Layer 0 (Background)
//Storyboard Layer 1 (Fail)
//Storyboard Layer 2 (Pass)
//Storyboard Layer 3 (Foreground)
//Storyboard Layer 4 (Overlay)
//Storyboard Sound Samples

[TimingPoints]
25,340.909090909091,4,2,2,50,1,0
25,-100,4,2,2,50,0,0
1303,-100,4,2,2,5,0,0
1388,-100,4,2,1,60,0,0
2837,-100,4,2,1,5,0,0
2922,-100,4,2,1,60,0,0
5564,-100,4,2,1,5,0,0
5650,-100,4,2,1,60,0,0
14684,-100,4,2,2,60,0,0
14939,-100,4,2,2,5,0,0
15025,-100,4,2,1,60,0,0
17667,-100,4,2,1,5,0,0
17752,-100,4,2,1,60,0,0
20479,-100,4,2,1,70,0,0
20735,-100,4,2,1,5,0,0
20820,-100,4,2,1,70,0,0
22098,-100,4,2,1,5,0,0
22184,-100,4,2,1,70,0,0
23462,-100,4,2,1,5,0,0
23547,-100,4,2,1,70,0,0
24826,-100,4,2,1,5,0,0
24911,-100,4,2,1,70,0,0
26189,-100,4,2,1,70,0,0
26275,-100,4,2,1,70,0,0
28917,-100,4,2,1,5,0,0
29002,-100,4,2,1,70,0,0
39485,-100,4,2,1,5,0,0
39570,-100,4,2,1,75,0,0
42212,-100,4,2,1,5,0,0
42297,-100,4,2,1,70,0,0
45025,-95.2380952380952,4,2,1,80,0,1
45280,-95.2380952380952,4,2,1,5,0,1
45365,-95.2380952380952,4,2,1,80,0,1
50735,-95.2380952380952,4,2,1,5,0,1
50820,-95.2380952380952,4,2,1,80,0,1
54485,-95.2380952380952,4,2,1,5,0,1
54570,-95.2380952380952,4,2,1,80,0,1
56189,-95.2380952380952,4,2,1,5,0,1
56275,-95.2380952380952,4,2,1,80,0,1
61388,-95.2380952380952,4,2,1,70,0,0
64115,-95.2380952380952,4,2,1,80,0,0
75025,-95.2380952380952,4,2,1,80,0,0
75280,-95.2380952380952,4,2,1,5,0,0
75365,-95.2380952380952,4,2,1,80,0,0
77667,-95.2380952380952,4,2,1,5,0,0
77752,-95.2380952380952,4,2,1,80,0,0
80394,-95.2380952380952,4,2,1,5,0,0
80479,-95.2380952380952,4,2,1,80,0,0
83206,-100,4,2,1,80,0,0
83462,-100,4,2,1,5,0,0
83547,-100,4,2,1,80,0,0
85848,-100,4,2,1,5,0,0
85934,-100,4,2,1,80,0,0
89002,-100,4,2,1,5,0,0

[Colours]
Combo1 : 0,128,255
Combo2 : 255,128,255
Combo3 : 255,255,128
Combo4 : 255,128,128

[HitObjects]
443,237,25,6,0,P|448:176|453:130,1,99.9999999999999,4|4,0:0|2:2,0:0:0:0:
408,47,706,2,0,P|368:18|306:40,1,99.9999999999999,4|4,2:2|2:2,0:0:0:0:
245,85,1388,6,0,P|254:142|264:195,1,99.9999999999999,6|10,1:2|1:2,0:0:0:0:
271,237,1900,1,0,0:0:0:0:
271,237,2070,2,0,P|223:226|184:255,1,99.9999999999999,2|10,1:2|1:2,0:0:0:0:
154,294,2581,2,0,P|106:305|67:276,1,99.9999999999999,2|2,0:0|0:0,0:0:0:0:
43,232,3093,1,10,1:2:0:0:
17,135,3434,2,0,P|24:111|30:80,1,50,2|0,1:2|1:2,0:0:0:0:
39,37,3775,1,10,1:2:0:0:
115,100,4115,6,0,P|165:125|212:95,1,99.9999999999999,6|10,1:2|1:2,0:0:0:0:
231,68,4627,1,0,0:0:0:0:
231,68,4797,2,0,P|281:43|328:73,1,99.9999999999999,2|10,1:2|1:2,0:0:0:0:
343,103,5309,2,0,P|330:162|322:201,1,99.9999999999999,2|2,0:0|0:0,0:0:0:0:
306,250,5820,1,10,1:2:0:0:
348,340,6161,2,0,P|384:354|399:350,1,50,2|2,1:2|1:2,0:0:0:0:
440,334,6502,1,10,1:2:0:0:
491,248,6843,6,0,L|502:138,1,99.9999999999999,6|10,1:2|1:2,0:0:0:0:
506,102,7354,1,0,0:0:0:0:
506,102,7525,2,0,P|448:78|408:98,1,99.9999999999999,2|10,1:2|1:2,0:0:0:0:
384,129,8036,2,0,P|326:153|286:133,1,99.9999999999999,0|8,0:0|3:3,0:0:0:0:
257,106,8547,1,8,3:3:0:0:
182,47,8888,1,8,1:2:0:0:
182,47,9059,1,8,1:2:0:0:
10,131,9570,6,0,P|24:199|31:249,1,99.9999999999999,6|2,1:2|1:2,0:0:0:0:
45,328,10252,1,2,1:2:0:0:
138,364,10593,1,2,1:2:0:0:
224,313,10934,2,0,P|291:296|331:298,1,99.9999999999999,2|2,1:2|1:2,0:0:0:0:
406,349,11615,1,2,1:2:0:0:
489,293,11956,1,2,1:2:0:0:
470,194,12297,6,0,P|475:136|484:88,2,99.9999999999999,2|2|2,1:2|1:2|1:2,0:0:0:0:
489,293,13320,1,2,1:2:0:0:
412,357,13661,2,0,P|326:345|303:340,1,99.9999999999999,2|2,1:2|1:2,0:0:0:0:
220,304,14343,2,0,P|199:253|225:213,1,99.9999999999999,2|4,1:2|1:2,0:0:0:0:
304,164,15025,6,0,P|325:113|299:73,1,99.9999999999999,6|0,1:2|1:2,0:0:0:0:
265,46,15536,1,0,0:0:0:0:
265,46,15706,2,0,P|212:62|165:76,1,99.9999999999999,2|0,1:2|1:2,0:0:0:0:
119,81,16218,1,2,0:0:0:0:
45,147,16559,1,0,0:0:0:0:
45,147,16729,2,0,P|55:203|64:263,1,99.9999999999999,2|2,1:2|1:2,0:0:0:0:
82,343,17411,1,2,1:2:0:0:
182,342,17752,6,0,P|232:331|284:323,1,99.9999999999999,2|0,1:2|1:2,0:0:0:0:
305,282,18263,1,0,0:0:0:0:
305,282,18434,2,0,L|422:264,1,99.9999999999999,2|0,1:2|1:2,0:0:0:0:
451,252,18945,1,2,0:0:0:0:
501,165,19286,1,2,0:0:0:0:
501,165,19456,2,0,L|493:116,1,50,2|0,1:2|1:2,0:0:0:0:
483,66,19797,1,0,1:2:0:0:
386,38,20138,2,0,L|389:110,1,50,8|0,3:2|3:2,0:0:0:0:
349,119,20479,6,0,P|291:143|256:129,1,99.9999999999999,6|10,1:2|1:2,0:0:0:0:
192,55,21161,2,0,P|166:58|133:62,1,50,2|0,1:2|1:2,0:0:0:0:
103,80,21502,1,10,1:2:0:0:
44,161,21843,2,0,P|52:241|56:270,1,99.9999999999999,2|10,1:2|1:2,0:0:0:0:
91,352,22525,2,0,B|116:359|116:359|140:352,1,50,2|0,1:2|1:2,0:0:0:0:
182,329,22865,1,10,1:2:0:0:
247,253,23206,6,0,P|227:148|225:136,1,99.9999999999999,2|10,1:2|1:2,0:0:0:0:
252,57,23888,2,0,P|279:49|305:53,1,50,2|0,1:2|1:2,0:0:0:0:
346,72,24229,1,10,1:2:0:0:
429,126,24570,2,0,L|479:126,2,50,2|0|10,1:2|0:0|1:2,0:0:0:0:
345,180,25252,2,0,L|345:245,1,50,2|0,1:2|1:2,0:0:0:0:
346,280,25593,1,10,1:2:0:0:
256,324,25934,6,0,P|213:358|162:349,1,99.9999999999999,2|8,1:2|1:2,0:0:0:0:
125,331,26445,2,0,L|98:268,1,50,0|2,0:0|1:2,0:0:0:0:
33,224,26956,1,8,1:2:0:0:
33,224,27127,2,0,L|49:113,1,99.9999999999999,2|2,0:0|1:2,0:0:0:0:
58,76,27638,1,10,1:2:0:0:
135,138,27979,1,2,1:2:0:0:
232,159,28320,1,10,1:2:0:0:
328,132,28661,6,0,P|346:79|320:45,1,99.9999999999999,2|8,1:2|1:2,0:0:0:0:
291,14,29172,1,2,0:0:0:0:
291,14,29343,1,2,1:2:0:0:
191,10,29684,2,0,L|200:78,1,50,10|2,1:2|1:2,0:0:0:0:
188,108,30025,1,10,1:2:0:0:
88,110,30365,1,10,1:2:0:0:
25,188,30706,1,10,1:2:0:0:
49,284,31047,1,8,3:3:0:0:
148,270,31388,6,0,L|206:257,1,50,6|2,1:2|1:2,0:0:0:0:
224,214,31729,2,0,L|281:201,1,50,2|2,1:2|1:2,0:0:0:0:
297,159,32070,2,0,P|294:129|281:95,2,50,2|2|2,1:2|1:2|1:2,0:0:0:0:
346,164,32581,1,14,1:2:0:0:
440,195,32922,2,0,P|451:232|442:245,1,50,8|2,1:2|1:2,0:0:0:0:
423,284,33263,1,10,1:2:0:0:
355,358,33604,2,0,P|288:346|246:341,1,99.9999999999999,10|2,1:2|1:2,0:0:0:0:
206,340,34115,5,2,1:2:0:0:
129,276,34456,1,0,1:2:0:0:
78,189,34797,2,0,L|58:78,1,99.9999999999999,2|0,1:2|1:2,0:0:0:0:
84,48,35309,1,10,1:2:0:0:
84,48,35479,2,0,P|139:18|190:41,1,99.9999999999999,2|0,1:2|1:2,0:0:0:0:
207,62,35990,1,10,1:2:0:0:
207,62,36161,2,0,P|265:78|314:55,1,99.9999999999999,2|2,1:2|1:2,0:0:0:0:
395,31,36843,6,0,L|403:100,1,50,6|2,1:2|1:2,0:0:0:0:
441,110,37184,2,0,L|433:179,1,50,2|2,1:2|1:2,0:0:0:0:
402,197,37525,2,0,P|373:186|342:192,2,50,2|2|2,1:2|1:2|1:2,0:0:0:0:
429,239,38036,1,10,1:2:0:0:
387,330,38377,1,10,1:2:0:0:
306,270,38718,2,0,P|262:244|217:269,1,99.9999999999999,10|0,1:2|1:2,0:0:0:0:
195,306,39229,1,10,1:2:0:0:
112,361,39570,6,0,P|49:361|30:321,1,99.9999999999999,6|10,1:2|1:2,0:0:0:0:
17,291,40081,1,2,1:2:0:0:
17,291,40252,2,0,P|30:214|31:192,1,99.9999999999999,10|8,1:2|1:2,0:0:0:0:
26,92,40934,2,0,P|52:94|75:98,1,50,10|2,1:2|1:2,0:0:0:0:
105,132,41275,2,0,P|129:134|154:138,1,50,8|2,1:2|1:2,0:0:0:0:
198,162,41615,2,0,P|229:157|254:155,1,50,10|2,1:2|1:2,0:0:0:0:
292,134,41956,1,10,1:2:0:0:
378,194,42297,5,10,1:2:0:0:
378,194,42468,1,8,1:2:0:0:
469,247,42809,1,10,1:2:0:0:
469,247,42979,2,0,P|464:168|462:136,1,99.9999999999999,8|10,1:2|1:2,0:0:0:0:
459,97,43490,1,8,1:2:0:0:
388,34,43831,1,8,3:3:0:0:
388,34,44002,2,0,P|351:45|326:53,1,50,8|10,3:3|3:3,0:0:0:0:
77,48,45025,6,0,L|92:106,1,52.4999983978271,6|0,1:2|0:0,0:0:0:0:
137,121,45365,2,0,L|123:181,1,52.4999983978271,10|0,1:2|0:0,0:0:0:0:
110,222,45706,1,2,1:2:0:0:
85,324,46047,6,0,P|114:320|152:314,1,52.4999983978271,10|0,1:2|0:0,0:0:0:0:
182,342,46388,2,0,P|211:338|249:334,1,52.4999983978271,2|0,1:2|0:0,0:0:0:0:
285,325,46729,1,10,1:2:0:0:
386,282,47070,5,2,1:2:0:0:
386,282,47240,2,0,P|429:287|446:278,1,52.4999983978271,0|10,1:2|1:2,0:0:0:0:
477,251,47581,2,0,L|485:131,1,104.999996795654,2|0,0:0|0:0,0:0:0:0:
481,97,48093,1,10,1:2:0:0:
481,97,48263,2,0,P|453:91|424:108,1,52.4999983978271,0|2,0:0|1:2,0:0:0:0:
396,139,48604,2,0,P|346:153|291:124,1,104.999996795654,2|0,1:2|0:0,0:0:0:0:
259,97,49115,5,2,1:2:0:0:
178,28,49456,1,10,1:2:0:0:
81,70,49797,1,2,1:2:0:0:
106,171,50138,1,10,1:2:0:0:
209,188,50479,6,0,L|194:249,1,52.4999983978271,6|0,1:2|0:0,0:0:0:0:
148,260,50820,2,0,L|134:322,1,52.4999983978271,10|0,1:2|0:0,0:0:0:0:
125,362,51161,1,2,1:2:0:0:
227,344,51502,6,0,L|288:335,1,52.4999983978271,10|0,1:2|0:0,0:0:0:0:
313,296,51843,2,0,L|374:286,1,52.4999983978271,2|0,1:2|0:0,0:0:0:0:
406,255,52184,1,10,1:2:0:0:
424,151,52525,6,0,P|454:151|480:164,2,52.4999983978271,2|2|10,1:2|1:2|1:2,0:0:0:0:
375,156,53036,1,0,0:0:0:0:
375,156,53206,2,0,P|317:175|269:155,1,104.999996795654,2|10,1:2|1:2,0:0:0:0:
237,135,53718,1,0,0:0:0:0:
237,135,53888,2,0,P|206:137|178:139,1,52.4999983978271,2|0,1:2|1:2,0:0:0:0:
151,172,54229,1,10,1:2:0:0:
53,200,54570,6,0,P|61:143|65:96,1,104.999996795654,2|8,1:2|1:2,0:0:0:0:
62,41,55081,2,0,L|-1:51,2,52.4999983978271,10|2|8,3:3|1:2|1:2,0:0:0:0:
109,16,55593,1,8,1:2:0:0:
180,93,55934,6,0,P|214:99|246:80,1,52.4999983978271,6|0,1:2|0:0,0:0:0:0:
263,51,56275,2,0,P|297:45|329:64,1,52.4999983978271,10|0,1:2|0:0,0:0:0:0:
360,74,56615,1,2,1:2:0:0:
449,128,56956,6,0,L|438:187,1,52.4999983978271,10|0,1:2|0:0,0:0:0:0:
390,198,57297,2,0,L|399:253,1,52.4999983978271,2|0,1:2|0:0,0:0:0:0:
408,301,57638,1,10,1:2:0:0:
307,310,57979,5,2,1:2:0:0:
307,310,58150,2,0,P|260:319|244:303,1,52.4999983978271,2|8,1:2|1:2,0:0:0:0:
218,286,58490,2,0,P|221:243|226:180,1,104.999996795654,2|0,0:0|0:0,0:0:0:0:
225,132,59002,1,10,1:2:0:0:
225,132,59172,2,0,P|198:126|168:139,1,52.4999983978271,0|0,0:0|1:2,0:0:0:0:
143,175,59513,2,0,P|100:202|53:182,1,104.999996795654,2|0,1:2|0:0,0:0:0:0:
16,145,60025,5,2,1:2:0:0:
2,248,60365,1,10,1:2:0:0:
67,329,60706,2,0,L|130:319,1,52.4999983978271,2|8,1:2|1:2,0:0:0:0:
165,344,61047,2,0,L|226:334,1,52.4999983978271,8|8,1:2|1:2,0:0:0:0:
264,312,61388,6,0,P|289:256|253:218,1,104.999996795654,6|2,1:2|0:0,0:0:0:0:
224,202,61900,1,2,1:2:0:0:
224,202,62070,2,0,L|114:217,1,104.999996795654,10|2,1:2|1:2,0:0:0:0:
38,149,62752,2,0,P|12:108|33:58,1,104.999996795654,2|0,1:2|0:0,0:0:0:0:
77,31,63263,1,2,1:2:0:0:
77,31,63434,2,0,L|190:15,1,104.999996795654,10|0,1:2|1:2,0:0:0:0:
301,18,64115,6,0,P|310:51|292:75,1,52.4999983978271,6|10,1:2|1:2,0:0:0:0:
261,99,64456,2,0,P|252:132|270:156,1,52.4999983978271,10|0,1:2|0:0,0:0:0:0:
296,184,64797,1,10,1:2:0:0:
385,239,65138,2,0,P|378:273|373:302,1,52.4999983978271,2|8,1:2|1:2,0:0:0:0:
391,340,65479,2,0,P|439:314|494:339,2,104.999996795654,2|10|10,1:3|1:2|1:2,0:0:0:0:
288,362,66502,1,0,1:2:0:0:
185,337,66843,6,0,P|173:310|163:284,1,52.4999983978271,6|10,1:2|1:2,0:0:0:0:
122,257,67184,2,0,P|132:229|143:203,1,52.4999983978271,10|0,1:2|0:0,0:0:0:0:
166,161,67525,1,10,1:2:0:0:
267,134,67865,2,0,B|320:125,1,52.4999983978271,2|8,1:2|1:2,0:0:0:0:
367,104,68206,2,0,B|357:67|357:67|364:44|364:44|351:-8,2,104.999996795654,2|10|10,1:3|1:2|1:2,0:0:0:0:
389,206,69229,1,0,1:2:0:0:
408,309,69570,6,0,P|383:324|358:321,1,52.4999983978271,6|10,1:2|1:2,0:0:0:0:
319,355,69911,2,0,P|290:347|275:328,1,52.4999983978271,10|0,1:2|0:0,0:0:0:0:
242,290,70252,1,10,1:2:0:0:
236,185,70593,2,0,P|205:182|174:179,1,52.4999983978271,2|8,1:2|1:2,0:0:0:0:
136,202,70934,2,0,P|87:238|37:221,2,104.999996795654,2|10|10,1:3|1:2|1:2,0:0:0:0:
164,100,71956,1,0,1:2:0:0:
248,37,72297,6,0,P|279:33|307:31,1,52.4999983978271,6|10,1:2|1:2,0:0:0:0:
335,70,72638,2,0,P|366:66|395:63,1,52.4999983978271,10|0,1:2|0:0,0:0:0:0:
439,56,72979,1,10,1:2:0:0:
511,131,73320,2,0,P|516:162|499:195,1,52.4999983978271,2|8,1:2|1:2,0:0:0:0:
479,225,73661,2,0,P|468:276|488:327,2,104.999996795654,2|10|10,1:3|1:2|1:2,0:0:0:0:
414,141,74684,1,0,1:2:0:0:
356,228,75025,6,0,P|328:242|299:233,1,52.4999983978271,6|0,1:2|0:0,0:0:0:0:
260,260,75365,2,0,P|230:250|216:223,1,52.4999983978271,10|0,1:2|0:0,0:0:0:0:
183,194,75706,1,10,1:2:0:0:
91,142,76047,6,0,P|92:113|92:85,1,52.4999983978271,10|2,1:2|1:2,0:0:0:0:
95,36,76388,1,10,1:2:0:0:
186,87,76729,2,0,B|211:98|230:122|230:122|257:112|297:118,1,104.999996795654,10|10,1:2|1:2,0:0:0:0:
347,194,77411,1,8,1:2:0:0:
438,150,77752,6,0,P|433:108|418:88,1,52.4999983978271,10|2,1:2|1:2,0:0:0:0:
426,47,78093,2,0,P|390:31|357:33,1,52.4999983978271,10|2,1:2|1:2,0:0:0:0:
324,29,78434,1,10,1:2:0:0:
219,42,78775,6,0,P|190:44|165:48,1,52.4999983978271,10|0,1:2|1:2,0:0:0:0:
121,74,79115,1,10,1:2:0:0:
50,151,79456,2,0,P|29:193|55:242,1,104.999996795654,10|10,1:2|3:2,0:0:0:0:
138,304,80138,1,10,1:2:0:0:
238,336,80479,6,0,P|271:335|306:334,1,52.4999983978271,10|2,1:2|1:2,0:0:0:0:
335,360,80820,2,0,P|368:359|405:357,1,52.4999983978271,10|2,1:2|1:2,0:0:0:0:
440,357,81161,1,10,1:2:0:0:
496,268,81502,2,0,L|484:199,1,52.4999983978271,10|0,1:2|1:2,0:0:0:0:
439,193,81843,2,0,L|449:124,1,52.4999983978271,10|2,1:2|1:2,0:0:0:0:
452,88,82184,1,10,1:2:0:0:
350,113,82525,1,8,1:2:0:0:
279,35,82865,1,8,1:2:0:0:
185,71,83206,6,0,P|137:77|71:86,1,99.9999999999999,6|0,1:2|1:2,0:0:0:0:
46,176,83888,2,0,L|110:169,1,50,0|8,1:2|1:2,0:0:0:0:
129,207,84229,2,0,L|193:200,1,50,8|8,1:2|1:2,0:0:0:0:
228,201,84570,5,6,1:2:0:0:
316,251,84911,2,0,P|363:277|410:257,1,99.9999999999999,4|14,1:3|1:2,0:0:0:0:
488,81,85934,6,0,B|431:62|364:100|404:125|342:171|269:142,1,225,8|14,1:2|1:2,0:0:0:0:
256,192,86956,12,0,89002,0:0:0:0:
