osu file format v14

[General]
AudioFilename: audio.mp3
AudioLeadIn: 0
PreviewTime: 45025
Countdown: 0
SampleSet: Soft
StackLeniency: 0.4
Mode: 0
LetterboxInBreaks: 0
WidescreenStoryboard: 1

[Editor]
DistanceSpacing: 1.3
BeatDivisor: 4
GridSize: 32
TimelineZoom: 1

[Metadata]
Title:Distortion!! (TV Size)
TitleUnicode:Distortion!! (TV Size)
Artist:kessoku band
ArtistUnicode:結束バンド
Creator:[-Shabondama-]
Version:Hard!!
Source:ぼっち・ざ・ろっく!
Tags:bocchi the rock anime ed ending j-pop japanese pop jpop jrock j-rock rock female vocal vocalist monkerzaza 谷口鮪 青山 吉能 Aoyama Yoshino 後藤 ひとり Gotoh Hitori 鈴代 紗弓 Suzushiro Sayumi 伊地知 虹夏 Ijichi Nijika 水野 朔 Mizuno Saku 山田 リョウ Yamada Ryo 長谷川 育美 Hasegawa Ikumi 喜多 郁代 Kita Ikuyo
BeatmapID:3859135
BeatmapSetID:1874060

[Difficulty]
HPDrainRate:4
CircleSize:3.8
OverallDifficulty:6.5
ApproachRate:8
SliderMultiplier:1.3
SliderTickRate:1

[Events]
//Background and Video events
Video,-40,"video.mp4"
0,0,"distortion.jpg",0,0
//Break Periods
//Storyboard Layer 0 (Background)
//Storyboard Layer 1 (Fail)
//Storyboard Layer 2 (Pass)
//Storyboard Layer 3 (Foreground)
//Storyboard Layer 4 (Overlay)
//Storyboard Sound Samples

[TimingPoints]
25,340.909090909091,4,2,2,50,1,0
25,-100,4,2,2,50,0,0
1303,-100,4,2,2,5,0,0
1388,-100,4,2,1,60,0,0
2837,-100,4,2,1,5,0,0
2922,-100,4,2,1,60,0,0
5564,-100,4,2,1,5,0,0
5650,-100,4,2,1,60,0,0
9570,-125,4,2,1,60,0,0
14684,-125,4,2,2,60,0,0
14939,-125,4,2,2,5,0,0
15025,-111.111111111111,4,2,1,60,0,0
17667,-111.111111111111,4,2,1,5,0,0
17752,-111.111111111111,4,2,1,60,0,0
20479,-100,4,2,1,70,0,0
20735,-100,4,2,1,5,0,0
20820,-100,4,2,1,70,0,0
22098,-100,4,2,1,5,0,0
22184,-100,4,2,1,70,0,0
23462,-100,4,2,1,5,0,0
23547,-100,4,2,1,70,0,0
24826,-100,4,2,1,5,0,0
24911,-100,4,2,1,70,0,0
26189,-100,4,2,1,70,0,0
26275,-100,4,2,1,70,0,0
28917,-100,4,2,1,5,0,0
29002,-100,4,2,1,70,0,0
31388,-100,4,2,1,70,0,0
36757,-100,4,2,1,5,0,0
36843,-100,4,2,1,70,0,0
39485,-100,4,2,1,5,0,0
39570,-100,4,2,1,75,0,0
42212,-100,4,2,1,5,0,0
42297,-100,4,2,1,70,0,0
43831,-100,4,2,1,70,0,0
45025,-90.9090909090909,4,2,1,80,0,1
45280,-90.9090909090909,4,2,1,5,0,1
45365,-90.9090909090909,4,2,1,80,0,1
46985,-90.9090909090909,4,2,1,5,0,1
47070,-90.9090909090909,4,2,1,80,0,1
50394,-90.9090909090909,4,2,1,5,0,1
50479,-90.9090909090909,4,2,1,80,0,1
50735,-90.9090909090909,4,2,1,5,0,1
50820,-90.9090909090909,4,2,1,80,0,1
52439,-90.9090909090909,4,2,1,80,0,1
52525,-90.9090909090909,4,2,1,80,0,1
53462,-90.9090909090909,4,2,1,5,0,1
53547,-90.9090909090909,4,2,1,80,0,1
54485,-90.9090909090909,4,2,1,5,0,1
54570,-90.9090909090909,4,2,1,80,0,1
54826,-90.9090909090909,4,2,1,5,0,1
54911,-90.9090909090909,4,2,1,80,0,1
55167,-90.9090909090909,4,2,1,80,0,1
55252,-90.9090909090909,4,2,1,80,0,1
56189,-90.9090909090909,4,2,1,5,0,1
56275,-90.9090909090909,4,2,1,80,0,1
57894,-90.9090909090909,4,2,1,5,0,1
57979,-90.9090909090909,4,2,1,80,0,1
61388,-90.9090909090909,4,2,1,70,0,0
64115,-90.9090909090909,4,2,1,80,0,0
75025,-90.9090909090909,4,2,1,80,0,0
75280,-90.9090909090909,4,2,1,5,0,0
75365,-90.9090909090909,4,2,1,80,0,0
77667,-90.9090909090909,4,2,1,5,0,0
77752,-90.9090909090909,4,2,1,80,0,0
78689,-90.9090909090909,4,2,1,5,0,0
78775,-90.9090909090909,4,2,1,80,0,0
80394,-90.9090909090909,4,2,1,5,0,0
80479,-90.9090909090909,4,2,1,80,0,0
83206,-100,4,2,1,80,0,0
83462,-100,4,2,1,5,0,0
83547,-100,4,2,1,80,0,0
85848,-100,4,2,1,5,0,0
85934,-100,4,2,1,80,0,0
89002,-100,4,2,1,5,0,0

[Colours]
Combo1 : 0,128,255
Combo2 : 255,128,255
Combo3 : 255,255,128
Combo4 : 255,128,128

[HitObjects]
252,123,25,5,4,0:0:0:0:
252,123,365,1,4,2:2:0:0:
377,10,706,1,4,2:2:0:0:
377,10,1047,1,4,2:2:0:0:
505,120,1388,6,0,P|496:179|485:263,1,130,6|10,1:2|1:2,0:0:0:0:
430,311,1900,1,0,0:0:0:0:
430,311,2070,2,0,P|351:292|306:318,1,130,2|10,1:2|1:2,0:0:0:0:
237,356,2581,2,0,P|158:375|113:349,1,130,2|2,0:0|0:0,0:0:0:0:
62,289,3093,1,10,1:2:0:0:
62,289,3263,1,0,0:0:0:0:
114,222,3434,2,0,L|181:214,2,65,2|0|10,1:2|1:2|1:2,0:0:0:0:
39,183,3945,1,0,1:2:0:0:
39,183,4115,6,0,P|18:118|62:75,1,130,6|10,1:2|1:2,0:0:0:0:
136,43,4627,1,0,0:0:0:0:
136,43,4797,2,0,P|221:31|288:19,1,130,2|10,1:2|1:2,0:0:0:0:
344,52,5309,2,0,P|382:112|349:171,1,130,2|2,0:0|0:0,0:0:0:0:
299,220,5820,1,10,1:2:0:0:
299,220,5990,1,0,0:0:0:0:
230,270,6161,2,0,L|153:273,2,65,2|2|10,1:2|1:2|1:2,0:0:0:0:
300,325,6672,1,8,1:2:0:0:
300,325,6757,1,8,1:2:0:0:
300,325,6843,6,0,P|358:318|433:313,1,130,6|10,1:2|1:2,0:0:0:0:
484,248,7354,1,0,0:0:0:0:
484,248,7525,2,0,P|508:174|474:130,1,130,2|10,1:2|1:2,0:0:0:0:
412,85,8036,2,0,L|344:100,1,65,0|8,0:0|3:3,0:0:0:0:
307,111,8292,1,8,3:3:0:0:
307,111,8377,1,8,3:3:0:0:
230,145,8547,2,0,L|215:80,1,65,8|0,3:3|1:2,0:0:0:0:
191,5,8888,1,8,1:2:0:0:
191,5,9059,1,8,1:2:0:0:
40,190,9570,6,0,P|56:253|67:313,2,104,6|2|2,1:2|1:2|1:2,0:0:0:0:
19,55,10593,1,2,1:2:0:0:
121,142,10934,2,0,P|190:155|225:131,1,104,2|2,1:2|1:2,0:0:0:0:
297,31,11615,2,0,P|366:18|401:42,1,104,2|2,1:2|1:2,0:0:0:0:
485,132,12297,6,0,P|495:81|508:30,2,104,2|2|2,1:2|1:2|1:2,0:0:0:0:
451,263,13320,1,2,1:2:0:0:
327,207,13661,2,0,P|271:195|211:185,2,104,2|2|2,1:2|1:2|1:2,0:0:0:0:
451,263,14684,1,4,1:2:0:0:
328,353,15025,6,0,P|262:337|204:328,1,116.999996429443,6|0,1:2|1:2,0:0:0:0:
136,345,15536,1,0,0:0:0:0:
136,345,15706,2,0,P|98:286|120:240,1,116.999996429443,2|0,1:2|1:2,0:0:0:0:
171,196,16218,2,0,P|209:137|187:91,1,116.999996429443,2|0,0:0|0:0,0:0:0:0:
128,58,16729,2,0,L|-2:74,2,116.999996429443,2|2|2,1:2|1:2|1:2,0:0:0:0:
256,129,17752,6,0,P|318:150|363:111,1,116.999996429443,2|0,1:2|1:2,0:0:0:0:
427,90,18263,1,0,0:0:0:0:
427,90,18434,2,0,P|459:144|434:205,1,116.999996429443,2|0,1:2|1:2,0:0:0:0:
398,257,18945,2,0,P|345:256|276:256,1,116.999996429443,2|2,0:0|0:0,0:0:0:0:
246,330,19456,2,0,P|213:326|169:324,1,58.4999982147217,2|0,1:2|1:2,0:0:0:0:
149,323,19712,1,0,1:2:0:0:
149,323,19797,1,0,1:2:0:0:
64,318,19968,1,2,1:2:0:0:
34,241,20138,2,0,L|31:203,3,29.2499991073609,8|0|0|0,3:2|3:2|3:2|3:2,0:0:0:0:
58,175,20479,6,0,P|129:197|183:168,1,130,6|10,1:2|1:2,0:0:0:0:
217,102,20990,1,0,0:0:0:0:
217,102,21161,2,0,L|207:24,1,65,2|0,1:2|1:2,0:0:0:0:
303,29,21502,2,0,L|298:119,1,65,10|0,1:2|0:0,0:0:0:0:
346,164,21843,2,0,P|407:136|466:162,1,130,2|10,1:2|1:2,0:0:0:0:
512,232,22354,1,0,0:0:0:0:
512,232,22525,2,0,P|505:263|496:312,1,65,2|0,1:2|1:2,0:0:0:0:
476,376,22865,1,10,1:2:0:0:
282,343,23206,6,0,P|217:370|160:342,1,130,2|10,1:2|1:2,0:0:0:0:
128,276,23718,1,0,0:0:0:0:
128,276,23888,2,0,P|137:227|142:198,1,65,2|0,1:2|1:2,0:0:0:0:
222,194,24229,2,0,P|213:145|205:103,1,65,10|0,1:2|0:0,0:0:0:0:
187,48,24570,2,0,P|119:67|68:32,1,130,2|10,1:2|1:2,0:0:0:0:
6,89,25081,1,0,0:0:0:0:
6,89,25252,2,0,P|18:146|22:172,1,65,2|0,1:2|1:2,0:0:0:0:
8,236,25593,1,10,1:2:0:0:
100,356,25934,6,0,P|163:327|231:357,1,130,2|8,1:2|1:2,0:0:0:0:
304,366,26445,1,0,0:0:0:0:
304,366,26615,2,0,P|345:359|447:344,1,130,2|8,1:2|1:2,0:0:0:0:
497,291,27127,2,0,P|516:248|497:222,1,65,2|0,0:0|1:2,0:0:0:0:
446,186,27468,1,2,1:2:0:0:
446,186,27638,2,0,P|428:148|447:119,1,65,10|0,1:2|0:0,0:0:0:0:
471,52,27979,2,0,P|432:58|392:65,1,65,2|0,1:2|1:2,0:0:0:0:
323,77,28320,1,10,1:2:0:0:
162,24,28661,6,0,P|92:4|51:44,1,130,2|8,1:2|1:2,0:0:0:0:
29,121,29172,1,2,0:0:0:0:
29,121,29343,2,0,P|39:173|44:198,1,65,2|0,1:2|1:2,0:0:0:0:
62,271,29684,1,10,1:2:0:0:
62,271,29854,1,2,1:2:0:0:
52,355,30025,2,0,P|97:344|126:338,1,65,10|0,1:2|1:2,0:0:0:0:
196,363,30365,2,0,P|208:318|218:290,1,65,10|0,1:2|1:2,0:0:0:0:
254,226,30706,1,10,1:2:0:0:
101,152,31047,2,0,L|101:110,3,32.5,8|8|8|8,3:3|3:3|3:3|3:3,0:0:0:0:
131,90,31388,6,0,P|162:77|196:89,1,65,6|2,1:2|1:2,0:0:0:0:
259,134,31729,2,0,P|290:146|324:134,1,65,2|2,1:2|1:2,0:0:0:0:
382,80,32070,2,0,L|379:7,2,65,2|2|2,1:2|1:2|1:2,0:0:0:0:
458,115,32581,1,14,1:2:0:0:
495,280,32922,2,0,P|461:286|428:294,1,65,8|2,1:2|1:2,0:0:0:0:
378,359,33263,1,10,1:2:0:0:
209,342,33604,2,0,P|157:335|132:335,1,65,10|0,1:2|1:2,0:0:0:0:
102,267,33945,1,2,1:2:0:0:
102,267,34030,1,0,1:2:0:0:
102,267,34115,6,0,P|166:256|230:246,1,130,2|0,1:2|1:2,0:0:0:0:
312,224,34627,1,2,1:2:0:0:
365,159,34797,2,0,P|376:93|329:52,1,130,2|0,1:2|1:2,0:0:0:0:
255,34,35309,1,10,1:2:0:0:
255,34,35479,2,0,P|186:54|117:74,1,130,2|0,1:2|1:2,0:0:0:0:
49,83,35990,1,10,1:2:0:0:
49,83,36161,2,0,P|67:141|70:157,1,65,2|8,1:2|1:2,0:0:0:0:
144,180,36502,2,0,P|126:238|116:287,1,97.5,2|0,1:2|0:0,0:0:0:0:
124,316,36843,6,0,P|157:328|187:316,1,65,6|2,1:2|1:2,0:0:0:0:
236,251,37184,2,0,P|269:239|299:251,1,65,2|2,1:2|1:2,0:0:0:0:
377,272,37525,2,0,L|381:192,2,65,2|2|2,1:2|1:2|1:2,0:0:0:0:
372,356,38036,1,10,1:2:0:0:
236,251,38377,2,0,P|240:194|241:178,1,65,10|2,1:2|1:2,0:0:0:0:
247,101,38718,1,10,1:2:0:0:
409,45,39059,1,0,1:2:0:0:
409,45,39229,2,0,P|423:89|429:121,1,65,10|0,1:2|1:2,0:0:0:0:
476,176,39570,6,0,P|465:233|453:323,1,130,6|10,1:2|1:2,0:0:0:0:
395,363,40081,1,2,1:2:0:0:
327,310,40252,2,0,P|266:284|203:313,1,130,10|8,1:2|1:2,0:0:0:0:
142,356,40763,1,0,1:2:0:0:
142,356,40934,2,0,L|128:281,1,65,10|2,1:2|1:2,0:0:0:0:
63,239,41275,2,0,L|120:189,1,65,8|2,1:2|1:2,0:0:0:0:
121,112,41615,2,0,L|192:137,1,65,10|2,1:2|1:2,0:0:0:0:
261,164,41956,1,10,1:2:0:0:
195,13,42297,5,10,1:2:0:0:
195,13,42468,1,8,1:2:0:0:
45,88,42809,1,10,1:2:0:0:
45,88,42979,1,8,1:2:0:0:
73,258,43320,1,10,1:2:0:0:
73,258,43490,1,8,1:2:0:0:
242,258,43831,6,0,L|284:247,3,32.5,8|8|8|8,3:3|3:3|3:3|3:3,0:0:0:0:
315,241,44172,1,10,3:3:0:0:
19,41,45025,6,0,L|34:117,1,71.5000021820069,6|0,1:2|0:0,0:0:0:0:
108,164,45365,2,0,L|92:235,1,71.5000021820069,10|0,1:2|0:0,0:0:0:0:
56,323,45706,1,2,1:2:0:0:
56,323,45792,1,0,1:2:0:0:
56,323,45877,1,0,1:2:0:0:
138,365,46047,2,0,L|223:351,1,71.5000021820069,10|0,1:2|0:0,0:0:0:0:
269,282,46388,2,0,L|352:268,1,71.5000021820069,2|0,1:2|0:0,0:0:0:0:
422,227,46729,2,0,P|442:169|406:134,1,107.25000327301,10|0,1:2|0:0,0:0:0:0:
378,110,47070,1,2,1:2:0:0:
299,159,47240,2,0,L|215:179,1,71.5000021820069,0|10,1:2|1:2,0:0:0:0:
138,195,47581,6,0,P|66:184|59:109,1,143.000004364014,2|0,0:0|0:0,0:0:0:0:
95,41,48093,1,10,1:2:0:0:
186,29,48263,2,0,P|224:30|266:30,1,71.5000021820069,0|2,0:0|1:2,0:0:0:0:
301,57,48519,1,0,0:0:0:0:
301,57,48604,2,0,P|339:58|381:57,1,71.5000021820069,2|8,1:2|1:2,0:0:0:0:
455,14,48945,1,0,0:0:0:0:
509,89,49115,6,0,L|495:165,1,71.5000021820069,2|0,1:2|0:0,0:0:0:0:
404,176,49456,2,0,L|418:248,1,71.5000021820069,10|0,1:2|0:0,0:0:0:0:
480,320,49797,1,2,1:2:0:0:
480,320,49968,1,0,1:2:0:0:
395,358,50138,2,0,P|325:348|286:343,1,107.25000327301,10|0,1:2|0:0,0:0:0:0:
251,356,50479,6,0,P|214:348|164:340,1,71.5000021820069,6|0,1:2|0:0,0:0:0:0:
137,259,50820,2,0,P|100:251|46:240,1,71.5000021820069,10|0,1:2|0:0,0:0:0:0:
5,181,51161,1,2,1:2:0:0:
5,181,51331,1,0,1:2:0:0:
12,88,51502,2,0,P|17:36|21:8,1,71.5000021820069,10|0,1:2|0:0,0:0:0:0:
112,25,51843,6,0,P|108:57|102:98,1,71.5000021820069,2|0,1:2|0:0,0:0:0:0:
136,182,52184,2,0,P|177:210|239:178,1,107.25000327301,10|0,1:2|1:2,0:0:0:0:
254,154,52525,1,2,1:2:0:0:
315,222,52695,1,2,1:2:0:0:
403,193,52865,2,0,L|410:116,1,71.5000021820069,10|0,1:2|0:0,0:0:0:0:
378,33,53206,6,0,P|331:10|277:33,1,107.25000327301,2|0,1:2|0:0,0:0:0:0:
259,69,53547,2,0,P|231:83|188:64,1,71.5000021820069,10|0,1:2|0:0,0:0:0:0:
165,41,53803,1,0,0:0:0:0:
165,41,53888,1,2,1:2:0:0:
79,4,54059,1,0,1:2:0:0:
31,83,54229,2,0,L|50:161,1,71.5000021820069,10|0,1:2|0:0,0:0:0:0:
138,176,54570,2,0,L|117:291,1,107.25000327301,2|0,1:2|0:0,0:0:0:0:
146,318,54911,2,0,P|194:296|243:314,1,107.25000327301,8|8,1:2|3:3,0:0:0:0:
279,342,55252,1,2,1:2:0:0:
356,290,55422,1,8,1:2:0:0:
356,290,55593,1,8,1:2:0:0:
484,155,55934,6,0,P|450:141|417:150,1,71.5000021820069,6|0,1:2|0:0,0:0:0:0:
329,180,56275,2,0,P|295:194|264:184,1,71.5000021820069,10|0,1:2|0:0,0:0:0:0:
218,108,56615,1,2,1:2:0:0:
218,108,56786,1,0,1:2:0:0:
156,177,56956,2,0,P|163:213|171:253,1,71.5000021820069,10|0,1:2|0:0,0:0:0:0:
93,300,57297,2,0,P|85:268|75:223,1,71.5000021820069,2|0,1:2|0:0,0:0:0:0:
14,161,57638,2,0,B|-16:122|-16:122|4:58,1,107.25000327301,10|0,1:2|0:0,0:0:0:0:
20,23,57979,1,2,1:2:0:0:
107,54,58150,2,0,P|148:52|187:49,1,71.5000021820069,2|8,1:2|1:2,0:0:0:0:
257,98,58490,6,0,B|359:126|359:126|376:112|369:84,1,143.000004364014,2|0,0:0|0:0,0:0:0:0:
438,27,59002,1,10,1:2:0:0:
438,27,59172,2,0,P|449:62|457:107,1,71.5000021820069,2|0,0:0|1:2,0:0:0:0:
509,170,59513,2,0,P|498:205|490:250,1,71.5000021820069,2|8,1:2|1:2,0:0:0:0:
471,330,59854,1,2,0:0:0:0:
394,277,60025,6,0,P|360:265|316:277,1,71.5000021820069,2|0,1:2|1:2,0:0:0:0:
263,339,60365,2,0,P|231:338|185:337,1,71.5000021820069,10|0,1:2|3:3,0:0:0:0:
127,276,60706,1,2,1:2:0:0:
127,276,60877,1,8,1:2:0:0:
194,212,61047,1,8,1:2:0:0:
194,212,61218,1,8,1:2:0:0:
286,219,61388,6,0,P|316:160|278:98,1,143.000004364014,6|2,1:2|0:0,0:0:0:0:
216,37,61900,1,2,1:2:0:0:
216,37,62070,2,0,L|58:47,1,143.000004364014,10|2,1:2|1:2,0:0:0:0:
33,214,62752,6,0,P|-2:265|38:329,1,143.000004364014,2|0,1:2|0:0,0:0:0:0:
126,363,63263,1,2,1:2:0:0:
126,363,63434,2,0,P|192:351|273:343,1,143.000004364014,10|0,1:2|1:2,0:0:0:0:
217,164,64115,6,0,L|213:85,2,71.5000021820069,6|10|10,1:2|1:2|1:2,0:0:0:0:
230,261,64627,1,0,0:0:0:0:
230,261,64797,2,0,P|277:241|326:265,1,107.25000327301,10|8,1:2|1:2,0:0:0:0:
340,307,65138,2,0,P|372:331|410:318,1,71.5000021820069,2|8,1:2|1:2,0:0:0:0:
480,276,65479,2,0,P|489:224|499:197,1,71.5000021820069,2|8,1:3|1:2,0:0:0:0:
434,135,65820,2,0,P|425:83|418:59,1,71.5000021820069,10|0,1:2|0:0,0:0:0:0:
349,4,66161,2,0,P|310:2|282:28,1,71.5000021820069,10|0,1:2|0:0,0:0:0:0:
262,63,66417,1,8,1:2:0:0:
262,63,66502,2,0,P|223:69|184:71,1,71.5000021820069,0|8,1:2|1:2,0:0:0:0:
100,92,66843,6,0,L|96:21,2,71.5000021820069,6|10|10,1:2|1:2|1:2,0:0:0:0:
18,140,67354,1,0,0:0:0:0:
18,140,67525,2,0,P|-12:186|20:234,1,107.25000327301,10|8,1:2|1:2,0:0:0:0:
55,234,67865,2,0,P|74:269|48:303,1,71.5000021820069,2|8,1:2|1:2,0:0:0:0:
119,368,68206,2,0,P|149:358|193:351,1,71.5000021820069,2|8,1:3|1:2,0:0:0:0:
229,267,68547,2,0,P|257:281|293:307,1,71.5000021820069,10|0,1:2|0:0,0:0:0:0:
365,359,68888,2,0,P|405:359|423:326,1,71.5000021820069,10|0,1:2|0:0,0:0:0:0:
433,293,69144,1,8,1:2:0:0:
433,293,69229,2,0,P|425:261|411:215,1,71.5000021820069,0|8,1:2|1:2,0:0:0:0:
345,160,69570,6,0,L|272:173,2,71.5000021820069,6|2|10,1:2|1:2|1:2,0:0:0:0:
434,126,70081,1,0,0:0:0:0:
434,126,70252,2,0,P|452:77|419:40,1,107.25000327301,10|8,1:2|1:2,0:0:0:0:
374,24,70593,2,0,P|333:34|292:45,1,71.5000021820069,2|8,1:2|1:2,0:0:0:0:
212,31,70934,2,0,P|200:71|190:111,1,71.5000021820069,2|8,1:3|1:2,0:0:0:0:
136,174,71275,2,0,P|165:204|190:231,1,71.5000021820069,10|0,1:2|0:0,0:0:0:0:
228,307,71615,2,0,P|195:326|151:315,1,71.5000021820069,10|0,1:2|0:0,0:0:0:0:
128,299,71871,1,8,1:2:0:0:
128,299,71956,2,0,P|73:307|46:309,1,71.5000021820069,0|8,1:2|1:2,0:0:0:0:
13,225,72297,6,0,L|6:141,2,71.5000021820069,6|10|10,1:2|1:2|1:2,0:0:0:0:
108,211,72809,1,0,0:0:0:0:
108,211,72979,2,0,P|171:198|226:188,1,107.25000327301,10|8,1:2|1:2,0:0:0:0:
236,149,73320,2,0,L|305:164,1,71.5000021820069,2|8,1:2|1:2,0:0:0:0:
364,236,73661,6,0,P|406:244|439:218,1,71.5000021820069,2|8,1:3|1:2,0:0:0:0:
490,160,74002,2,0,P|496:125|505:82,1,71.5000021820069,10|0,1:2|0:0,0:0:0:0:
451,12,74343,2,0,P|412:5|375:31,1,71.5000021820069,10|0,1:2|1:2,0:0:0:0:
364,62,74598,1,0,1:2:0:0:
364,62,74684,1,0,1:2:0:0:
335,150,74854,1,0,1:2:0:0:
243,134,75025,6,0,B|137:157|137:157|113:144|126:116,1,143.000004364014,6|10,1:2|1:2,0:0:0:0:
84,43,75536,1,2,1:2:0:0:
20,108,75706,2,0,P|27:155|31:190,1,71.5000021820069,10|0,1:2|1:2,0:0:0:0:
75,258,76047,2,0,P|40:262|-2:267,2,71.5000021820069,10|2|10,1:2|1:2|1:2,0:0:0:0:
167,245,76559,1,0,1:2:0:0:
247,199,76729,2,0,P|264:237|250:272,1,71.5000021820069,10|0,1:2|1:2,0:0:0:0:
192,332,77070,2,0,P|257:338|337:353,1,143.000004364014,10|8,1:2|1:2,0:0:0:0:
424,370,77581,1,0,0:0:0:0:
440,278,77752,6,0,P|474:286|514:289,2,71.5000021820069,10|2|10,1:2|1:2|1:2,0:0:0:0:
358,232,78263,1,2,1:2:0:0:
386,147,78434,2,0,P|401:95|424:46,1,107.25000327301,10|0,1:2|0:0,0:0:0:0:
460,17,78775,2,0,P|430:34|383:24,1,71.5000021820069,10|0,1:2|1:2,0:0:0:0:
301,24,79115,2,0,P|309:61|312:106,1,71.5000021820069,10|0,1:2|1:2,0:0:0:0:
231,145,79456,2,0,P|224:116|220:67,1,71.5000021820069,10|0,1:2|1:2,0:0:0:0:
145,18,79797,2,0,P|78:1|20:43,1,143.000004364014,10|10,3:2|1:2,0:0:0:0:
4,135,80309,1,0,0:0:0:0:
95,151,80479,6,0,L|91:70,2,71.5000021820069,10|2|10,1:2|1:2|1:2,0:0:0:0:
133,241,80990,1,2,1:2:0:0:
133,241,81161,2,0,L|219:231,1,71.5000021820069,10|0,1:2|1:2,0:0:0:0:
276,174,81502,2,0,L|268:85,2,71.5000021820069,10|0|10,1:2|1:2|1:2,0:0:0:0:
367,210,82013,1,2,1:2:0:0:
367,210,82184,2,0,P|405:266|360:330,1,143.000004364014,10|8,1:2|1:2,0:0:0:0:
288,362,82695,1,0,1:2:0:0:
288,362,82865,2,0,P|221:357|205:356,1,71.5000021820069,8|0,1:2|1:2,0:0:0:0:
131,355,83206,1,6,1:2:0:0:
31,225,83547,5,0,1:2:0:0:
31,225,83718,1,0,1:2:0:0:
88,159,83888,2,0,P|119:165|151:172,1,65,0|8,1:2|1:2,0:0:0:0:
221,220,84229,2,0,P|262:211|286:206,1,65,8|8,1:2|1:2,0:0:0:0:
364,177,84570,5,6,1:2:0:0:
235,85,84911,1,4,1:3:0:0:
235,85,84996,1,4,1:3:0:0:
235,85,85081,2,0,L|232:38,2,32.5,4|4|14,1:3|1:3|1:2,0:0:0:0:
372,180,85934,6,0,L|381:289,2,97.5,8|0|0,1:2|1:2|1:2,0:0:0:0:
357,53,86701,1,14,1:2:0:0:
256,192,86956,12,0,89002,0:0:0:0:
