osu file format v14

[General]
AudioFilename: audio.mp3
AudioLeadIn: 0
PreviewTime: -1
Countdown: 0
SampleSet: Normal
StackLeniency: 0.7
Mode: 3
LetterboxInBreaks: 0
SpecialStyle: 0
WidescreenStoryboard: 1

[Editor]
Bookmarks: 64285
DistanceSpacing: 0.8
BeatDivisor: 4
GridSize: 4
TimelineZoom: 1.4

[Metadata]
Title:Sensei Anone - TV Cut -
TitleUnicode:Sensei Anone - TV Cut -
Artist:Kesshouban (CV: Naganawa Maria) & Macrophage (CV: Inoue Kikuko)
ArtistUnicode:Kesshouban (CV: Naganawa Maria) & Macrophage (CV: Inoue Kikuko)
Creator:[ Rurumo ]
Version:HS
Source:はたらく細胞
Tags:
BeatmapID:1897084
BeatmapSetID:909073

[Difficulty]
HPDrainRate:8
CircleSize:9
OverallDifficulty:8
ApproachRate:5
SliderMultiplier:1.4
SliderTickRate:1

[Events]
//Background and Video events
0,0,"bg.jpg",0,0
//Break Periods
//Storyboard Layer 0 (Background)
//Storyboard Layer 1 (Fail)
//Storyboard Layer 2 (Pass)
//Storyboard Layer 3 (Foreground)
//Storyboard Sound Samples
Sample,27785,0,"Snare.wav",70
Sample,28785,0,"Snare.wav",70
Sample,29785,0,"Snare.wav",70
Sample,30785,0,"Snare.wav",70
Sample,31785,0,"Snare.wav",70
Sample,38785,0,"Snare.wav",70
Sample,39785,0,"Snare.wav",70
Sample,40785,0,"Snare.wav",70
Sample,41785,0,"Snare.wav",70
Sample,42785,0,"Snare.wav",70
Sample,43785,0,"Snare.wav",70
Sample,44785,0,"Snare.wav",70
Sample,45785,0,"Snare.wav",70
Sample,46785,0,"Snare.wav",70
Sample,47785,0,"Snare.wav",70
Sample,54785,0,"Snare.wav",70
Sample,55785,0,"Snare.wav",70
Sample,56785,0,"Snare.wav",70
Sample,57785,0,"Snare.wav",70
Sample,58785,0,"Snare.wav",70
Sample,59785,0,"Snare.wav",70
Sample,60785,0,"Snare.wav",70
Sample,61785,0,"Snare.wav",70
Sample,62785,0,"Snare.wav",70
Sample,63785,0,"Snare.wav",70
Sample,64785,0,"Snare.wav",70
Sample,65785,0,"Snare.wav",70
Sample,70785,0,"Snare.wav",70
Sample,71785,0,"Snare.wav",70
Sample,72785,0,"Snare.wav",70
Sample,73535,0,"Snare.wav",70
Sample,74035,0,"Snare.wav",70
Sample,74785,0,"Snare.wav",70
Sample,75785,0,"Snare.wav",70
Sample,76785,0,"Snare.wav",70
Sample,77785,0,"Snare.wav",70
Sample,78785,0,"Snare.wav",70
Sample,79785,0,"Snare.wav",70
Sample,80785,0,"Snare.wav",70
Sample,81785,0,"Snare.wav",70
Sample,82785,0,"Snare.wav",70
Sample,83785,0,"Snare.wav",70
Sample,84785,0,"Snare.wav",70
Sample,85785,0,"Snare.wav",70
Sample,86785,0,"Snare.wav",70
Sample,87785,0,"Snare.wav",70
Sample,88785,0,"Snare.wav",70

[TimingPoints]
348,500,4,1,1,100,1,0
8285,500,4,1,1,80,1,0

[HitObjects]
28,192,348,5,0,0:0:0:133:0_G4_120_192.wav
10,192,848,1,0,0:0:0:133:0_G4_120_192.wav
28,192,1098,1,0,0:0:0:133:0_F4_120_192.wav
28,192,1348,1,0,0:0:0:133:0_E4_120_192.wav
28,192,1598,1,0,0:0:0:133:0_F4_120_192.wav
28,192,1848,1,0,0:0:0:133:0_G4_120_192.wav
28,192,2348,1,0,0:0:0:133:0_E4_120_192.wav
28,192,2598,1,0,0:0:0:133:0_F4_120_192.wav
28,192,2848,1,0,0:0:0:133:0_G4_120_192.wav
28,192,3348,1,0,0:0:0:133:0_E4_120_192.wav
10,192,3598,1,0,0:0:0:133:0_F4_120_192.wav
28,192,3848,1,0,0:0:0:133:0_G4_120_192.wav
28,192,4348,1,0,0:0:0:133:0_G4_120_192.wav
28,192,4848,1,0,0:0:0:133:0_G4_120_192.wav
28,192,5098,1,0,0:0:0:133:0_F4_120_192.wav
28,192,5348,1,0,0:0:0:133:0_E4_120_192.wav
28,192,5598,1,0,0:0:0:133:0_F4_120_192.wav
28,192,5848,1,0,0:0:0:133:0_G4_120_192.wav
28,192,6348,1,0,0:0:0:133:0_E4_120_192.wav
10,192,6848,1,0,0:0:0:133:0_C4_120_192.wav
28,192,7348,1,0,0:0:0:133:0_D4_120_384.wav
28,192,8285,1,0,0:0:0:133:LR_Clap Fast Low.wav
28,192,8785,1,0,0:0:0:133:LR_Clap Fast Low.wav
28,192,9285,1,0,0:0:0:133:LR_Clap Fast Low.wav
28,192,9535,1,0,0:0:0:133:LR_Clap Fast Low.wav
28,192,9785,1,0,0:0:0:133:LR_Clap Fast Low.wav
28,192,10285,1,0,0:0:0:133:0_G4_120_192.wav
199,192,10785,1,0,0:0:0:70:LR_Drum Hit Open.wav
28,192,11035,1,0,0:0:0:133:0_A4_120_192.wav
28,192,11285,1,0,0:0:0:133:0_G4_120_192.wav
199,192,11785,1,0,0:0:0:70:LR_Drum Hit Open.wav
28,192,12035,1,0,0:0:0:133:0_A4_120_192.wav
28,192,12285,1,0,0:0:0:133:0_G4_120_192.wav
199,192,12785,1,0,0:0:0:70:LR_Drum Hit Open.wav
28,192,13035,1,0,0:0:0:133:0_A4_120_192.wav
28,192,13285,1,0,0:0:0:133:0_G4_120_192.wav
10,192,13535,1,0,0:0:0:133:0_F4_120_192.wav
28,192,13785,1,0,0:0:0:66:0_E4_120_192.wav
199,192,13785,1,0,0:0:0:70:LR_Drum Hit Open.wav
28,192,14035,1,0,0:0:0:133:0_F4_120_192.wav
28,192,14285,1,0,0:0:0:133:0_G4_120_192.wav
199,192,14785,1,0,0:0:0:70:LR_Drum Hit Open.wav
28,192,15035,1,0,0:0:0:133:0_A4_120_192.wav
28,192,15285,1,0,0:0:0:133:0_G4_120_192.wav
199,192,15785,1,0,0:0:0:70:LR_Drum Hit Open.wav
28,192,16035,1,0,0:0:0:133:0_A4_120_192.wav
28,192,16285,1,0,0:0:0:133:0_G4_120_192.wav
28,192,16785,1,0,0:0:0:66:0_E4_120_192.wav
199,192,16785,1,0,0:0:0:70:LR_Drum Hit Open.wav
10,192,17035,1,0,0:0:0:133:0_C4_120_192.wav
28,192,17285,1,0,0:0:0:133:0_D4_120_192.wav
28,192,18285,1,0,0:0:0:66:0_E4_120_192.wav
85,192,18285,1,0,0:0:0:66:0_G4_120_192.wav
199,192,18785,1,0,0:0:0:70:LR_Drum Hit Open.wav
28,192,19035,1,0,0:0:0:133:0_A4_120_192.wav
28,192,19285,1,0,0:0:0:66:0_E4_120_192.wav
85,192,19285,1,0,0:0:0:66:0_G4_120_192.wav
199,192,19785,1,0,0:0:0:70:LR_Drum Hit Open.wav
28,192,20035,1,0,0:0:0:133:0_A4_120_192.wav
10,192,20285,1,0,0:0:0:66:0_E4_120_192.wav
85,192,20285,1,0,0:0:0:66:0_G4_120_192.wav
199,192,20785,1,0,0:0:0:70:LR_Drum Hit Open.wav
28,192,21035,1,0,0:0:0:66:0_C4_120_192.wav
85,192,21035,1,0,0:0:0:66:0_A4_120_192.wav
28,192,21285,1,0,0:0:0:66:0_B3_120_192.wav
85,192,21285,1,0,0:0:0:66:0_G4_120_192.wav
85,192,21535,1,0,0:0:0:66:0_A3_120_192.wav
28,192,21535,1,0,0:0:0:66:0_F4_120_192.wav
28,192,21785,1,0,0:0:0:66:0_G3_120_192.wav
85,192,21785,1,0,0:0:0:66:0_E4_120_192.wav
10,192,22035,1,0,0:0:0:66:0_A3_120_192.wav
85,192,22035,1,0,0:0:0:66:0_F4_120_192.wav
28,192,22285,1,0,0:0:0:66:0_E4_120_192.wav
85,192,22285,1,0,0:0:0:66:0_G4_120_192.wav
199,192,22785,1,0,0:0:0:70:LR_Drum Hit Open.wav
28,192,23035,1,0,0:0:0:133:0_A4_120_192.wav
28,192,23285,1,0,0:0:0:66:0_E4_120_192.wav
85,192,23285,1,0,0:0:0:66:0_G4_120_192.wav
199,192,23785,1,0,0:0:0:70:LR_Drum Hit Open.wav
28,192,24035,1,0,0:0:0:133:0_A4_120_192.wav
28,192,24285,1,0,0:0:0:66:0_C4_120_192.wav
85,192,24285,1,0,0:0:0:66:0_G4_120_192.wav
10,192,24785,1,0,0:0:0:133:0_E4_120_192.wav
28,192,25035,1,0,0:0:0:133:0_C4_120_192.wav
28,192,25285,1,0,0:0:0:66:0_B3_120_192.wav
85,192,25285,1,0,0:0:0:66:0_D4_120_192.wav
142,192,25785,1,0,0:0:0:30:LR_Drum Kick Low.wav
28,192,26285,1,0,0:0:0:133:0_G4_120_192.wav
142,192,27035,1,0,0:0:0:30:LR_Drum Kick Low.wav
28,192,27285,1,0,0:0:0:66:0_E4_120_192.wav
142,192,27285,1,0,0:0:0:30:LR_Drum Kick Low.wav
28,192,27535,1,0,0:0:0:133:0_F4_120_192.wav
28,192,27785,1,0,0:0:0:133:0_G4_120_192.wav
142,192,28285,1,0,0:0:0:30:LR_Drum Kick Low.wav
10,192,28535,1,0,0:0:0:133:0_G4_120_192.wav
28,192,28785,1,0,0:0:0:133:0_G4_120_192.wav
28,192,29035,1,0,0:0:0:133:0_A4_120_192.wav
28,192,29285,1,0,0:0:0:66:0_G4_120_192.wav
142,192,29285,1,0,0:0:0:30:LR_Drum Kick Low.wav
28,192,29535,1,0,0:0:0:66:0_F4_120_192.wav
142,192,29535,1,0,0:0:0:30:LR_Drum Kick Low.wav
28,192,29785,1,0,0:0:0:133:0_E4_120_192.wav
28,192,30035,1,0,0:0:0:133:0_F4_120_192.wav
28,192,30285,1,0,0:0:0:66:0_G4_120_192.wav
142,192,30285,1,0,0:0:0:30:LR_Drum Kick Low.wav
10,192,30535,1,0,0:0:0:133:0_G4_120_192.wav
28,192,30785,1,0,0:0:0:133:0_G4_120_192.wav
28,192,31035,1,0,0:0:0:66:0_F4_120_192.wav
142,192,31035,1,0,0:0:0:30:LR_Drum Kick Low.wav
28,192,31285,1,0,0:0:0:66:0_E4_120_192.wav
142,192,31285,1,0,0:0:0:30:LR_Drum Kick Low.wav
28,192,31535,1,0,0:0:0:133:0_F4_120_192.wav
28,192,31785,1,0,0:0:0:133:0_G4_120_192.wav
28,192,32285,1,0,0:0:0:66:0_E4_120_192.wav
142,192,32285,1,0,0:0:0:30:LR_Drum Kick Low.wav
28,192,32785,1,0,0:0:0:66:0_C4_120_192.wav
142,192,32785,1,0,0:0:0:30:LR_Drum Kick Low.wav
28,192,33285,1,0,0:0:0:66:0_D4_120_192.wav
142,192,33285,1,0,0:0:0:30:LR_Drum Kick Low.wav
10,192,34285,1,0,0:0:0:44:0_B3_120_192.wav
85,192,34285,1,0,0:0:0:44:0_B4_120_192.wav
142,192,34285,1,0,0:0:0:44:LR_Clap Fast Low.wav
28,192,34535,1,0,0:0:0:133:0_G4_120_192.wav
28,192,34785,1,0,0:0:0:44:0_G3_120_192.wav
85,192,34785,1,0,0:0:0:44:0_D4_120_192.wav
142,192,34785,1,0,0:0:0:44:LR_Clap Fast Low.wav
28,192,35035,1,0,0:0:0:133:0_G4_120_192.wav
28,192,35285,1,0,0:0:0:44:0_D4_120_192.wav
85,192,35285,1,0,0:0:0:44:0_D5_120_192.wav
142,192,35285,1,0,0:0:0:44:LR_Clap Fast Low.wav
142,192,35785,1,0,0:0:0:133:LR_Clap Fast Low.wav
10,192,36285,1,0,0:0:0:66:0_G4_120_192.wav
142,192,36285,1,0,0:0:0:66:LR_Clap Fast Low.wav
28,192,36785,1,0,0:0:0:133:0_G3_120_192.wav
142,192,38285,1,0,0:0:0:30:LR_Drum Kick Low.wav
28,192,39035,1,0,0:0:0:66:0_E4_120_192.wav
142,192,39035,1,0,0:0:0:30:LR_Drum Kick Low.wav
28,192,39285,1,0,0:0:0:66:0_F4_120_192.wav
142,192,39285,1,0,0:0:0:30:LR_Drum Kick Low.wav
28,192,39535,1,0,0:0:0:133:0_E4_120_192.wav
28,192,39785,1,0,0:0:0:133:0_D4_120_192.wav
28,192,40035,1,0,0:0:0:133:0_F4_120_192.wav
28,192,40285,1,0,0:0:0:66:0_E4_120_192.wav
142,192,40285,1,0,0:0:0:30:LR_Drum Kick Low.wav
10,192,40535,1,0,0:0:0:133:0_D4_120_192.wav
28,192,40785,1,0,0:0:0:133:0_C4_120_192.wav
28,192,41035,1,0,0:0:0:133:0_E4_120_192.wav
28,192,41285,1,0,0:0:0:66:0_D4_120_192.wav
142,192,41285,1,0,0:0:0:30:LR_Drum Kick Low.wav
142,192,41535,1,0,0:0:0:30:LR_Drum Kick Low.wav
28,192,41785,1,0,0:0:0:66:0_D4_120_192.wav
28,192,42285,1,0,0:0:0:66:0_G4_120_192.wav
142,192,42285,1,0,0:0:0:30:LR_Drum Kick Low.wav
28,192,42785,1,0,0:0:0:66:0_E4_120_192.wav
10,192,43285,1,0,0:0:0:66:0_E4_120_192.wav
142,192,43285,1,0,0:0:0:30:LR_Drum Kick Low.wav
28,192,43535,1,0,0:0:0:133:0_F4_120_192.wav
28,192,43785,1,0,0:0:0:66:0_E4_120_192.wav
85,192,43785,1,0,0:0:0:66:0_G4_120_192.wav
142,192,44285,1,0,0:0:0:30:LR_Drum Kick Low.wav
28,192,44535,1,0,0:0:0:133:0_G4_120_192.wav
28,192,44785,1,0,0:0:0:66:0_E4_120_192.wav
85,192,44785,1,0,0:0:0:66:0_G4_120_192.wav
28,192,45035,1,0,0:0:0:66:0_A4_120_192.wav
28,192,45285,1,0,0:0:0:66:0_G4_120_192.wav
142,192,45285,1,0,0:0:0:30:LR_Drum Kick Low.wav
10,192,45535,1,0,0:0:0:133:0_F4_120_192.wav
142,192,45535,1,0,0:0:0:30:LR_Drum Kick Low.wav
28,192,45785,1,0,0:0:0:66:0_B3_120_192.wav
85,192,45785,1,0,0:0:0:66:0_E4_120_192.wav
28,192,46035,1,0,0:0:0:133:0_F4_120_192.wav
28,192,46285,1,0,0:0:0:66:0_G4_120_192.wav
142,192,46285,1,0,0:0:0:30:LR_Drum Kick Low.wav
28,192,46535,1,0,0:0:0:133:0_G4_120_192.wav
28,192,46785,1,0,0:0:0:66:0_E4_120_192.wav
85,192,46785,1,0,0:0:0:66:0_G4_120_192.wav
28,192,47035,1,0,0:0:0:133:0_F4_120_192.wav
10,192,47285,1,0,0:0:0:66:0_E4_120_192.wav
142,192,47285,1,0,0:0:0:30:LR_Drum Kick Low.wav
28,192,47535,1,0,0:0:0:133:0_F4_120_192.wav
28,192,47785,1,0,0:0:0:66:0_C4_120_192.wav
85,192,47785,1,0,0:0:0:66:0_G4_120_192.wav
28,192,48035,1,0,0:0:0:133:0_F4_120_192.wav
28,192,48285,1,0,0:0:0:44:0_C4_120_192.wav
85,192,48285,1,0,0:0:0:44:0_E4_120_192.wav
142,192,48285,1,0,0:0:0:30:LR_Drum Kick Low.wav
28,192,48785,1,0,0:0:0:66:0_C4_120_192.wav
142,192,48785,1,0,0:0:0:30:LR_Drum Kick Low.wav
10,192,49285,1,0,0:0:0:44:0_B3_120_192.wav
85,192,49285,1,0,0:0:0:44:0_D4_120_192.wav
142,192,49285,1,0,0:0:0:30:LR_Drum Kick Low.wav
28,192,50285,1,0,0:0:0:133:0_C5_120_192.wav
28,192,50535,1,0,0:0:0:133:0_B4_120_192.wav
28,192,50597,1,0,0:0:0:133:0_C5_120_192.wav
28,192,50660,1,0,0:0:0:133:0_B4_120_192.wav
28,192,50785,1,0,0:0:0:133:0_G4_120_192.wav
28,192,51035,1,0,0:0:0:133:0_D4_120_192.wav
28,192,51285,1,0,0:0:0:133:0_C4_120_192.wav
28,192,51535,1,0,0:0:0:133:0_B3_120_192.wav
10,192,51785,1,0,0:0:0:133:0_G3_120_192.wav
28,192,52035,1,0,0:0:0:133:0_B3_120_192.wav
28,192,52285,1,0,0:0:0:133:0_G3_120_192.wav
28,192,52785,1,0,0:0:0:133:0_G3_120_384.wav
28,192,54097,1,0,0:0:0:133:0_E3_120_192.wav
28,192,54160,1,0,0:0:0:133:0_G3_120_192.wav
28,192,54222,1,0,0:0:0:133:0_C4_120_192.wav
142,192,54285,1,0,0:0:0:30:LR_Drum Kick Low.wav
28,192,54535,1,0,0:0:0:133:0_G3_120_192.wav
28,192,54785,1,0,0:0:0:133:0_C4_120_192.wav
10,192,55035,1,0,0:0:0:66:0_E4_120_192.wav
142,192,55035,1,0,0:0:0:30:LR_Drum Kick Low.wav
28,192,55285,1,0,0:0:0:44:0_C4_120_192.wav
85,192,55285,1,0,0:0:0:44:0_F4_120_192.wav
142,192,55285,1,0,0:0:0:30:LR_Drum Kick Low.wav
28,192,55535,1,0,0:0:0:133:0_E4_120_192.wav
28,192,55785,1,0,0:0:0:133:0_D4_120_192.wav
28,192,56035,1,0,0:0:0:133:0_F4_120_192.wav
28,192,56285,1,0,0:0:0:44:0_C4_120_192.wav
85,192,56285,1,0,0:0:0:44:0_E4_120_192.wav
142,192,56285,1,0,0:0:0:30:LR_Drum Kick Low.wav
28,192,56535,1,0,0:0:0:133:0_D4_120_192.wav
10,192,56785,1,0,0:0:0:133:0_C4_120_192.wav
28,192,57035,1,0,0:0:0:66:0_E4_120_192.wav
142,192,57035,1,0,0:0:0:30:LR_Drum Kick Low.wav
28,192,57285,1,0,0:0:0:44:0_G3_120_192.wav
85,192,57285,1,0,0:0:0:44:0_D4_120_192.wav
142,192,57285,1,0,0:0:0:30:LR_Drum Kick Low.wav
28,192,57535,1,0,0:0:0:66:0_C4_120_192.wav
142,192,57535,1,0,0:0:0:30:LR_Drum Kick Low.wav
28,192,57785,1,0,0:0:0:133:0_G3_120_192.wav
28,192,58035,1,0,0:0:0:133:0_C4_120_192.wav
28,192,58285,1,0,0:0:0:44:0_F4_120_192.wav
85,192,58285,1,0,0:0:0:44:0_A4_120_192.wav
142,192,58285,1,0,0:0:0:44:LR_Drum Kick Low.wav
10,192,58785,1,0,0:0:0:133:0_A4_120_192.wav
142,192,59035,1,0,0:0:0:30:LR_Drum Kick Low.wav
28,192,59285,1,0,0:0:0:44:0_D4_120_192.wav
85,192,59285,1,0,0:0:0:44:0_F4_120_192.wav
142,192,59285,1,0,0:0:0:30:LR_Drum Kick Low.wav
85,192,59535,1,0,0:0:0:66:0_E4_120_192.wav
28,192,59535,1,0,0:0:0:66:0_G4_120_192.wav
28,192,59785,1,0,0:0:0:66:0_F4_120_192.wav
85,192,59785,1,0,0:0:0:66:0_A4_120_192.wav
28,192,60285,1,0,0:0:0:66:0_G4_120_192.wav
142,192,60285,1,0,0:0:0:30:LR_Drum Kick Low.wav
28,192,60785,1,0,0:0:0:133:0_G4_120_192.wav
10,192,61035,1,0,0:0:0:133:0_G4_120_192.wav
28,192,61285,1,0,0:0:0:66:0_A4_120_192.wav
142,192,61285,1,0,0:0:0:30:LR_Drum Kick Low.wav
28,192,61535,1,0,0:0:0:66:0_G4_120_192.wav
142,192,61535,1,0,0:0:0:30:LR_Drum Kick Low.wav
28,192,62035,1,0,0:0:0:66:0_F4_120_192.wav
28,192,62285,1,0,0:0:0:44:0_D4_120_192.wav
85,192,62285,1,0,0:0:0:44:0_G4_120_192.wav
142,192,62285,1,0,0:0:0:30:LR_Drum Kick Low.wav
28,192,62535,1,0,0:0:0:133:0_G3_120_192.wav
10,192,62785,1,0,0:0:0:66:0_B3_120_192.wav
85,192,62785,1,0,0:0:0:66:0_G4_120_192.wav
28,192,63035,1,0,0:0:0:66:0_B3_120_192.wav
85,192,63035,1,0,0:0:0:66:0_A4_120_192.wav
28,192,63285,1,0,0:0:0:44:0_G3_120_192.wav
85,192,63285,1,0,0:0:0:44:0_G4_120_192.wav
142,192,63285,1,0,0:0:0:30:LR_Drum Kick Low.wav
28,192,63535,1,0,0:0:0:66:0_E3_120_192.wav
142,192,63535,1,0,0:0:0:30:LR_Drum Kick Low.wav
28,192,63785,1,0,0:0:0:133:0_E4_120_192.wav
28,192,64285,1,0,0:0:0:133:0_C5_120_192.wav
142,192,64285,1,0,0:0:0:30:LR_Drum Kick Low.wav
28,192,64535,1,0,0:0:0:133:0_B4_120_192.wav
10,192,64597,1,0,0:0:0:133:0_C5_120_192.wav
28,192,64660,1,0,0:0:0:133:0_B4_120_192.wav
28,192,64785,1,0,0:0:0:133:0_G4_120_192.wav
28,192,65035,1,0,0:0:0:133:0_D4_120_192.wav
28,192,65285,1,0,0:0:0:66:0_C4_120_192.wav
142,192,65285,1,0,0:0:0:30:LR_Drum Kick Low.wav
28,192,65535,1,0,0:0:0:66:0_G3_120_192.wav
142,192,65535,1,0,0:0:0:30:LR_Drum Kick Low.wav
28,192,65785,1,0,0:0:0:133:0_E3_120_192.wav
28,192,66035,1,0,0:0:0:133:0_C3_120_192.wav
28,192,66285,1,0,0:0:0:133:0_C3_120_192.wav
10,192,66785,1,0,0:0:0:133:0_C4_120_192.wav
28,192,67285,1,0,0:0:0:133:0_C4_120_192.wav
28,192,67535,1,0,0:0:0:133:0_A3_120_192.wav
28,192,67785,1,0,0:0:0:133:0_F3_120_192.wav
28,192,68285,1,0,0:0:0:133:0_E4_120_192.wav
28,192,68785,1,0,0:0:0:133:0_F4_120_192.wav
28,192,69285,1,0,0:0:0:133:0_F#4_120_192.wav
28,192,69785,1,0,0:0:0:133:0_F#4_120_192.wav
28,192,70035,1,0,0:0:0:133:0_F#4_120_192.wav
10,192,70285,1,0,0:0:0:44:0_E4_120_192.wav
85,192,70285,1,0,0:0:0:44:0_G4_120_192.wav
142,192,70285,1,0,0:0:0:30:LR_Drum Kick Low.wav
142,192,70535,1,0,0:0:0:30:LR_Drum Kick Low.wav
28,192,71035,1,0,0:0:0:133:0_A4_120_192.wav
28,192,71285,1,0,0:0:0:66:0_G4_120_192.wav
142,192,71285,1,0,0:0:0:30:LR_Drum Kick Low.wav
142,192,71535,1,0,0:0:0:30:LR_Drum Kick Low.wav
28,192,72035,1,0,0:0:0:133:0_A4_120_192.wav
28,192,72285,1,0,0:0:0:44:0_D4_120_384.wav
85,192,72285,1,0,0:0:0:44:0_G4_120_384.wav
142,192,72285,1,0,0:0:0:30:LR_Drum Kick Low.wav
142,192,72535,1,0,0:0:0:30:LR_Drum Kick Low.wav
142,192,73285,1,0,0:0:0:30:LR_Drum Kick Low.wav
28,192,73785,1,0,0:0:0:66:0_G4_120_192.wav
142,192,73785,1,0,0:0:0:30:LR_Drum Kick Low.wav
142,192,73910,1,0,0:0:0:30:LR_Drum Kick Low.wav
28,192,74035,1,0,0:0:0:66:0_G4_120_192.wav
142,192,74160,1,0,0:0:0:30:LR_Drum Kick Low.wav
10,192,74285,1,0,0:0:0:44:0_E4_120_384.wav
85,192,74285,1,0,0:0:0:44:0_G4_120_384.wav
142,192,74285,1,0,0:0:0:30:LR_Drum Kick Low.wav
142,192,75035,1,0,0:0:0:30:LR_Drum Kick Low.wav
28,192,75285,1,0,0:0:0:133:0_C4_120_192.wav
142,192,75285,1,0,0:0:0:30:LR_Drum Kick Low.wav
28,192,75785,1,0,0:0:0:66:0_C3_120_192.wav
85,192,75785,1,0,0:0:0:66:0_A4_120_192.wav
28,192,76035,1,0,0:0:0:133:0_A4_120_192.wav
28,192,76285,1,0,0:0:0:66:0_F#4_120_384.wav
85,192,76285,1,0,0:0:0:66:0_A4_120_384.wav
142,192,76285,1,0,0:0:0:30:LR_Drum Kick Low.wav
28,192,77285,1,0,0:0:0:133:0_F#4_120_384.wav
142,192,77285,1,0,0:0:0:30:LR_Drum Kick Low.wav
142,192,77535,1,0,0:0:0:30:LR_Drum Kick Low.wav
10,192,78285,1,0,0:0:0:66:0_D4_120_192.wav
85,192,78285,1,0,0:0:0:66:0_G4_120_192.wav
142,192,78285,1,0,0:0:0:30:LR_Drum Kick Low.wav
28,192,79035,1,0,0:0:0:133:0_A4_120_192.wav
28,192,79285,1,0,0:0:0:133:0_G4_120_192.wav
142,192,79285,1,0,0:0:0:30:LR_Drum Kick Low.wav
142,192,79535,1,0,0:0:0:30:LR_Drum Kick Low.wav
28,192,79785,1,0,0:0:0:133:0_E4_120_192.wav
28,192,80285,1,0,0:0:0:66:0_A3_120_384.wav
85,192,80285,1,0,0:0:0:66:0_C4_120_384.wav
142,192,80285,1,0,0:0:0:30:LR_Drum Kick Low.wav
142,192,81285,1,0,0:0:0:30:LR_Drum Kick Low.wav
142,192,81535,1,0,0:0:0:30:LR_Drum Kick Low.wav
28,192,81785,1,0,0:0:0:133:0_E4_120_192.wav
28,192,82035,1,0,0:0:0:133:0_C4_120_192.wav
10,192,82285,1,0,0:0:0:66:0_C4_120_384.wav
85,192,82285,1,0,0:0:0:66:0_F4_120_384.wav
142,192,82285,1,0,0:0:0:30:LR_Drum Kick Low.wav
28,192,83285,1,0,0:0:0:66:0_F4_120_192.wav
85,192,83285,1,0,0:0:0:66:0_A4_120_192.wav
142,192,83285,1,0,0:0:0:30:LR_Drum Kick Low.wav
142,192,83535,1,0,0:0:0:30:LR_Drum Kick Low.wav
28,192,83785,1,0,0:0:0:66:0_D4_120_192.wav
85,192,83785,1,0,0:0:0:66:0_G4_120_192.wav
28,192,84035,1,0,0:0:0:66:0_C4_120_192.wav
85,192,84035,1,0,0:0:0:66:0_F4_120_192.wav
10,192,84285,1,0,0:0:0:66:0_D4_120_384.wav
85,192,84285,1,0,0:0:0:66:0_G4_120_384.wav
142,192,84285,1,0,0:0:0:30:LR_Drum Kick Low.wav
28,192,85285,1,0,0:0:0:66:0_G4_120_384.wav
85,192,85285,1,0,0:0:0:66:0_C5_120_384.wav
142,192,85285,1,0,0:0:0:30:LR_Drum Kick Low.wav
142,192,85535,1,0,0:0:0:30:LR_Drum Kick Low.wav
28,192,86285,1,0,0:0:0:133:0_G4_120_192.wav
142,192,86285,1,0,0:0:0:30:LR_Drum Kick Low.wav
142,192,86535,1,0,0:0:0:30:LR_Drum Kick Low.wav
28,192,87035,1,0,0:0:0:133:0_A4_120_192.wav
28,192,87285,1,0,0:0:0:133:0_G4_120_192.wav
142,192,87285,1,0,0:0:0:30:LR_Drum Kick Low.wav
142,192,87535,1,0,0:0:0:30:LR_Drum Kick Low.wav
28,192,88035,1,0,0:0:0:133:0_A4_120_192.wav
28,192,88285,1,0,0:0:0:133:0_G4_120_192.wav
142,192,88285,1,0,0:0:0:30:LR_Drum Kick Low.wav
142,192,88535,1,0,0:0:0:30:LR_Drum Kick Low.wav
10,192,89035,1,0,0:0:0:133:0_A4_120_192.wav
28,192,89285,1,0,0:0:0:133:0_G4_120_192.wav
28,192,89535,1,0,0:0:0:133:0_F4_120_192.wav
28,192,89785,1,0,0:0:0:133:0_E4_120_192.wav
28,192,90035,1,0,0:0:0:133:0_D4_120_192.wav
28,192,90285,1,0,0:0:0:70:0_C4_120_192.wav
