osu file format v14

[General]
AudioFilename: audio.mp3
AudioLeadIn: 0
PreviewTime: 155645
Countdown: 0
SampleSet: Soft
StackLeniency: 0.9
Mode: 0
LetterboxInBreaks: 0
WidescreenStoryboard: 1

[Editor]
Bookmarks: 12421,17315,24496,36572,48647,60723,72798,80325,84874,109025,121088,133176,145251,157327,179968
DistanceSpacing: 1
BeatDivisor: 4
GridSize: 32
TimelineZoom: 2.4

[Metadata]
Title:WESTSIDE
TitleUnicode:WESTSIDE
Artist:keshi
ArtistUnicode:keshi
Creator:-Askel-
Version:NORMAL
Source:
Tags:zixooo GABRIEL indie english pop hip-hop hip hop trap r&b rnb rhythm blues
BeatmapID:4273060
BeatmapSetID:2045637

[Difficulty]
HPDrainRate:3
CircleSize:3.5
OverallDifficulty:4.5
ApproachRate:5.5
SliderMultiplier:2
SliderTickRate:1

[Events]
//Background and Video events
0,0,"bg.png",0,0
//Break Periods
2,60903,71653
2,133356,144106
//Storyboard Layer 0 (Background)
//Storyboard Layer 1 (Fail)
//Storyboard Layer 2 (Pass)
//Storyboard Layer 3 (Foreground)
//Storyboard Layer 4 (Overlay)
//Storyboard Sound Samples

[TimingPoints]
326,754.716981132075,4,2,2,40,1,0
12401,-111.111111111111,4,2,2,50,0,0
24477,-90.9090909090909,4,2,2,70,0,0
36552,-100,4,2,2,55,0,0
49759,-100,4,2,2,65,0,0
60703,-100,4,2,2,35,0,0
72778,-111.111111111111,4,2,2,35,0,0
84854,-90.9090909090909,4,2,2,75,0,0
109004,-90.9090909090909,4,2,2,45,0,0
111646,-90.9090909090909,4,2,2,58,0,0
112024,-99.9999999999999,4,2,2,55,0,0
133156,-99.9999999999999,4,2,2,35,0,0
145231,-99.9999999999999,4,2,2,45,0,0
145986,-111.111111111111,4,2,2,45,0,0
157307,-111.111111111111,4,2,2,30,0,0

[Colours]
Combo1 : 92,97,131
Combo2 : 198,107,91
Combo3 : 165,122,116
Combo4 : 141,131,120

[HitObjects]
27,363,12401,6,0,B|125:363|99:316|208:315,1,179.999994506836,0|8,3:2|2:0,3:0:0:0:
271,366,13533,1,0,3:2:0:0:
353,331,13910,1,2,3:2:0:0:
347,241,14288,1,2,3:2:0:0:
264,205,14665,2,0,P|237:166|245:121,1,89.9999972534181,10|0,2:0|3:2,3:0:0:0:
280,100,15231,1,0,3:0:0:0:
280,100,15420,6,0,P|328:95|368:86,1,89.9999972534181,2|0,3:2|3:0,3:0:0:0:
441,32,16175,1,8,2:0:0:0:
510,88,16552,2,0,P|519:134|490:183,1,89.9999972534181,0|0,3:2|3:0,3:0:0:0:
430,226,17307,2,0,P|404:213|375:215,1,44.999998626709,2|0,3:2|3:2,3:0:0:0:
349,234,17684,1,10,2:0:0:0:
270,189,18061,1,0,3:0:0:0:
226,268,18439,5,2,3:2:0:0:
266,352,18816,2,0,P|223:363|182:345,1,89.9999972534181,2|8,3:2|2:0,3:0:0:0:
112,288,19571,2,0,P|122:247|128:196,1,89.9999972534181,0|0,3:2|3:0,3:0:0:0:
68,131,20326,2,0,P|66:106|61:82,1,44.999998626709,2|2,3:2|3:2,3:0:0:0:
31,53,20703,1,8,2:0:0:0:
106,4,21080,1,2,3:2:0:0:
164,72,21458,5,2,3:2:0:0:
245,32,21835,2,0,P|295:27|327:58,1,89.9999972534181,2|8,3:2|2:0,3:0:0:0:
356,134,22590,1,0,3:2:0:0:
484,149,24477,6,0,P|427:158|370:170,1,110.000003356934,4|0,1:0|3:0,3:0:0:0:
340,211,25042,1,0,3:2:0:0:
340,211,25231,1,8,2:0:0:0:
424,281,25609,2,0,P|426:308|410:338,1,55.0000016784668,0|8,1:2|2:0,3:0:0:0:
368,362,25986,2,0,P|337:355|306:351,1,55.0000016784668,2|8,3:2|2:0,3:0:0:0:
274,313,26363,1,2,3:2:0:0:
177,365,26741,2,0,P|147:368|91:314,1,110.000003356934,10|0,2:0|3:2,3:0:0:0:
107,267,27307,1,2,3:2:0:0:
107,267,27495,6,0,P|82:182|68:147,1,110.000003356934,0|0,1:2|3:0,3:0:0:0:
32,59,28250,1,8,2:0:0:0:
128,7,28627,2,0,P|186:1|228:42,1,110.000003356934,0|0,1:2|3:2,3:0:0:0:
306,104,29382,2,0,P|330:86|364:90,2,55.0000016784668,2|2|10,3:2|3:2|2:0,3:0:0:0:
278,153,29948,1,0,1:0:0:0:
278,153,30137,2,0,P|286:177|296:215,1,55.0000016784668,2|2,3:2|3:2,3:0:0:0:
333,243,30514,6,0,P|326:268|321:308,1,55.0000016784668,2|0,1:2|1:0,3:0:0:0:
346,345,30892,2,0,P|403:350|442:305,1,110.000003356934,2|8,3:2|2:0,3:0:0:0:
489,218,31646,2,0,P|476:157|469:107,1,110.000003356934,0|0,1:0|3:0,3:0:0:0:
369,63,32401,2,0,P|381:35|388:8,2,55.0000016784668,2|2|8,3:2|3:2|2:0,3:0:0:0:
334,105,32967,1,2,3:2:0:0:
334,105,33156,2,0,P|301:108|279:96,1,55.0000016784668,2|2,3:2|3:2,3:0:0:0:
251,52,33533,6,0,P|218:49|196:61,1,55.0000016784668,2|0,1:2|3:0,3:0:0:0:
176,108,33910,2,0,P|186:158|198:225,1,110.000003356934,2|8,3:2|2:0,3:0:0:0:
258,307,34665,2,0,P|197:335|156:316,1,110.000003356934,0|0,1:0|3:2,3:0:0:0:
85,239,35420,1,0,3:2:0:0:
179,183,35797,2,0,P|213:170|244:161,1,55.0000016784668,8|0,2:0|1:0,3:0:0:0:
268,123,36175,1,0,3:0:0:0:
354,173,36552,6,0,P|388:133|381:79,1,100,0|0,1:2|3:2,2:0:0:0:
345,57,37118,2,0,P|338:23|329:4,2,50,2|10|2,1:2|2:0|2:0,2:0:0:0:
317,99,37684,1,0,1:2:0:0:
317,99,37873,1,2,2:0:0:0:
241,164,38250,1,2,1:2:0:0:
190,78,38627,2,0,P|139:65|98:98,1,100,2|0,2:0|2:0,2:0:0:0:
100,140,39193,1,0,2:0:0:0:
166,215,39571,6,0,P|155:263|145:326,1,100,0|0,1:2|3:2,2:0:0:0:
69,377,40326,2,0,P|39:379|19:367,2,50,10|0|2,2:0|2:0|1:2,2:0:0:0:
138,305,41080,1,2,2:0:0:0:
224,365,41458,1,2,2:0:0:0:
224,365,41646,2,0,P|267:350|335:342,1,100,2|0,2:0|1:2,2:0:0:0:
360,367,42212,1,0,2:0:0:0:
438,304,42590,6,0,P|466:264|457:215,1,100,0|0,1:2|3:2,2:0:0:0:
384,147,43344,2,0,P|389:120|393:93,1,50,10|2,2:0|2:0,2:0:0:0:
406,52,43722,1,0,1:2:0:0:
406,52,43910,1,2,2:0:0:0:
312,17,44288,1,2,1:2:0:0:
256,97,44665,2,0,P|205:104|163:73,1,100,2|0,2:0|2:0,2:0:0:0:
140,35,45231,1,0,2:0:0:0:
72,108,45609,6,0,P|85:156|97:212,1,100,0|2,1:2|3:2,2:0:0:0:
91,258,46175,1,2,1:2:0:0:
91,258,46363,2,0,P|63:274|40:275,2,50,10|2|2,2:0|2:0|1:2,2:0:0:0:
124,220,46929,2,0,P|189:216|216:242,1,100,2|2,2:0|1:2,2:0:0:0:
244,275,47495,2,0,P|309:279|336:253,1,100,2|8,2:0|2:0,2:0:0:0:
391,177,48250,1,0,2:0:0:0:
269,0,49759,6,0,P|271:24|260:46,1,50,4|8,1:0|2:0,2:0:0:0:
219,76,50137,1,2,2:0:0:0:
137,134,50515,2,0,P|149:191|155:239,1,100,2|8,1:2|2:0,2:0:0:0:
219,308,51269,1,0,2:0:0:0:
146,377,51647,2,0,P|122:369|97:364,1,50,2|2,1:2|2:0,2:0:0:0:
53,340,52024,2,0,P|17:286|45:209,1,150,2|0,3:2|2:0,2:0:0:0:
85,184,52778,1,4,2:3:0:0:
96,84,53156,6,0,P|46:71|-5:61,2,100,2|2|8,2:0|2:0|2:0,2:0:0:0:
181,32,54288,1,2,2:0:0:0:
242,111,54665,2,0,P|267:112|294:98,1,50,2|2,1:2|2:0,2:0:0:0:
320,63,55042,2,0,P|364:48|415:79,1,100,2|8,3:2|2:0,2:0:0:0:
456,160,55797,1,4,2:3:0:0:
384,229,56175,2,0,P|342:216|282:209,2,100,2|2|8,2:0|1:2|2:0,2:0:0:0:
446,307,57307,5,0,2:0:0:0:
370,372,57684,2,0,P|335:376|315:363,1,50,2|2,1:2|2:0,2:0:0:0:
297,326,58061,2,0,P|307:272|314:221,1,100,2|8,3:2|2:0,2:0:0:0:
374,147,58816,5,4,2:3:0:0:
300,79,59193,2,0,P|272:73|250:81,1,50,2|2,2:0|1:2,2:0:0:0:
226,123,59571,2,0,P|187:158|136:150,1,100,2|8,2:0|2:0,2:0:0:0:
65,91,60325,1,0,2:0:0:0:
118,11,60703,1,2,2:0:0:0:
82,114,72778,6,0,P|74:63|63:21,2,89.9999972534181,2|2|10,3:2|3:2|2:0,3:0:0:0:
166,158,73910,1,0,3:2:0:0:
166,158,74099,2,0,P|210:128|248:135,1,89.9999972534181,2|0,3:2|3:0,3:0:0:0:
266,175,74665,2,0,P|260:199|256:230,1,44.999998626709,2|0,3:2|0:0,0:0:0:0:
238,260,75042,1,8,0:0:0:0:
341,359,75609,5,2,0:0:0:0:
341,359,75797,2,0,P|392:363|423:328,1,89.9999972534181,2|2,3:2|3:2,3:0:0:0:
459,259,76552,2,0,P|447:211|437:168,1,89.9999972534181,10|0,2:0|3:2,3:0:0:0:
451,128,77118,1,2,3:2:0:0:
390,61,77495,1,2,3:2:0:0:
319,117,77873,2,0,P|292:120|270:108,1,44.999998626709,2|8,3:2|2:0,3:0:0:0:
240,85,78250,1,0,3:0:0:0:
184,14,78627,6,0,P|140:11|108:41,1,89.9999972534181,2|0,3:2|3:0,3:0:0:0:
97,84,79193,2,0,P|120:201|146:350,1,269.999991760254,2|0,3:2|0:0,0:0:0:0:
373,256,81080,5,10,2:0:0:0:
373,256,81269,2,0,P|350:263|324:269,1,44.999998626709,2|2,3:2|3:2,3:0:0:0:
299,300,81646,2,0,B|154:305|230:231|78:241,1,224.999993133545,2|8,3:2|2:0,3:0:0:0:
502,165,84854,6,0,P|444:114|353:145,1,165.000005035401,4|0,2:1|3:2,3:0:0:0:
343,185,85609,1,8,2:0:0:0:
343,185,85797,2,0,P|287:202|241:175,1,110.000003356934,0|8,3:0|2:0,3:0:0:0:
215,131,86363,2,0,P|209:99|200:74,1,55.0000016784668,2|8,3:2|2:0,3:0:0:0:
167,34,86740,1,2,3:2:0:0:
61,1,87118,2,0,P|23:26|18:89,1,110.000003356934,10|0,2:0|3:2,3:0:0:0:
46,138,87684,1,2,3:2:0:0:
46,138,87873,6,0,P|66:187|80:241,1,110.000003356934,0|0,1:2|3:0,3:0:0:0:
93,355,88627,1,8,2:0:0:0:
93,355,88816,2,0,P|143:313|187:323,1,110.000003356934,0|8,3:0|2:0,3:0:0:0:
225,355,89382,1,0,3:2:0:0:
316,293,89759,2,0,P|347:284|374:279,2,55.0000016784668,2|2|10,3:2|3:2|2:0,3:0:0:0:
283,255,90325,1,0,1:0:0:0:
283,255,90514,2,0,P|278:227|294:196,1,55.0000016784668,2|2,3:2|3:2,3:0:0:0:
332,170,90892,6,0,P|337:142|321:111,1,55.0000016784668,2|0,1:2|1:0,3:0:0:0:
286,81,91269,2,0,P|234:76|168:66,2,110.000003356934,2|8|0,3:2|2:0|1:0,3:0:0:0:
321,38,92212,1,8,2:0:0:0:
449,113,92778,2,0,P|466:88|468:58,2,55.0000016784668,2|2|10,3:2|3:2|2:0,3:0:0:0:
407,134,93344,1,0,3:2:0:0:
407,134,93533,2,0,P|379:128|347:122,1,55.0000016784668,2|2,3:2|3:2,3:0:0:0:
310,158,93910,6,0,P|282:161|255:166,1,55.0000016784668,2|0,1:2|3:0,3:0:0:0:
219,208,94287,2,0,P|230:259|241:323,1,110.000003356934,2|8,3:2|2:0,3:0:0:0:
280,354,94854,1,0,3:2:0:0:
402,243,95420,2,0,P|393:274|386:302,1,55.0000016784668,2|8,3:2|2:0,3:0:0:0:
412,346,95797,2,0,P|473:373|512:361,2,110.000003356934,2|10|2,3:2|2:0|3:2,3:0:0:0:
366,313,96741,1,2,3:2:0:0:
366,313,96929,6,0,B|285:327|309:362|212:375,1,165.000005035401,0|0,1:0|3:2,3:0:0:0:
176,342,97684,1,8,2:0:0:0:
176,342,97872,2,0,P|144:298|154:246,1,110.000003356934,0|8,3:0|2:0,3:0:0:0:
193,208,98438,2,0,P|206:184|202:150,1,55.0000016784668,2|8,3:2|2:0,3:0:0:0:
175,110,98815,1,2,3:2:0:0:
245,25,99193,2,0,P|299:11|350:52,1,110.000003356934,10|0,2:0|3:2,3:0:0:0:
366,93,99759,1,2,3:2:0:0:
366,93,99948,6,0,P|420:107|471:65,1,110.000003356934,0|0,1:2|3:0,3:0:0:0:
502,188,100702,1,8,2:0:0:0:
502,188,100891,2,0,P|484:240|471:304,1,110.000003356934,0|8,3:0|2:0,3:0:0:0:
436,335,101457,1,0,3:2:0:0:
340,280,101834,2,0,P|346:250|373:232,2,55.0000016784668,2|2|10,3:2|3:2|2:0,3:0:0:0:
322,332,102400,1,0,1:0:0:0:
322,332,102589,2,0,P|288:333|251:339,1,55.0000016784668,2|2,3:2|3:2,3:0:0:0:
231,293,102967,6,0,P|197:292|160:286,1,55.0000016784668,2|0,1:2|1:0,3:0:0:0:
143,245,103344,2,0,P|91:240|46:282,2,110.000003356934,2|8|0,3:2|2:0|1:0,3:0:0:0:
183,282,104288,1,8,2:0:0:0:
305,212,104853,2,0,P|332:211|356:223,2,55.0000016784668,2|2|8,3:2|3:2|2:0,3:0:0:0:
267,179,105419,1,2,3:2:0:0:
267,179,105608,2,0,P|258:144|249:121,1,55.0000016784668,2|2,3:2|3:2,3:0:0:0:
260,71,105986,5,2,1:2:0:0:
157,30,106363,2,0,P|101:59|103:106,1,110.000003356934,2|8,3:2|2:0,3:0:0:0:
119,151,106929,2,0,P|106:201|94:264,1,110.000003356934,0|8,3:2|2:0,3:0:0:0:
111,310,107495,2,0,P|157:340|209:330,1,110.000003356934,0|0,3:2|3:2,3:0:0:0:
239,284,108061,1,0,3:2:0:0:
335,227,108439,1,0,1:0:0:0:
335,227,108627,2,0,P|389:238|446:247,1,110.000003356934,0|2,3:0|2:0,3:0:0:0:
512,0,111646,5,8,2:3:0:0:
468,78,112024,2,0,P|413:126|342:113,1,150,0|0,1:2|3:0,2:0:0:0:
310,74,112778,2,0,P|282:70|245:63,1,50,10|0,2:0|2:0,2:0:0:0:
221,34,113156,1,4,2:3:0:0:
153,107,113533,1,2,2:0:0:0:
153,107,113722,2,0,P|166:171|180:262,1,150,10|8,2:0|2:0,2:0:0:0:
265,304,114665,1,0,2:0:0:0:
185,364,115042,6,0,P|134:374|92:341,1,100,0|0,1:2|3:0,2:0:0:0:
39,266,115797,2,0,P|34:238|24:217,1,50,10|0,2:0|2:0,2:0:0:0:
3,174,116175,1,4,2:3:0:0:
85,117,116552,2,0,P|132:106|174:132,1,100,2|8,2:0|2:3,2:0:0:0:
224,218,117307,2,0,P|271:228|313:202,1,100,10|0,2:0|2:0,2:0:0:0:
382,130,118061,6,0,P|370:81|359:32,1,100,0|0,1:2|3:0,2:0:0:0:
324,5,118627,1,2,3:2:0:0:
324,5,118816,1,10,2:0:0:0:
257,75,119193,2,0,P|207:93|163:61,1,100,4|2,2:3|2:0,2:0:0:0:
135,33,119759,2,0,P|80:25|36:100,1,150,10|8,1:2|2:0,2:0:0:0:
70,190,120703,1,0,2:0:0:0:
10,270,121080,5,2,3:2:0:0:
83,338,121458,2,0,P|138:357|176:332,1,100,2|8,2:3|2:0,3:0:0:0:
229,256,122212,2,0,P|258:258|286:263,2,50,2|8|0,3:2|2:0|3:0,3:0:0:0:
194,227,122778,1,8,2:0:0:0:
194,227,122967,2,0,P|181:174|171:122,1,100,2|8,3:2|2:0,3:0:0:0:
105,54,123721,6,0,P|152:23|211:35,1,100,10|2,0:0|3:2,0:0:0:0:
230,68,124287,1,0,3:0:0:0:
230,68,124476,2,0,P|281:91|337:70,1,100,2|10,2:3|0:0,0:0:0:0:
388,6,125231,1,0,3:0:0:0:
438,92,125608,2,0,P|431:117|424:157,1,50,2|8,3:2|2:0,3:0:0:0:
422,190,125986,2,0,P|475:199|512:171,2,100,2|10|0,3:2|2:0|3:0,3:0:0:0:
352,262,127118,6,0,P|337:279|333:314,1,50,2|0,3:2|3:0,3:0:0:0:
336,355,127495,2,0,P|298:377|237:358,1,100,2|8,2:3|2:0,3:0:0:0:
189,281,128250,1,0,3:0:0:0:
109,342,128627,2,0,P|105:317|100:292,1,50,2|8,3:2|2:0,3:0:0:0:
77,248,129005,1,2,3:2:0:0:
0,183,129382,2,0,P|12:134|28:87,1,100,8|0,2:0|3:0,3:0:0:0:
108,27,130137,6,0,P|135:31|153:49,1,50,2|0,3:2|3:0,3:0:0:0:
171,91,130514,2,0,P|215:105|261:74,1,100,2|8,2:3|2:0,3:0:0:0:
321,1,131269,1,0,3:0:0:0:
393,69,131646,2,0,P|386:94|382:118,1,50,2|8,3:2|2:0,3:0:0:0:
362,163,132023,2,0,P|374:208|385:268,1,100,2|8,3:2|2:0,3:0:0:0:
440,343,132778,1,2,3:2:0:0:
507,268,133156,5,2,2:0:0:0:
123,16,145231,5,2,3:2:0:0:
59,80,145609,1,2,3:2:0:0:
103,158,145986,2,0,P|117:213|87:251,1,89.9999972534181,10|0,2:0|3:0,3:0:0:0:
69,271,146552,2,0,P|111:278|168:295,1,89.9999972534181,2|0,3:2|3:0,3:0:0:0:
188,323,147118,1,2,3:2:0:0:
258,266,147495,1,8,2:0:0:0:
364,358,148061,5,0,3:2:0:0:
364,358,148250,2,0,P|392:366|445:326,1,89.9999972534181,2|2,3:2|3:2,3:0:0:0:
490,260,149005,2,0,P|471:208|464:163,1,89.9999972534181,10|2,2:0|3:2,3:0:0:0:
437,138,149571,1,2,3:2:0:0:
376,71,149949,1,2,3:2:0:0:
302,122,150326,2,0,P|251:125|216:97,1,89.9999972534181,2|0,3:2|3:0,3:0:0:0:
159,37,151080,6,0,P|108:34|73:62,1,89.9999972534181,2|0,3:2|3:0,3:0:0:0:
68,99,151646,1,2,3:2:0:0:
440,281,153533,6,0,P|457:270|485:266,2,44.999998626709,10|2|2,2:0|3:2|3:2,3:0:0:0:
414,317,154099,2,0,P|368:308|314:303,1,89.9999972534181,2|0,3:2|3:0,3:0:0:0:
299,266,154665,1,0,3:0:0:0:
214,160,155231,1,0,3:0:0:0:
256,192,155797,12,2,157307,2:0:0:0:
