osu file format v14

[General]
AudioFilename: audio.mp3
AudioLeadIn: 0
PreviewTime: -1
Countdown: 0
SampleSet: None
StackLeniency: 0.7
Mode: 3
LetterboxInBreaks: 0
SpecialStyle: 0
WidescreenStoryboard: 0

[Editor]
Bookmarks: 155530,216970
DistanceSpacing: 3.3
BeatDivisor: 8
GridSize: 4
TimelineZoom: 1

[Metadata]
Title:Trampoline
TitleUnicode:Trampoline
Artist:Kero Kero Bonito
ArtistUnicode:Kero Kero Bonito
Creator:Tornspirit
Version:Bounce
Source:
Tags:KKB KERO KERO BONITO
BeatmapID:1769492
BeatmapSetID:846060

[Difficulty]
HPDrainRate:8
CircleSize:5
OverallDifficulty:8
ApproachRate:5
SliderMultiplier:1.4
SliderTickRate:1

[Events]
//Background and Video events
0,0,"trampoline.png",0,0
//Break Periods
//Storyboard Layer 0 (Background)
//Storyboard Layer 1 (Fail)
//Storyboard Layer 2 (Pass)
//Storyboard Layer 3 (Foreground)
//Storyboard Sound Samples

[TimingPoints]
1930,480,4,2,0,10,1,0
1930,-250,4,2,0,10,0,0
19210,-200,4,2,0,10,0,0
34570,-166.666666666667,4,2,0,10,0,0
35050,-153.846153846154,4,2,0,10,0,0
35530,-142.857142857143,4,2,0,10,0,0
36010,-133.333333333333,4,2,0,10,0,0
36490,-125,4,2,0,10,0,0
36730,-117.647058823529,4,2,0,10,0,0
36970,-111.111111111111,4,2,0,10,0,0
37210,-105.263157894737,4,2,0,10,0,0
37450,-100,4,2,0,10,0,0
37690,-95.2380952380952,4,2,0,10,0,0
37930,-90.9090909090909,4,2,0,10,0,0
38170,-86.9565217391304,4,2,0,10,0,0
38410,-83.3333333333333,4,2,0,10,0,0
38650,-80,4,2,0,10,0,0
38890,-76.9230769230769,4,2,0,10,0,0
39130,-74.0740740740741,4,2,0,10,0,0
39370,-71.4285714285714,4,2,0,10,0,0
39610,-68.9655172413793,4,2,0,10,0,0
39850,-66.6666666666667,4,2,0,10,0,0
39970,-62.5,4,2,0,10,0,0
40090,-58.8235294117647,4,2,0,10,0,0
40210,-55.5555555555556,4,2,0,10,0,0
40330,-10000,4,2,0,10,0,0
42220,-20,4,2,0,10,0,0
42250,-10000,4,2,0,10,0,1
42460,-12.5,4,2,0,10,0,1
42490,-10000,4,2,0,10,0,1
42700,-12.5,4,2,0,10,0,1
42730,-10000,4,2,0,10,0,1
42940,-12.5,4,2,0,10,0,1
42970,-10000,4,2,0,10,0,1
43180,-12.5,4,2,0,10,0,1
43210,-100,4,2,0,10,0,1
71050,-50,4,2,0,10,0,0
71110,-10000,4,2,0,10,0,0
71530,-40,4,2,0,10,0,0
71560,-10000,4,2,0,10,0,0
72010,-33.3333333333333,4,2,0,10,0,0
72040,-10000,4,2,0,10,0,0
72490,-28.5714285714286,4,2,0,10,0,0
72520,-10000,4,2,0,10,0,0
72970,-25,4,2,0,10,0,0
73000,-10000,4,2,0,10,0,0
73450,-22.2222222222222,4,2,0,10,0,0
73480,-10000,4,2,0,10,0,0
73930,-20,4,2,0,10,0,0
73960,-10000,4,2,0,10,0,0
74410,-18.1818181818182,4,2,0,10,0,0
74440,-10000,4,2,0,10,0,0
74890,-16.6666666666667,4,2,0,10,0,0
74920,-10000,4,2,0,10,0,0
75370,-15.3846153846154,4,2,0,10,0,0
75400,-10000,4,2,0,10,0,0
75850,-14.2857142857143,4,2,0,10,0,0
75880,-10000,4,2,0,10,0,0
76330,-13.3333333333333,4,2,0,10,0,0
76360,-10000,4,2,0,10,0,0
76810,-12.5,4,2,0,10,0,0
76840,-10000,4,2,0,10,0,0
77290,-11.7647058823529,4,2,0,10,0,0
77320,-10000,4,2,0,10,0,0
77770,-11.1111111111111,4,2,0,10,0,0
77800,-10000,4,2,0,10,0,0
78250,-10,4,2,0,10,0,0
78330,-333.333333333333,4,2,0,10,0,0
78700,-10,4,2,0,10,0,0
78790,-133.333333333333,4,2,0,10,0,0
109450,-100,4,2,0,10,0,1
140170,-100,4,2,0,10,0,0
155530,-400,4,2,0,10,0,0
170890,-200,4,2,0,10,0,0
178570,-166.666666666667,4,2,0,10,0,0
179530,-142.857142857143,4,2,0,10,0,0
180490,-125,4,2,0,10,0,0
181450,-111.111111111111,4,2,0,10,0,0
182410,-100,4,2,0,10,0,0
183370,-90.9090909090909,4,2,0,10,0,0
184330,-83.3333333333333,4,2,0,10,0,0
185290,-76.9230769230769,4,2,0,10,0,0
185770,-10,4,2,0,10,0,0
185800,-400,4,2,0,10,0,0
186220,-16.6666666666667,4,2,0,10,0,0
186250,-100,4,2,0,10,0,1
199570,-10,4,2,0,10,0,0
199600,-10000,4,2,0,10,0,0
199930,-10,4,2,0,10,0,0
199960,-333.333333333333,4,2,0,10,0,0
200410,-100,4,2,0,10,0,0
201250,-10,4,2,0,10,0,0
201280,-200,4,2,0,10,0,0
201610,-100,4,2,0,10,0,1
228490,-200,4,2,0,10,0,1
228610,-66.6666666666667,4,2,0,10,0,1
228730,-200,4,2,0,10,0,1
228850,-66.6666666666667,4,2,0,10,0,1
228970,-200,4,2,0,10,0,1
229090,-66.6666666666667,4,2,0,10,0,1
229210,-200,4,2,0,10,0,1
229330,-66.6666666666667,4,2,0,10,0,1
229450,-333.333333333333,4,2,0,10,0,1
229530,-58.8235294117647,4,2,0,10,0,1
229610,-333.333333333333,4,2,0,10,0,1
229690,-58.8235294117647,4,2,0,10,0,1
229770,-333.333333333333,4,2,0,10,0,1
229850,-58.8235294117647,4,2,0,10,0,1
229930,-333.333333333333,4,2,0,10,0,1
230010,-58.8235294117647,4,2,0,10,0,1
230090,-333.333333333333,4,2,0,10,0,1
230170,-58.8235294117647,4,2,0,10,0,1
230250,-333.333333333333,4,2,0,10,0,1
230330,-50,4,2,0,10,0,1
230530,-52.6315789473684,4,2,0,10,0,1
230650,-55.5555555555556,4,2,0,10,0,1
230770,-58.8235294117647,4,2,0,10,0,1
230890,-62.5,4,2,0,10,0,1
231010,-66.6666666666667,4,2,0,10,0,1
231130,-71.4285714285714,4,2,0,10,0,1
231250,-76.9230769230769,4,2,0,10,0,1
231370,-83.3333333333333,4,2,0,10,0,1
231490,-90.9090909090909,4,2,0,10,0,1
231610,-100,4,2,0,10,0,1
231730,-111.111111111111,4,2,0,10,0,1
231850,-125,4,2,0,10,0,1
231970,-142.857142857143,4,2,0,10,0,1
232090,-142.857142857143,4,2,0,10,0,1
232210,-200,4,2,0,10,0,1
232330,-250,4,2,0,10,0,0

[HitObjects]
460,192,3850,5,0,0:0:0:0:
51,192,3850,1,0,0:0:0:0:
460,192,4330,1,0,0:0:0:0:
358,192,4330,1,0,0:0:0:0:
153,192,4330,1,0,0:0:0:0:
256,192,4570,1,0,0:0:0:0:
256,192,4810,1,0,0:0:0:0:
153,192,5050,1,0,0:0:0:0:
51,192,5290,1,0,0:0:0:0:
358,192,5290,1,0,0:0:0:0:
153,192,5290,1,0,0:0:0:0:
256,192,5530,1,0,0:0:0:0:
51,192,5770,1,0,0:0:0:0:
460,192,5770,1,0,0:0:0:0:
256,192,5770,128,0,6250:0:0:0:0:
358,192,6250,1,0,0:0:0:0:
460,192,6250,1,0,0:0:0:0:
153,192,6250,128,0,6490:0:0:0:0:
51,192,6250,1,0,0:0:0:0:
51,192,6490,1,0,0:0:0:0:
256,192,6490,1,0,0:0:0:0:
51,192,6970,1,0,0:0:0:0:
256,192,7210,1,0,0:0:0:0:
358,192,7210,1,0,0:0:0:0:
51,192,7210,1,0,0:0:0:0:
153,192,7450,1,0,0:0:0:0:
460,192,7690,1,0,0:0:0:0:
153,192,7690,128,0,8170:0:0:0:0:
256,192,7690,1,0,0:0:0:0:
358,192,8170,1,0,0:0:0:0:
460,192,8170,1,0,0:0:0:0:
51,192,8170,128,0,8410:0:0:0:0:
256,192,8170,1,0,0:0:0:0:
153,192,9130,1,0,0:0:0:0:
358,192,9130,1,0,0:0:0:0:
460,192,9610,1,0,0:0:0:0:
358,192,9610,128,0,9850:0:0:0:0:
153,192,9610,1,0,0:0:0:0:
51,192,9850,128,0,10090:0:0:0:0:
358,192,10090,1,0,0:0:0:0:
460,192,10090,1,0,0:0:0:0:
256,192,10090,1,0,0:0:0:0:
51,192,10330,1,0,0:0:0:0:
153,192,10330,128,0,11050:0:0:0:0:
256,192,11050,1,0,0:0:0:0:
460,192,11050,1,0,0:0:0:0:
358,192,11050,1,0,0:0:0:0:
358,192,11530,1,0,0:0:0:0:
51,192,11530,1,0,0:0:0:0:
358,192,12010,1,0,0:0:0:0:
460,192,12010,1,0,0:0:0:0:
153,192,12010,1,0,0:0:0:0:
256,192,12250,1,0,0:0:0:0:
256,192,12490,1,0,0:0:0:0:
153,192,12730,1,0,0:0:0:0:
358,192,12970,1,0,0:0:0:0:
51,192,12970,1,0,0:0:0:0:
153,192,12970,1,0,0:0:0:0:
256,192,13210,1,0,0:0:0:0:
256,192,13450,128,0,13930:0:0:0:0:
51,192,13450,1,0,0:0:0:0:
358,192,13450,1,0,0:0:0:0:
460,192,13930,1,0,0:0:0:0:
358,192,13930,1,0,0:0:0:0:
153,192,13930,128,0,14170:0:0:0:0:
51,192,13930,1,0,0:0:0:0:
256,192,14170,1,0,0:0:0:0:
51,192,14170,1,0,0:0:0:0:
51,192,14650,1,0,0:0:0:0:
358,192,14890,1,0,0:0:0:0:
256,192,14890,1,0,0:0:0:0:
51,192,14890,1,0,0:0:0:0:
153,192,15130,1,0,0:0:0:0:
153,192,15370,128,0,15850:0:0:0:0:
460,192,15370,1,0,0:0:0:0:
358,192,15370,1,0,0:0:0:0:
256,192,15850,1,0,0:0:0:0:
460,192,15850,1,0,0:0:0:0:
51,192,15850,128,0,16090:0:0:0:0:
358,192,15850,1,0,0:0:0:0:
51,192,16810,1,0,0:0:0:0:
256,192,16810,1,0,0:0:0:0:
153,192,16810,1,0,0:0:0:0:
153,192,17290,128,0,17530:0:0:0:0:
460,192,17290,1,0,0:0:0:0:
51,192,17290,1,0,0:0:0:0:
256,192,17530,128,0,17770:0:0:0:0:
358,192,17770,1,0,0:0:0:0:
460,192,17770,1,0,0:0:0:0:
153,192,17770,128,0,18010:0:0:0:0:
51,192,17770,1,0,0:0:0:0:
51,192,18010,128,0,18490:0:0:0:0:
358,192,18010,1,0,0:0:0:0:
460,192,18010,1,0,0:0:0:0:
153,192,18730,1,0,0:0:0:0:
256,192,18730,1,0,0:0:0:0:
460,192,18730,1,0,0:0:0:0:
358,192,19210,1,0,0:0:0:0:
51,192,19210,1,0,0:0:0:0:
460,192,19690,1,0,0:0:0:0:
358,192,19690,1,0,0:0:0:0:
256,192,19690,1,0,0:0:0:0:
153,192,19690,128,0,20170:0:0:0:0:
51,192,20170,128,0,20530:0:0:0:0:
358,192,20650,1,0,0:0:0:0:
460,192,20650,1,0,0:0:0:0:
256,192,20650,1,0,0:0:0:0:
153,192,20890,128,0,21130:0:0:0:0:
256,192,21130,1,0,0:0:0:0:
51,192,21130,1,0,0:0:0:0:
358,192,21130,1,0,0:0:0:0:
358,192,21370,1,0,0:0:0:0:
460,192,21610,1,0,0:0:0:0:
51,192,21610,1,0,0:0:0:0:
153,192,21610,1,0,0:0:0:0:
256,192,21850,1,0,0:0:0:0:
51,192,21850,1,0,0:0:0:0:
358,192,21850,128,0,22330:0:0:0:0:
256,192,22330,128,0,22570:0:0:0:0:
358,192,22570,1,0,0:0:0:0:
460,192,22570,1,0,0:0:0:0:
153,192,22570,1,0,0:0:0:0:
256,192,22810,128,0,23050:0:0:0:0:
51,192,23050,1,0,0:0:0:0:
153,192,23050,1,0,0:0:0:0:
358,192,23050,128,0,23290:0:0:0:0:
460,192,23290,128,0,23530:0:0:0:0:
51,192,23530,1,0,0:0:0:0:
256,192,23530,1,0,0:0:0:0:
153,192,23530,1,0,0:0:0:0:
358,192,23530,128,0,23770:0:0:0:0:
256,192,23770,128,0,24010:0:0:0:0:
153,192,24250,128,0,24490:0:0:0:0:
460,192,24490,1,0,0:0:0:0:
358,192,24490,1,0,0:0:0:0:
51,192,24490,1,0,0:0:0:0:
153,192,24730,128,0,24970:0:0:0:0:
51,192,24970,1,0,0:0:0:0:
358,192,24970,1,0,0:0:0:0:
256,192,24970,128,0,25210:0:0:0:0:
153,192,25450,1,0,0:0:0:0:
51,192,25450,1,0,0:0:0:0:
256,192,25450,1,0,0:0:0:0:
358,192,25450,128,0,25690:0:0:0:0:
256,192,25690,1,0,0:0:0:0:
153,192,25690,1,0,0:0:0:0:
460,192,25690,1,0,0:0:0:0:
460,192,25930,128,0,26170:0:0:0:0:
460,192,26410,1,0,0:0:0:0:
358,192,26410,1,0,0:0:0:0:
153,192,26410,1,0,0:0:0:0:
153,192,26890,1,0,0:0:0:0:
460,192,26890,1,0,0:0:0:0:
51,192,27370,1,0,0:0:0:0:
153,192,27370,1,0,0:0:0:0:
256,192,27370,1,0,0:0:0:0:
358,192,27370,128,0,27850:0:0:0:0:
460,192,27850,128,0,28210:0:0:0:0:
153,192,28330,1,0,0:0:0:0:
51,192,28330,1,0,0:0:0:0:
256,192,28330,1,0,0:0:0:0:
358,192,28570,128,0,28810:0:0:0:0:
256,192,28810,1,0,0:0:0:0:
460,192,28810,1,0,0:0:0:0:
153,192,28810,1,0,0:0:0:0:
153,192,29050,1,0,0:0:0:0:
51,192,29290,1,0,0:0:0:0:
460,192,29290,1,0,0:0:0:0:
358,192,29290,1,0,0:0:0:0:
256,192,29530,1,0,0:0:0:0:
460,192,29530,1,0,0:0:0:0:
153,192,29530,128,0,30010:0:0:0:0:
256,192,30010,128,0,30250:0:0:0:0:
153,192,30250,1,0,0:0:0:0:
51,192,30250,1,0,0:0:0:0:
358,192,30250,1,0,0:0:0:0:
256,192,30490,128,0,30730:0:0:0:0:
460,192,30730,1,0,0:0:0:0:
358,192,30730,1,0,0:0:0:0:
153,192,30730,128,0,30970:0:0:0:0:
51,192,30970,128,0,31210:0:0:0:0:
460,192,31210,1,0,0:0:0:0:
256,192,31210,1,0,0:0:0:0:
358,192,31210,1,0,0:0:0:0:
153,192,31210,128,0,31450:0:0:0:0:
256,192,31450,128,0,31690:0:0:0:0:
358,192,31930,128,0,32170:0:0:0:0:
51,192,32170,1,0,0:0:0:0:
153,192,32170,1,0,0:0:0:0:
460,192,32170,1,0,0:0:0:0:
358,192,32410,128,0,32650:0:0:0:0:
460,192,32650,1,0,0:0:0:0:
153,192,32650,1,0,0:0:0:0:
256,192,32650,128,0,32890:0:0:0:0:
153,192,32890,128,0,33130:0:0:0:0:
358,192,33130,1,0,0:0:0:0:
460,192,33130,1,0,0:0:0:0:
256,192,33130,1,0,0:0:0:0:
51,192,33130,128,0,33370:0:0:0:0:
358,192,33370,1,0,0:0:0:0:
153,192,33370,128,0,40330:0:0:0:0:
460,192,33370,1,0,0:0:0:0:
51,192,34090,1,0,0:0:0:0:
256,192,34090,1,0,0:0:0:0:
358,192,34090,1,0,0:0:0:0:
358,192,35050,1,0,0:0:0:0:
460,192,35050,1,0,0:0:0:0:
51,192,35050,1,0,0:0:0:0:
460,192,36010,1,0,0:0:0:0:
358,192,36010,1,0,0:0:0:0:
256,192,36010,1,0,0:0:0:0:
460,192,36970,1,0,0:0:0:0:
256,192,36970,1,0,0:0:0:0:
51,192,36970,1,0,0:0:0:0:
358,192,37930,1,0,0:0:0:0:
51,192,37930,1,0,0:0:0:0:
256,192,37930,1,0,0:0:0:0:
460,192,38890,1,0,0:0:0:0:
358,192,38890,1,0,0:0:0:0:
51,192,38890,1,0,0:0:0:0:
51,192,39850,1,0,0:0:0:0:
358,192,39850,128,0,40330:0:0:0:0:
256,192,39850,1,0,0:0:0:0:
460,192,39850,1,0,0:0:0:0:
256,192,40330,1,0,0:0:0:0:
460,192,42250,1,0,0:0:0:0:
358,192,42250,1,0,0:0:0:0:
153,192,42250,1,0,0:0:0:0:
51,192,42490,1,0,0:0:0:0:
256,192,42490,1,0,0:0:0:0:
358,192,42490,1,0,0:0:0:0:
153,192,42730,1,0,0:0:0:0:
256,192,42730,1,0,0:0:0:0:
460,192,42730,1,0,0:0:0:0:
51,192,42970,1,0,0:0:0:0:
153,192,42970,1,0,0:0:0:0:
358,192,42970,1,0,0:0:0:0:
51,192,43210,1,0,0:0:0:0:
460,192,43210,1,0,0:0:0:0:
358,192,43210,1,0,0:0:0:0:
256,192,43570,1,0,0:0:0:0:
153,192,43570,1,0,0:0:0:0:
460,192,43570,1,0,0:0:0:0:
51,192,43690,1,0,0:0:0:0:
358,192,43690,1,0,0:0:0:0:
460,192,43690,1,0,0:0:0:0:
51,192,43930,1,0,0:0:0:0:
153,192,43930,1,0,0:0:0:0:
358,192,43930,1,0,0:0:0:0:
51,192,44170,1,0,0:0:0:0:
256,192,44170,1,0,0:0:0:0:
358,192,44170,1,0,0:0:0:0:
153,192,44650,1,0,0:0:0:0:
256,192,44650,1,0,0:0:0:0:
460,192,44650,1,0,0:0:0:0:
460,192,45130,1,0,0:0:0:0:
153,192,45130,1,0,0:0:0:0:
51,192,45130,1,0,0:0:0:0:
153,192,45490,1,0,0:0:0:0:
256,192,45490,1,0,0:0:0:0:
460,192,45490,1,0,0:0:0:0:
51,192,45610,1,0,0:0:0:0:
153,192,45610,1,0,0:0:0:0:
358,192,45610,1,0,0:0:0:0:
460,192,45970,1,0,0:0:0:0:
358,192,45970,1,0,0:0:0:0:
153,192,45970,1,0,0:0:0:0:
51,192,46210,1,0,0:0:0:0:
256,192,46210,1,0,0:0:0:0:
358,192,46210,1,0,0:0:0:0:
153,192,46330,1,0,0:0:0:0:
358,192,46330,1,0,0:0:0:0:
460,192,46330,1,0,0:0:0:0:
256,192,46570,1,0,0:0:0:0:
51,192,46570,1,0,0:0:0:0:
460,192,46570,1,0,0:0:0:0:
153,192,46810,1,0,0:0:0:0:
358,192,46810,1,0,0:0:0:0:
256,192,46810,1,0,0:0:0:0:
51,192,47050,1,0,0:0:0:0:
460,192,47050,1,0,0:0:0:0:
358,192,47050,1,0,0:0:0:0:
256,192,47170,1,0,0:0:0:0:
460,192,47290,1,0,0:0:0:0:
358,192,47410,1,0,0:0:0:0:
256,192,47410,1,0,0:0:0:0:
51,192,47410,1,0,0:0:0:0:
153,192,47530,1,0,0:0:0:0:
256,192,47650,1,0,0:0:0:0:
460,192,47650,1,0,0:0:0:0:
51,192,47650,1,0,0:0:0:0:
358,192,47770,1,0,0:0:0:0:
460,192,47890,1,0,0:0:0:0:
358,192,48010,1,0,0:0:0:0:
51,192,48010,1,0,0:0:0:0:
153,192,48010,1,0,0:0:0:0:
51,192,48490,1,0,0:0:0:0:
256,192,48490,1,0,0:0:0:0:
358,192,48490,1,0,0:0:0:0:
153,192,48970,1,0,0:0:0:0:
358,192,48970,1,0,0:0:0:0:
460,192,48970,1,0,0:0:0:0:
460,192,49330,1,0,0:0:0:0:
256,192,49330,1,0,0:0:0:0:
153,192,49330,1,0,0:0:0:0:
51,192,49450,1,0,0:0:0:0:
256,192,49450,1,0,0:0:0:0:
358,192,49450,1,0,0:0:0:0:
51,192,49810,1,0,0:0:0:0:
256,192,49810,1,0,0:0:0:0:
460,192,49810,1,0,0:0:0:0:
358,192,50050,1,0,0:0:0:0:
153,192,50050,1,0,0:0:0:0:
51,192,50050,1,0,0:0:0:0:
153,192,50170,1,0,0:0:0:0:
358,192,50170,1,0,0:0:0:0:
460,192,50170,1,0,0:0:0:0:
256,192,50410,1,0,0:0:0:0:
51,192,50410,1,0,0:0:0:0:
358,192,50410,1,0,0:0:0:0:
153,192,50650,1,0,0:0:0:0:
256,192,50650,1,0,0:0:0:0:
460,192,50650,1,0,0:0:0:0:
358,192,50890,1,0,0:0:0:0:
153,192,50890,1,0,0:0:0:0:
51,192,50890,1,0,0:0:0:0:
153,192,51250,1,0,0:0:0:0:
256,192,51250,1,0,0:0:0:0:
460,192,51250,1,0,0:0:0:0:
51,192,51370,1,0,0:0:0:0:
153,192,51370,1,0,0:0:0:0:
358,192,51370,1,0,0:0:0:0:
460,192,51610,1,0,0:0:0:0:
256,192,51610,1,0,0:0:0:0:
51,192,51610,1,0,0:0:0:0:
460,192,51850,1,0,0:0:0:0:
358,192,51850,1,0,0:0:0:0:
256,192,51850,1,0,0:0:0:0:
256,192,52330,1,0,0:0:0:0:
153,192,52330,1,0,0:0:0:0:
51,192,52330,1,0,0:0:0:0:
153,192,52810,1,0,0:0:0:0:
358,192,52810,1,0,0:0:0:0:
460,192,52810,1,0,0:0:0:0:
358,192,53170,1,0,0:0:0:0:
153,192,53170,1,0,0:0:0:0:
51,192,53170,1,0,0:0:0:0:
153,192,53290,1,0,0:0:0:0:
256,192,53290,1,0,0:0:0:0:
460,192,53290,1,0,0:0:0:0:
51,192,53650,1,0,0:0:0:0:
256,192,53650,1,0,0:0:0:0:
358,192,53650,1,0,0:0:0:0:
153,192,53890,1,0,0:0:0:0:
358,192,53890,1,0,0:0:0:0:
460,192,53890,1,0,0:0:0:0:
358,192,54010,1,0,0:0:0:0:
51,192,54010,1,0,0:0:0:0:
153,192,54010,1,0,0:0:0:0:
51,192,54250,1,0,0:0:0:0:
256,192,54250,1,0,0:0:0:0:
153,192,54250,1,0,0:0:0:0:
153,192,54490,1,0,0:0:0:0:
256,192,54490,1,0,0:0:0:0:
358,192,54490,1,0,0:0:0:0:
256,192,54730,1,0,0:0:0:0:
358,192,54730,1,0,0:0:0:0:
460,192,54730,1,0,0:0:0:0:
153,192,55090,1,0,0:0:0:0:
460,192,55090,1,0,0:0:0:0:
256,192,55090,1,0,0:0:0:0:
358,192,55210,1,0,0:0:0:0:
256,192,55210,1,0,0:0:0:0:
51,192,55210,1,0,0:0:0:0:
51,192,55450,1,0,0:0:0:0:
358,192,55450,1,0,0:0:0:0:
153,192,55570,1,0,0:0:0:0:
460,192,55570,1,0,0:0:0:0:
51,192,55690,1,0,0:0:0:0:
256,192,55690,1,0,0:0:0:0:
358,192,55690,1,0,0:0:0:0:
153,192,56170,1,0,0:0:0:0:
256,192,56170,1,0,0:0:0:0:
460,192,56170,1,0,0:0:0:0:
460,192,56650,1,0,0:0:0:0:
153,192,56650,1,0,0:0:0:0:
51,192,56650,1,0,0:0:0:0:
153,192,57010,1,0,0:0:0:0:
256,192,57010,1,0,0:0:0:0:
460,192,57010,1,0,0:0:0:0:
51,192,57130,1,0,0:0:0:0:
153,192,57130,1,0,0:0:0:0:
358,192,57130,1,0,0:0:0:0:
460,192,57490,1,0,0:0:0:0:
358,192,57490,1,0,0:0:0:0:
153,192,57490,1,0,0:0:0:0:
51,192,57730,1,0,0:0:0:0:
256,192,57730,1,0,0:0:0:0:
358,192,57730,1,0,0:0:0:0:
153,192,57850,1,0,0:0:0:0:
358,192,57850,1,0,0:0:0:0:
460,192,57850,1,0,0:0:0:0:
256,192,58090,1,0,0:0:0:0:
51,192,58090,1,0,0:0:0:0:
460,192,58090,1,0,0:0:0:0:
153,192,58330,1,0,0:0:0:0:
358,192,58330,1,0,0:0:0:0:
256,192,58330,1,0,0:0:0:0:
51,192,58570,1,0,0:0:0:0:
460,192,58570,1,0,0:0:0:0:
358,192,58570,1,0,0:0:0:0:
358,192,58930,1,0,0:0:0:0:
460,192,58930,1,0,0:0:0:0:
153,192,58930,1,0,0:0:0:0:
51,192,59050,1,0,0:0:0:0:
256,192,59050,1,0,0:0:0:0:
358,192,59050,1,0,0:0:0:0:
460,192,59290,1,0,0:0:0:0:
256,192,59290,1,0,0:0:0:0:
153,192,59290,1,0,0:0:0:0:
358,192,59530,1,0,0:0:0:0:
51,192,59530,1,0,0:0:0:0:
153,192,59530,1,0,0:0:0:0:
51,192,60010,1,0,0:0:0:0:
256,192,60010,1,0,0:0:0:0:
358,192,60010,1,0,0:0:0:0:
153,192,60490,1,0,0:0:0:0:
358,192,60490,1,0,0:0:0:0:
460,192,60490,1,0,0:0:0:0:
460,192,60850,1,0,0:0:0:0:
256,192,60850,1,0,0:0:0:0:
153,192,60850,1,0,0:0:0:0:
51,192,60970,1,0,0:0:0:0:
358,192,60970,1,0,0:0:0:0:
256,192,60970,1,0,0:0:0:0:
51,192,61330,1,0,0:0:0:0:
256,192,61330,1,0,0:0:0:0:
460,192,61330,1,0,0:0:0:0:
358,192,61570,1,0,0:0:0:0:
153,192,61570,1,0,0:0:0:0:
51,192,61570,1,0,0:0:0:0:
153,192,61690,1,0,0:0:0:0:
358,192,61690,1,0,0:0:0:0:
460,192,61690,1,0,0:0:0:0:
256,192,61930,1,0,0:0:0:0:
51,192,61930,1,0,0:0:0:0:
358,192,61930,1,0,0:0:0:0:
153,192,62170,1,0,0:0:0:0:
256,192,62170,1,0,0:0:0:0:
460,192,62170,1,0,0:0:0:0:
358,192,62410,1,0,0:0:0:0:
153,192,62410,1,0,0:0:0:0:
51,192,62410,1,0,0:0:0:0:
256,192,62530,1,0,0:0:0:0:
358,192,62650,1,0,0:0:0:0:
256,192,62770,1,0,0:0:0:0:
460,192,62770,1,0,0:0:0:0:
51,192,62770,1,0,0:0:0:0:
153,192,62890,1,0,0:0:0:0:
256,192,63010,1,0,0:0:0:0:
460,192,63010,1,0,0:0:0:0:
358,192,63010,1,0,0:0:0:0:
153,192,63130,1,0,0:0:0:0:
51,192,63250,1,0,0:0:0:0:
358,192,63370,1,0,0:0:0:0:
256,192,63370,1,0,0:0:0:0:
153,192,63370,1,0,0:0:0:0:
460,192,63490,1,0,0:0:0:0:
256,192,63850,1,0,0:0:0:0:
153,192,63850,1,0,0:0:0:0:
51,192,63850,1,0,0:0:0:0:
153,192,64330,1,0,0:0:0:0:
358,192,64330,1,0,0:0:0:0:
460,192,64330,1,0,0:0:0:0:
358,192,64690,1,0,0:0:0:0:
153,192,64690,1,0,0:0:0:0:
51,192,64690,1,0,0:0:0:0:
51,192,64810,1,0,0:0:0:0:
358,192,64810,1,0,0:0:0:0:
460,192,64810,1,0,0:0:0:0:
51,192,65170,1,0,0:0:0:0:
256,192,65170,1,0,0:0:0:0:
358,192,65170,1,0,0:0:0:0:
153,192,65410,1,0,0:0:0:0:
358,192,65410,1,0,0:0:0:0:
460,192,65410,1,0,0:0:0:0:
358,192,65530,1,0,0:0:0:0:
51,192,65530,1,0,0:0:0:0:
153,192,65530,1,0,0:0:0:0:
51,192,65770,1,0,0:0:0:0:
256,192,65770,1,0,0:0:0:0:
153,192,65770,1,0,0:0:0:0:
153,192,66010,1,0,0:0:0:0:
256,192,66010,1,0,0:0:0:0:
358,192,66010,1,0,0:0:0:0:
256,192,66250,1,0,0:0:0:0:
358,192,66250,1,0,0:0:0:0:
460,192,66250,1,0,0:0:0:0:
460,192,66610,1,0,0:0:0:0:
153,192,66610,1,0,0:0:0:0:
51,192,66610,1,0,0:0:0:0:
153,192,66730,1,0,0:0:0:0:
256,192,66730,1,0,0:0:0:0:
358,192,66730,1,0,0:0:0:0:
460,192,66970,1,0,0:0:0:0:
358,192,66970,1,0,0:0:0:0:
153,192,66970,1,0,0:0:0:0:
256,192,67210,1,0,0:0:0:0:
153,192,67210,1,0,0:0:0:0:
51,192,67210,1,0,0:0:0:0:
51,192,67690,1,0,0:0:0:0:
256,192,67690,1,0,0:0:0:0:
358,192,67690,1,0,0:0:0:0:
153,192,68170,1,0,0:0:0:0:
460,192,68170,1,0,0:0:0:0:
358,192,68170,1,0,0:0:0:0:
51,192,68530,1,0,0:0:0:0:
153,192,68530,1,0,0:0:0:0:
358,192,68530,1,0,0:0:0:0:
256,192,68650,1,0,0:0:0:0:
460,192,68650,1,0,0:0:0:0:
51,192,68650,1,0,0:0:0:0:
460,192,69010,1,0,0:0:0:0:
256,192,69010,1,0,0:0:0:0:
153,192,69010,1,0,0:0:0:0:
51,192,69250,1,0,0:0:0:0:
153,192,69250,1,0,0:0:0:0:
358,192,69250,1,0,0:0:0:0:
460,192,69370,1,0,0:0:0:0:
51,192,69370,1,0,0:0:0:0:
358,192,69370,1,0,0:0:0:0:
153,192,69610,1,0,0:0:0:0:
256,192,69610,1,0,0:0:0:0:
358,192,69610,1,0,0:0:0:0:
51,192,69850,1,0,0:0:0:0:
153,192,69850,1,0,0:0:0:0:
358,192,69850,1,0,0:0:0:0:
153,192,70090,1,0,0:0:0:0:
256,192,70090,1,0,0:0:0:0:
460,192,70090,1,0,0:0:0:0:
460,192,70450,1,0,0:0:0:0:
358,192,70450,1,0,0:0:0:0:
51,192,70450,1,0,0:0:0:0:
153,192,70690,1,0,0:0:0:0:
256,192,70690,1,0,0:0:0:0:
358,192,70690,1,0,0:0:0:0:
51,192,71050,1,0,0:0:0:0:
153,192,71050,1,0,0:0:0:0:
358,192,71530,1,0,0:0:0:0:
460,192,71530,1,0,0:0:0:0:
256,192,72010,1,0,0:0:0:0:
153,192,72010,1,0,0:0:0:0:
153,192,72490,1,0,0:0:0:0:
460,192,72490,1,0,0:0:0:0:
358,192,72970,1,0,0:0:0:0:
51,192,72970,1,0,0:0:0:0:
153,192,73450,1,0,0:0:0:0:
358,192,73450,1,0,0:0:0:0:
51,192,73930,1,0,0:0:0:0:
256,192,73930,1,0,0:0:0:0:
153,192,74410,1,0,0:0:0:0:
460,192,74410,1,0,0:0:0:0:
256,192,74890,1,0,0:0:0:0:
460,192,74890,1,0,0:0:0:0:
358,192,75370,1,0,0:0:0:0:
153,192,75370,1,0,0:0:0:0:
51,192,75850,1,0,0:0:0:0:
153,192,75850,1,0,0:0:0:0:
358,192,76330,1,0,0:0:0:0:
460,192,76330,1,0,0:0:0:0:
256,192,76810,1,0,0:0:0:0:
460,192,76810,1,0,0:0:0:0:
358,192,77290,1,0,0:0:0:0:
256,192,77290,1,0,0:0:0:0:
153,192,77770,1,0,0:0:0:0:
358,192,77770,1,0,0:0:0:0:
460,192,78250,1,0,0:0:0:0:
51,192,78250,1,0,0:0:0:0:
153,192,78730,1,0,0:0:0:0:
358,192,78730,1,0,0:0:0:0:
256,192,78730,1,0,0:0:0:0:
51,192,79210,1,0,0:0:0:0:
460,192,79210,1,0,0:0:0:0:
256,192,79210,1,0,0:0:0:0:
153,192,79450,1,0,0:0:0:0:
153,192,79690,1,0,0:0:0:0:
51,192,79930,1,0,0:0:0:0:
460,192,79930,1,0,0:0:0:0:
153,192,80170,1,0,0:0:0:0:
358,192,80170,1,0,0:0:0:0:
51,192,80170,1,0,0:0:0:0:
153,192,80410,1,0,0:0:0:0:
51,192,80650,1,0,0:0:0:0:
460,192,80650,1,0,0:0:0:0:
256,192,80650,128,0,81130:0:0:0:0:
460,192,81130,1,0,0:0:0:0:
153,192,81130,1,0,0:0:0:0:
358,192,81130,128,0,81370:0:0:0:0:
51,192,81130,1,0,0:0:0:0:
153,192,81370,1,0,0:0:0:0:
256,192,81370,1,0,0:0:0:0:
256,192,81850,1,0,0:0:0:0:
358,192,82090,1,0,0:0:0:0:
460,192,82090,1,0,0:0:0:0:
256,192,82090,1,0,0:0:0:0:
153,192,82330,1,0,0:0:0:0:
51,192,82570,1,0,0:0:0:0:
358,192,82570,1,0,0:0:0:0:
153,192,82570,128,0,83050:0:0:0:0:
358,192,83050,1,0,0:0:0:0:
460,192,83050,1,0,0:0:0:0:
256,192,83050,128,0,83290:0:0:0:0:
51,192,83050,1,0,0:0:0:0:
460,192,83770,1,0,0:0:0:0:
256,192,83770,1,0,0:0:0:0:
358,192,84010,1,0,0:0:0:0:
51,192,84010,1,0,0:0:0:0:
153,192,84010,1,0,0:0:0:0:
51,192,84490,1,0,0:0:0:0:
460,192,84490,128,0,84730:0:0:0:0:
256,192,84490,1,0,0:0:0:0:
153,192,84730,128,0,84970:0:0:0:0:
358,192,84970,1,0,0:0:0:0:
256,192,84970,1,0,0:0:0:0:
51,192,84970,1,0,0:0:0:0:
153,192,85210,1,0,0:0:0:0:
358,192,85210,128,0,85690:0:0:0:0:
460,192,85210,1,0,0:0:0:0:
358,192,85930,1,0,0:0:0:0:
460,192,85930,1,0,0:0:0:0:
153,192,85930,1,0,0:0:0:0:
51,192,86410,1,0,0:0:0:0:
256,192,86410,1,0,0:0:0:0:
460,192,86890,1,0,0:0:0:0:
358,192,86890,128,0,87130:0:0:0:0:
153,192,86890,1,0,0:0:0:0:
51,192,86890,1,0,0:0:0:0:
256,192,87130,1,0,0:0:0:0:
256,192,87370,1,0,0:0:0:0:
51,192,87610,1,0,0:0:0:0:
153,192,87610,1,0,0:0:0:0:
358,192,87850,1,0,0:0:0:0:
460,192,87850,1,0,0:0:0:0:
153,192,87850,1,0,0:0:0:0:
256,192,88090,1,0,0:0:0:0:
51,192,88330,1,0,0:0:0:0:
153,192,88330,1,0,0:0:0:0:
256,192,88330,128,0,88810:0:0:0:0:
358,192,88810,1,0,0:0:0:0:
460,192,88810,1,0,0:0:0:0:
153,192,88810,128,0,89050:0:0:0:0:
51,192,88810,1,0,0:0:0:0:
256,192,89050,1,0,0:0:0:0:
358,192,89050,1,0,0:0:0:0:
51,192,89530,1,0,0:0:0:0:
358,192,89770,1,0,0:0:0:0:
460,192,89770,1,0,0:0:0:0:
153,192,89770,1,0,0:0:0:0:
460,192,90010,1,0,0:0:0:0:
51,192,90250,1,0,0:0:0:0:
256,192,90250,1,0,0:0:0:0:
358,192,90250,128,0,90730:0:0:0:0:
460,192,90730,1,0,0:0:0:0:
153,192,90730,128,0,90970:0:0:0:0:
51,192,90730,1,0,0:0:0:0:
256,192,90730,1,0,0:0:0:0:
51,192,91450,1,0,0:0:0:0:
153,192,91450,1,0,0:0:0:0:
358,192,91690,1,0,0:0:0:0:
460,192,91690,1,0,0:0:0:0:
256,192,91690,1,0,0:0:0:0:
153,192,92170,1,0,0:0:0:0:
256,192,92170,128,0,92410:0:0:0:0:
460,192,92170,1,0,0:0:0:0:
358,192,92410,128,0,92650:0:0:0:0:
460,192,92650,1,0,0:0:0:0:
256,192,92650,128,0,92890:0:0:0:0:
51,192,92650,1,0,0:0:0:0:
153,192,92650,1,0,0:0:0:0:
153,192,92890,128,0,93370:0:0:0:0:
358,192,92890,1,0,0:0:0:0:
51,192,92890,1,0,0:0:0:0:
460,192,93370,1,0,0:0:0:0:
256,192,93370,1,0,0:0:0:0:
51,192,93610,1,0,0:0:0:0:
460,192,93610,1,0,0:0:0:0:
153,192,93610,1,0,0:0:0:0:
256,192,93730,1,0,0:0:0:0:
358,192,93730,1,0,0:0:0:0:
51,192,94090,1,0,0:0:0:0:
358,192,94090,1,0,0:0:0:0:
460,192,94090,1,0,0:0:0:0:
51,192,94570,1,0,0:0:0:0:
358,192,94570,1,0,0:0:0:0:
460,192,94570,128,0,95050:0:0:0:0:
256,192,94570,1,0,0:0:0:0:
51,192,95050,128,0,95290:0:0:0:0:
358,192,95290,1,0,0:0:0:0:
460,192,95290,1,0,0:0:0:0:
153,192,95530,1,0,0:0:0:0:
358,192,95530,1,0,0:0:0:0:
51,192,95530,1,0,0:0:0:0:
256,192,95770,1,0,0:0:0:0:
51,192,96010,1,0,0:0:0:0:
460,192,96010,1,0,0:0:0:0:
358,192,96010,1,0,0:0:0:0:
358,192,96250,1,0,0:0:0:0:
460,192,96490,1,0,0:0:0:0:
51,192,96490,1,0,0:0:0:0:
153,192,96490,1,0,0:0:0:0:
153,192,96730,1,0,0:0:0:0:
256,192,96730,1,0,0:0:0:0:
358,192,96730,128,0,96970:0:0:0:0:
256,192,97210,1,0,0:0:0:0:
153,192,97210,128,0,97450:0:0:0:0:
358,192,97450,1,0,0:0:0:0:
460,192,97450,1,0,0:0:0:0:
51,192,97450,1,0,0:0:0:0:
358,192,97690,1,0,0:0:0:0:
153,192,97690,128,0,97930:0:0:0:0:
460,192,97930,1,0,0:0:0:0:
256,192,97930,128,0,98170:0:0:0:0:
51,192,97930,1,0,0:0:0:0:
358,192,98170,128,0,98410:0:0:0:0:
153,192,98410,1,0,0:0:0:0:
460,192,98410,1,0,0:0:0:0:
51,192,98410,1,0,0:0:0:0:
256,192,98410,128,0,98650:0:0:0:0:
153,192,98650,128,0,99130:0:0:0:0:
460,192,99130,1,0,0:0:0:0:
256,192,99130,1,0,0:0:0:0:
51,192,99130,128,0,99370:0:0:0:0:
358,192,99370,1,0,0:0:0:0:
460,192,99370,1,0,0:0:0:0:
153,192,99370,1,0,0:0:0:0:
51,192,99610,128,0,99850:0:0:0:0:
256,192,99850,1,0,0:0:0:0:
358,192,99850,1,0,0:0:0:0:
153,192,99850,128,0,100090:0:0:0:0:
358,192,100330,1,0,0:0:0:0:
153,192,100330,1,0,0:0:0:0:
51,192,100330,1,0,0:0:0:0:
256,192,100330,128,0,100570:0:0:0:0:
153,192,100570,1,0,0:0:0:0:
460,192,100570,1,0,0:0:0:0:
358,192,100570,128,0,100690:0:0:0:0:
358,192,100810,128,0,101050:0:0:0:0:
358,192,101290,1,0,0:0:0:0:
460,192,101290,1,0,0:0:0:0:
153,192,101290,1,0,0:0:0:0:
460,192,101650,1,0,0:0:0:0:
256,192,101650,1,0,0:0:0:0:
153,192,101650,1,0,0:0:0:0:
51,192,101770,1,0,0:0:0:0:
358,192,101770,1,0,0:0:0:0:
256,192,101770,1,0,0:0:0:0:
460,192,102250,1,0,0:0:0:0:
153,192,102250,1,0,0:0:0:0:
51,192,102250,128,0,102730:0:0:0:0:
256,192,102250,1,0,0:0:0:0:
460,192,102730,128,0,102970:0:0:0:0:
256,192,102970,1,0,0:0:0:0:
51,192,102970,1,0,0:0:0:0:
153,192,103210,1,0,0:0:0:0:
358,192,103210,1,0,0:0:0:0:
460,192,103210,1,0,0:0:0:0:
256,192,103450,1,0,0:0:0:0:
460,192,103690,1,0,0:0:0:0:
51,192,103690,1,0,0:0:0:0:
153,192,103690,1,0,0:0:0:0:
153,192,103930,1,0,0:0:0:0:
460,192,104170,1,0,0:0:0:0:
51,192,104170,1,0,0:0:0:0:
256,192,104170,1,0,0:0:0:0:
153,192,104410,1,0,0:0:0:0:
256,192,104410,1,0,0:0:0:0:
358,192,104410,128,0,104890:0:0:0:0:
153,192,104890,1,0,0:0:0:0:
256,192,104890,128,0,105130:0:0:0:0:
358,192,105130,1,0,0:0:0:0:
460,192,105130,1,0,0:0:0:0:
51,192,105130,1,0,0:0:0:0:
460,192,105370,1,0,0:0:0:0:
256,192,105370,128,0,105610:0:0:0:0:
153,192,105610,1,0,0:0:0:0:
358,192,105610,128,0,105850:0:0:0:0:
51,192,105610,1,0,0:0:0:0:
460,192,105850,128,0,106090:0:0:0:0:
153,192,106090,1,0,0:0:0:0:
256,192,106090,1,0,0:0:0:0:
51,192,106090,1,0,0:0:0:0:
358,192,106090,128,0,106330:0:0:0:0:
256,192,106330,128,0,106810:0:0:0:0:
460,192,106810,1,0,0:0:0:0:
51,192,106810,1,0,0:0:0:0:
153,192,106810,128,0,107050:0:0:0:0:
358,192,107050,1,0,0:0:0:0:
460,192,107050,1,0,0:0:0:0:
51,192,107050,1,0,0:0:0:0:
153,192,107290,128,0,107530:0:0:0:0:
460,192,107530,1,0,0:0:0:0:
51,192,107530,1,0,0:0:0:0:
256,192,107530,128,0,107770:0:0:0:0:
358,192,107770,128,0,108010:0:0:0:0:
460,192,108010,1,0,0:0:0:0:
153,192,108010,1,0,0:0:0:0:
51,192,108010,1,0,0:0:0:0:
256,192,108010,128,0,108250:0:0:0:0:
51,192,108250,1,0,0:0:0:0:
460,192,108250,1,0,0:0:0:0:
153,192,108250,128,0,108490:0:0:0:0:
460,192,109210,1,0,0:0:0:0:
256,192,109210,1,0,0:0:0:0:
358,192,109330,1,0,0:0:0:0:
153,192,109330,1,0,0:0:0:0:
51,192,109450,1,0,0:0:0:0:
256,192,109450,1,0,0:0:0:0:
460,192,109450,1,0,0:0:0:0:
51,192,109930,1,0,0:0:0:0:
358,192,109930,1,0,0:0:0:0:
460,192,109930,1,0,0:0:0:0:
51,192,110410,1,0,0:0:0:0:
256,192,110410,1,0,0:0:0:0:
358,192,110410,1,0,0:0:0:0:
460,192,110770,1,0,0:0:0:0:
358,192,110770,1,0,0:0:0:0:
153,192,110770,1,0,0:0:0:0:
51,192,110890,1,0,0:0:0:0:
256,192,110890,1,0,0:0:0:0:
358,192,110890,1,0,0:0:0:0:
51,192,111250,1,0,0:0:0:0:
153,192,111250,1,0,0:0:0:0:
460,192,111250,1,0,0:0:0:0:
51,192,111490,1,0,0:0:0:0:
256,192,111490,1,0,0:0:0:0:
358,192,111490,1,0,0:0:0:0:
153,192,111610,1,0,0:0:0:0:
460,192,111610,1,0,0:0:0:0:
256,192,111610,1,0,0:0:0:0:
51,192,111850,1,0,0:0:0:0:
256,192,111850,1,0,0:0:0:0:
460,192,111850,1,0,0:0:0:0:
153,192,112090,1,0,0:0:0:0:
256,192,112090,1,0,0:0:0:0:
51,192,112090,1,0,0:0:0:0:
256,192,112330,1,0,0:0:0:0:
358,192,112330,1,0,0:0:0:0:
460,192,112330,1,0,0:0:0:0:
153,192,112690,1,0,0:0:0:0:
256,192,112690,1,0,0:0:0:0:
358,192,112690,1,0,0:0:0:0:
51,192,112810,1,0,0:0:0:0:
460,192,112810,1,0,0:0:0:0:
153,192,112810,1,0,0:0:0:0:
153,192,113050,1,0,0:0:0:0:
358,192,113050,1,0,0:0:0:0:
460,192,113050,1,0,0:0:0:0:
51,192,113290,1,0,0:0:0:0:
256,192,113290,1,0,0:0:0:0:
358,192,113290,1,0,0:0:0:0:
153,192,113770,1,0,0:0:0:0:
256,192,113770,1,0,0:0:0:0:
460,192,113770,1,0,0:0:0:0:
460,192,114250,1,0,0:0:0:0:
153,192,114250,1,0,0:0:0:0:
51,192,114250,1,0,0:0:0:0:
153,192,114610,1,0,0:0:0:0:
256,192,114610,1,0,0:0:0:0:
460,192,114610,1,0,0:0:0:0:
51,192,114730,1,0,0:0:0:0:
256,192,114730,1,0,0:0:0:0:
358,192,114730,1,0,0:0:0:0:
460,192,115090,1,0,0:0:0:0:
358,192,115090,1,0,0:0:0:0:
153,192,115090,1,0,0:0:0:0:
51,192,115330,1,0,0:0:0:0:
256,192,115330,1,0,0:0:0:0:
358,192,115330,1,0,0:0:0:0:
153,192,115450,1,0,0:0:0:0:
358,192,115450,1,0,0:0:0:0:
460,192,115450,1,0,0:0:0:0:
256,192,115690,1,0,0:0:0:0:
51,192,115690,1,0,0:0:0:0:
460,192,115690,1,0,0:0:0:0:
153,192,115930,1,0,0:0:0:0:
358,192,115930,1,0,0:0:0:0:
256,192,115930,1,0,0:0:0:0:
51,192,116170,1,0,0:0:0:0:
460,192,116170,1,0,0:0:0:0:
153,192,116170,1,0,0:0:0:0:
256,192,116290,1,0,0:0:0:0:
358,192,116410,1,0,0:0:0:0:
460,192,116530,1,0,0:0:0:0:
256,192,116530,1,0,0:0:0:0:
51,192,116530,1,0,0:0:0:0:
153,192,116650,1,0,0:0:0:0:
256,192,116770,1,0,0:0:0:0:
460,192,116770,1,0,0:0:0:0:
51,192,116770,1,0,0:0:0:0:
358,192,116890,1,0,0:0:0:0:
460,192,117010,1,0,0:0:0:0:
358,192,117130,1,0,0:0:0:0:
51,192,117130,1,0,0:0:0:0:
153,192,117130,1,0,0:0:0:0:
51,192,117610,1,0,0:0:0:0:
256,192,117610,1,0,0:0:0:0:
358,192,117610,1,0,0:0:0:0:
153,192,118090,1,0,0:0:0:0:
358,192,118090,1,0,0:0:0:0:
460,192,118090,1,0,0:0:0:0:
460,192,118450,1,0,0:0:0:0:
256,192,118450,1,0,0:0:0:0:
153,192,118450,1,0,0:0:0:0:
51,192,118570,1,0,0:0:0:0:
256,192,118570,1,0,0:0:0:0:
358,192,118570,1,0,0:0:0:0:
51,192,118930,1,0,0:0:0:0:
256,192,118930,1,0,0:0:0:0:
460,192,118930,1,0,0:0:0:0:
358,192,119170,1,0,0:0:0:0:
153,192,119170,1,0,0:0:0:0:
51,192,119170,1,0,0:0:0:0:
153,192,119290,1,0,0:0:0:0:
358,192,119290,1,0,0:0:0:0:
460,192,119290,1,0,0:0:0:0:
256,192,119530,1,0,0:0:0:0:
51,192,119530,1,0,0:0:0:0:
358,192,119530,1,0,0:0:0:0:
153,192,119770,1,0,0:0:0:0:
256,192,119770,1,0,0:0:0:0:
460,192,119770,1,0,0:0:0:0:
358,192,120010,1,0,0:0:0:0:
153,192,120010,1,0,0:0:0:0:
51,192,120010,1,0,0:0:0:0:
153,192,120370,1,0,0:0:0:0:
256,192,120370,1,0,0:0:0:0:
460,192,120370,1,0,0:0:0:0:
51,192,120490,1,0,0:0:0:0:
153,192,120490,1,0,0:0:0:0:
358,192,120490,1,0,0:0:0:0:
460,192,120730,1,0,0:0:0:0:
256,192,120730,1,0,0:0:0:0:
51,192,120730,1,0,0:0:0:0:
460,192,120970,1,0,0:0:0:0:
358,192,120970,1,0,0:0:0:0:
256,192,120970,1,0,0:0:0:0:
256,192,121450,1,0,0:0:0:0:
153,192,121450,1,0,0:0:0:0:
51,192,121450,1,0,0:0:0:0:
153,192,121930,1,0,0:0:0:0:
358,192,121930,1,0,0:0:0:0:
460,192,121930,1,0,0:0:0:0:
358,192,122290,1,0,0:0:0:0:
153,192,122290,1,0,0:0:0:0:
51,192,122290,1,0,0:0:0:0:
153,192,122410,1,0,0:0:0:0:
256,192,122410,1,0,0:0:0:0:
460,192,122410,1,0,0:0:0:0:
51,192,122770,1,0,0:0:0:0:
256,192,122770,1,0,0:0:0:0:
358,192,122770,1,0,0:0:0:0:
153,192,123010,1,0,0:0:0:0:
358,192,123010,1,0,0:0:0:0:
460,192,123010,1,0,0:0:0:0:
358,192,123130,1,0,0:0:0:0:
51,192,123130,1,0,0:0:0:0:
153,192,123130,1,0,0:0:0:0:
51,192,123370,1,0,0:0:0:0:
256,192,123370,1,0,0:0:0:0:
153,192,123370,1,0,0:0:0:0:
153,192,123610,1,0,0:0:0:0:
256,192,123610,1,0,0:0:0:0:
358,192,123610,1,0,0:0:0:0:
358,192,123850,1,0,0:0:0:0:
460,192,123850,1,0,0:0:0:0:
256,192,123850,1,0,0:0:0:0:
51,192,123970,1,0,0:0:0:0:
153,192,124030,1,0,0:0:0:0:
358,192,124030,1,0,0:0:0:0:
51,192,124090,1,0,0:0:0:0:
460,192,124210,1,0,0:0:0:0:
153,192,124210,1,0,0:0:0:0:
358,192,124210,1,0,0:0:0:0:
256,192,124330,1,0,0:0:0:0:
51,192,124450,1,0,0:0:0:0:
460,192,124450,1,0,0:0:0:0:
153,192,124450,1,0,0:0:0:0:
358,192,124570,1,0,0:0:0:0:
256,192,124690,1,0,0:0:0:0:
51,192,124810,1,0,0:0:0:0:
460,192,124810,1,0,0:0:0:0:
153,192,124810,1,0,0:0:0:0:
153,192,125290,1,0,0:0:0:0:
256,192,125290,1,0,0:0:0:0:
460,192,125290,1,0,0:0:0:0:
460,192,125770,1,0,0:0:0:0:
153,192,125770,1,0,0:0:0:0:
51,192,125770,1,0,0:0:0:0:
153,192,126130,1,0,0:0:0:0:
256,192,126130,1,0,0:0:0:0:
460,192,126130,1,0,0:0:0:0:
51,192,126250,1,0,0:0:0:0:
256,192,126250,1,0,0:0:0:0:
358,192,126250,1,0,0:0:0:0:
460,192,126610,1,0,0:0:0:0:
358,192,126610,1,0,0:0:0:0:
153,192,126610,1,0,0:0:0:0:
51,192,126850,1,0,0:0:0:0:
256,192,126850,1,0,0:0:0:0:
358,192,126850,1,0,0:0:0:0:
153,192,126970,1,0,0:0:0:0:
358,192,126970,1,0,0:0:0:0:
460,192,126970,1,0,0:0:0:0:
256,192,127210,1,0,0:0:0:0:
51,192,127210,1,0,0:0:0:0:
460,192,127210,1,0,0:0:0:0:
153,192,127450,1,0,0:0:0:0:
358,192,127450,1,0,0:0:0:0:
256,192,127450,1,0,0:0:0:0:
51,192,127690,1,0,0:0:0:0:
460,192,127690,1,0,0:0:0:0:
358,192,127690,1,0,0:0:0:0:
358,192,128050,1,0,0:0:0:0:
460,192,128050,1,0,0:0:0:0:
153,192,128050,1,0,0:0:0:0:
51,192,128170,1,0,0:0:0:0:
153,192,128170,1,0,0:0:0:0:
256,192,128170,1,0,0:0:0:0:
460,192,128410,1,0,0:0:0:0:
256,192,128410,1,0,0:0:0:0:
153,192,128410,1,0,0:0:0:0:
358,192,128650,1,0,0:0:0:0:
51,192,128650,1,0,0:0:0:0:
153,192,128650,1,0,0:0:0:0:
51,192,129130,1,0,0:0:0:0:
256,192,129130,1,0,0:0:0:0:
358,192,129130,1,0,0:0:0:0:
153,192,129610,1,0,0:0:0:0:
358,192,129610,1,0,0:0:0:0:
460,192,129610,1,0,0:0:0:0:
460,192,129970,1,0,0:0:0:0:
256,192,129970,1,0,0:0:0:0:
153,192,129970,1,0,0:0:0:0:
256,192,130090,1,0,0:0:0:0:
358,192,130090,1,0,0:0:0:0:
51,192,130090,1,0,0:0:0:0:
51,192,130450,1,0,0:0:0:0:
256,192,130450,1,0,0:0:0:0:
460,192,130450,1,0,0:0:0:0:
358,192,130690,1,0,0:0:0:0:
153,192,130690,1,0,0:0:0:0:
51,192,130690,1,0,0:0:0:0:
153,192,130810,1,0,0:0:0:0:
358,192,130810,1,0,0:0:0:0:
460,192,130810,1,0,0:0:0:0:
256,192,131050,1,0,0:0:0:0:
51,192,131050,1,0,0:0:0:0:
358,192,131050,1,0,0:0:0:0:
153,192,131290,1,0,0:0:0:0:
256,192,131290,1,0,0:0:0:0:
460,192,131290,1,0,0:0:0:0:
358,192,131530,1,0,0:0:0:0:
153,192,131530,1,0,0:0:0:0:
51,192,131530,1,0,0:0:0:0:
153,192,131770,1,0,0:0:0:0:
460,192,131770,1,0,0:0:0:0:
256,192,131890,1,0,0:0:0:0:
460,192,131890,1,0,0:0:0:0:
51,192,131890,1,0,0:0:0:0:
460,192,132130,1,0,0:0:0:0:
358,192,132130,1,0,0:0:0:0:
51,192,132130,1,0,0:0:0:0:
153,192,132130,1,0,0:0:0:0:
256,192,132250,1,0,0:0:0:0:
358,192,132370,1,0,0:0:0:0:
460,192,132490,1,0,0:0:0:0:
256,192,132490,1,0,0:0:0:0:
153,192,132490,1,0,0:0:0:0:
256,192,132970,1,0,0:0:0:0:
153,192,132970,1,0,0:0:0:0:
51,192,132970,1,0,0:0:0:0:
153,192,133450,1,0,0:0:0:0:
358,192,133450,1,0,0:0:0:0:
460,192,133450,1,0,0:0:0:0:
358,192,133810,1,0,0:0:0:0:
153,192,133810,1,0,0:0:0:0:
51,192,133810,1,0,0:0:0:0:
256,192,133930,1,0,0:0:0:0:
460,192,133930,1,0,0:0:0:0:
358,192,133930,1,0,0:0:0:0:
51,192,134290,1,0,0:0:0:0:
256,192,134290,1,0,0:0:0:0:
358,192,134290,1,0,0:0:0:0:
153,192,134530,1,0,0:0:0:0:
358,192,134530,1,0,0:0:0:0:
460,192,134530,1,0,0:0:0:0:
358,192,134650,1,0,0:0:0:0:
51,192,134650,1,0,0:0:0:0:
153,192,134650,1,0,0:0:0:0:
51,192,134890,1,0,0:0:0:0:
256,192,134890,1,0,0:0:0:0:
153,192,134890,1,0,0:0:0:0:
153,192,135130,1,0,0:0:0:0:
256,192,135130,1,0,0:0:0:0:
358,192,135130,1,0,0:0:0:0:
256,192,135370,1,0,0:0:0:0:
358,192,135370,1,0,0:0:0:0:
460,192,135370,1,0,0:0:0:0:
460,192,135730,1,0,0:0:0:0:
153,192,135730,1,0,0:0:0:0:
51,192,135730,1,0,0:0:0:0:
153,192,135850,1,0,0:0:0:0:
256,192,135850,1,0,0:0:0:0:
358,192,135850,1,0,0:0:0:0:
460,192,136090,1,0,0:0:0:0:
358,192,136090,1,0,0:0:0:0:
153,192,136090,1,0,0:0:0:0:
256,192,136330,1,0,0:0:0:0:
153,192,136330,1,0,0:0:0:0:
51,192,136330,1,0,0:0:0:0:
51,192,136810,1,0,0:0:0:0:
256,192,136810,1,0,0:0:0:0:
358,192,136810,1,0,0:0:0:0:
153,192,137290,1,0,0:0:0:0:
460,192,137290,1,0,0:0:0:0:
358,192,137290,1,0,0:0:0:0:
51,192,137650,1,0,0:0:0:0:
153,192,137650,1,0,0:0:0:0:
358,192,137650,1,0,0:0:0:0:
153,192,137770,1,0,0:0:0:0:
460,192,137770,1,0,0:0:0:0:
358,192,137770,1,0,0:0:0:0:
460,192,138130,1,0,0:0:0:0:
256,192,138130,1,0,0:0:0:0:
153,192,138130,1,0,0:0:0:0:
51,192,138370,1,0,0:0:0:0:
153,192,138370,1,0,0:0:0:0:
358,192,138370,1,0,0:0:0:0:
460,192,138490,1,0,0:0:0:0:
51,192,138490,1,0,0:0:0:0:
358,192,138490,1,0,0:0:0:0:
153,192,138730,1,0,0:0:0:0:
256,192,138730,1,0,0:0:0:0:
358,192,138730,1,0,0:0:0:0:
51,192,138970,1,0,0:0:0:0:
153,192,138970,1,0,0:0:0:0:
358,192,138970,1,0,0:0:0:0:
153,192,139210,1,0,0:0:0:0:
256,192,139210,1,0,0:0:0:0:
460,192,139210,1,0,0:0:0:0:
51,192,139450,1,0,0:0:0:0:
256,192,139450,1,0,0:0:0:0:
358,192,139450,1,0,0:0:0:0:
460,192,139570,1,0,0:0:0:0:
358,192,139570,1,0,0:0:0:0:
51,192,139570,1,0,0:0:0:0:
256,192,139690,1,0,0:0:0:0:
153,192,139690,1,0,0:0:0:0:
51,192,139810,1,0,0:0:0:0:
460,192,139810,1,0,0:0:0:0:
153,192,139930,1,0,0:0:0:0:
256,192,139930,1,0,0:0:0:0:
358,192,139930,1,0,0:0:0:0:
51,192,140050,1,0,0:0:0:0:
460,192,140050,1,0,0:0:0:0:
153,192,140170,1,0,0:0:0:0:
358,192,140170,1,0,0:0:0:0:
460,192,140410,1,0,0:0:0:0:
256,192,140650,1,0,0:0:0:0:
358,192,140650,1,0,0:0:0:0:
51,192,140650,1,0,0:0:0:0:
460,192,140770,1,0,0:0:0:0:
460,192,141130,1,0,0:0:0:0:
51,192,141610,1,0,0:0:0:0:
153,192,141610,1,0,0:0:0:0:
256,192,141610,1,0,0:0:0:0:
358,192,141850,1,0,0:0:0:0:
153,192,141970,1,0,0:0:0:0:
358,192,142090,1,0,0:0:0:0:
358,192,142210,1,0,0:0:0:0:
358,192,142330,1,0,0:0:0:0:
51,192,142570,1,0,0:0:0:0:
460,192,142570,1,0,0:0:0:0:
153,192,142570,1,0,0:0:0:0:
358,192,142690,1,0,0:0:0:0:
358,192,143050,1,0,0:0:0:0:
256,192,143290,1,0,0:0:0:0:
51,192,143410,1,0,0:0:0:0:
153,192,143530,1,0,0:0:0:0:
358,192,143530,1,0,0:0:0:0:
460,192,143530,1,0,0:0:0:0:
51,192,143650,1,0,0:0:0:0:
358,192,143770,1,0,0:0:0:0:
51,192,144250,1,0,0:0:0:0:
256,192,144490,1,0,0:0:0:0:
460,192,144490,1,0,0:0:0:0:
153,192,144490,1,0,0:0:0:0:
51,192,144610,1,0,0:0:0:0:
51,192,144970,1,0,0:0:0:0:
256,192,145450,1,0,0:0:0:0:
358,192,145450,1,0,0:0:0:0:
460,192,145450,1,0,0:0:0:0:
153,192,145690,1,0,0:0:0:0:
358,192,145810,1,0,0:0:0:0:
153,192,145930,1,0,0:0:0:0:
153,192,146050,1,0,0:0:0:0:
153,192,146170,1,0,0:0:0:0:
256,192,146410,1,0,0:0:0:0:
460,192,146410,1,0,0:0:0:0:
51,192,146410,1,0,0:0:0:0:
358,192,146530,1,0,0:0:0:0:
358,192,146890,1,0,0:0:0:0:
358,192,147250,1,0,0:0:0:0:
51,192,147370,1,0,0:0:0:0:
460,192,147370,1,0,0:0:0:0:
153,192,147370,1,0,0:0:0:0:
256,192,147610,1,0,0:0:0:0:
358,192,147850,1,0,0:0:0:0:
153,192,147850,1,0,0:0:0:0:
460,192,147850,1,0,0:0:0:0:
51,192,148090,1,0,0:0:0:0:
256,192,148330,1,0,0:0:0:0:
153,192,148330,1,0,0:0:0:0:
460,192,148330,1,0,0:0:0:0:
51,192,148450,1,0,0:0:0:0:
51,192,148810,1,0,0:0:0:0:
460,192,149290,1,0,0:0:0:0:
358,192,149290,1,0,0:0:0:0:
256,192,149290,1,0,0:0:0:0:
153,192,149530,1,0,0:0:0:0:
358,192,149650,1,0,0:0:0:0:
153,192,149770,1,0,0:0:0:0:
153,192,149890,1,0,0:0:0:0:
153,192,150010,1,0,0:0:0:0:
460,192,150250,1,0,0:0:0:0:
51,192,150250,1,0,0:0:0:0:
358,192,150250,1,0,0:0:0:0:
153,192,150370,1,0,0:0:0:0:
153,192,150730,1,0,0:0:0:0:
256,192,150970,1,0,0:0:0:0:
460,192,151090,1,0,0:0:0:0:
358,192,151210,1,0,0:0:0:0:
153,192,151210,1,0,0:0:0:0:
51,192,151210,1,0,0:0:0:0:
460,192,151330,1,0,0:0:0:0:
153,192,151450,1,0,0:0:0:0:
460,192,151930,1,0,0:0:0:0:
256,192,152170,1,0,0:0:0:0:
51,192,152170,1,0,0:0:0:0:
358,192,152170,1,0,0:0:0:0:
460,192,152290,1,0,0:0:0:0:
460,192,152650,1,0,0:0:0:0:
256,192,153130,1,0,0:0:0:0:
153,192,153130,1,0,0:0:0:0:
51,192,153130,1,0,0:0:0:0:
358,192,153370,1,0,0:0:0:0:
153,192,153490,1,0,0:0:0:0:
358,192,153610,1,0,0:0:0:0:
358,192,153730,1,0,0:0:0:0:
358,192,153850,1,0,0:0:0:0:
256,192,154090,1,0,0:0:0:0:
51,192,154090,1,0,0:0:0:0:
460,192,154090,1,0,0:0:0:0:
153,192,154210,1,0,0:0:0:0:
51,192,154570,1,0,0:0:0:0:
256,192,154930,1,0,0:0:0:0:
358,192,155290,1,0,0:0:0:0:
460,192,155530,128,0,157450:0:0:0:0:
358,192,157450,128,0,159370:0:0:0:0:
153,192,159370,128,0,161290:0:0:0:0:
51,192,161290,128,0,163210:0:0:0:0:
460,192,161290,1,0,0:0:0:0:
358,192,161770,1,0,0:0:0:0:
256,192,162250,1,0,0:0:0:0:
153,192,162730,1,0,0:0:0:0:
358,192,163210,128,0,165130:0:0:0:0:
460,192,163210,1,0,0:0:0:0:
256,192,165130,128,0,167050:0:0:0:0:
51,192,166570,128,0,167050:0:0:0:0:
153,192,167050,128,0,168970:0:0:0:0:
460,192,167050,128,0,168970:0:0:0:0:
51,192,168970,128,0,170890:0:0:0:0:
358,192,168970,128,0,170890:0:0:0:0:
256,192,170890,1,0,0:0:0:0:
460,192,170890,1,0,0:0:0:0:
460,192,171250,1,0,0:0:0:0:
256,192,171250,1,0,0:0:0:0:
358,192,171370,1,0,0:0:0:0:
153,192,171370,1,0,0:0:0:0:
51,192,171370,1,0,0:0:0:0:
460,192,171610,1,0,0:0:0:0:
256,192,171610,1,0,0:0:0:0:
460,192,172090,1,0,0:0:0:0:
256,192,172090,1,0,0:0:0:0:
51,192,172330,1,0,0:0:0:0:
153,192,172330,1,0,0:0:0:0:
358,192,172330,1,0,0:0:0:0:
460,192,172450,1,0,0:0:0:0:
256,192,172450,1,0,0:0:0:0:
358,192,172810,1,0,0:0:0:0:
153,192,172810,1,0,0:0:0:0:
358,192,173170,1,0,0:0:0:0:
153,192,173170,1,0,0:0:0:0:
51,192,173290,1,0,0:0:0:0:
256,192,173290,1,0,0:0:0:0:
460,192,173290,1,0,0:0:0:0:
358,192,173530,1,0,0:0:0:0:
153,192,173530,1,0,0:0:0:0:
358,192,174010,1,0,0:0:0:0:
153,192,174010,1,0,0:0:0:0:
51,192,174250,1,0,0:0:0:0:
460,192,174250,1,0,0:0:0:0:
358,192,174250,1,0,0:0:0:0:
256,192,174370,1,0,0:0:0:0:
153,192,174370,1,0,0:0:0:0:
256,192,174730,1,0,0:0:0:0:
51,192,174730,1,0,0:0:0:0:
256,192,175090,1,0,0:0:0:0:
51,192,175090,1,0,0:0:0:0:
153,192,175210,1,0,0:0:0:0:
358,192,175210,1,0,0:0:0:0:
460,192,175210,1,0,0:0:0:0:
256,192,175450,1,0,0:0:0:0:
51,192,175450,1,0,0:0:0:0:
256,192,175930,1,0,0:0:0:0:
51,192,175930,1,0,0:0:0:0:
153,192,176170,1,0,0:0:0:0:
358,192,176170,1,0,0:0:0:0:
460,192,176170,1,0,0:0:0:0:
256,192,176290,1,0,0:0:0:0:
51,192,176290,1,0,0:0:0:0:
153,192,176650,1,0,0:0:0:0:
51,192,176650,1,0,0:0:0:0:
153,192,177010,1,0,0:0:0:0:
51,192,177010,1,0,0:0:0:0:
256,192,177130,1,0,0:0:0:0:
358,192,177130,1,0,0:0:0:0:
460,192,177130,1,0,0:0:0:0:
153,192,177370,1,0,0:0:0:0:
51,192,177370,1,0,0:0:0:0:
153,192,177850,1,0,0:0:0:0:
51,192,177850,1,0,0:0:0:0:
358,192,178090,1,0,0:0:0:0:
256,192,178090,1,0,0:0:0:0:
51,192,178090,1,0,0:0:0:0:
153,192,178330,1,0,0:0:0:0:
358,192,178330,1,0,0:0:0:0:
256,192,178570,1,0,0:0:0:0:
460,192,178570,1,0,0:0:0:0:
256,192,178930,1,0,0:0:0:0:
460,192,178930,1,0,0:0:0:0:
51,192,179050,1,0,0:0:0:0:
153,192,179050,1,0,0:0:0:0:
358,192,179050,1,0,0:0:0:0:
256,192,179290,1,0,0:0:0:0:
460,192,179290,1,0,0:0:0:0:
256,192,179770,1,0,0:0:0:0:
460,192,179770,1,0,0:0:0:0:
358,192,180010,1,0,0:0:0:0:
153,192,180010,1,0,0:0:0:0:
51,192,180010,1,0,0:0:0:0:
256,192,180130,1,0,0:0:0:0:
460,192,180130,1,0,0:0:0:0:
153,192,180490,1,0,0:0:0:0:
358,192,180490,1,0,0:0:0:0:
153,192,180850,1,0,0:0:0:0:
358,192,180850,1,0,0:0:0:0:
51,192,180970,1,0,0:0:0:0:
256,192,180970,1,0,0:0:0:0:
460,192,180970,1,0,0:0:0:0:
153,192,181210,1,0,0:0:0:0:
358,192,181210,1,0,0:0:0:0:
153,192,181690,1,0,0:0:0:0:
358,192,181690,1,0,0:0:0:0:
51,192,181930,1,0,0:0:0:0:
358,192,181930,1,0,0:0:0:0:
460,192,181930,1,0,0:0:0:0:
153,192,182050,1,0,0:0:0:0:
256,192,182050,1,0,0:0:0:0:
51,192,182410,1,0,0:0:0:0:
256,192,182410,1,0,0:0:0:0:
358,192,182530,1,0,0:0:0:0:
460,192,182650,1,0,0:0:0:0:
51,192,182770,1,0,0:0:0:0:
256,192,182770,1,0,0:0:0:0:
460,192,182890,1,0,0:0:0:0:
153,192,182890,1,0,0:0:0:0:
358,192,183010,1,0,0:0:0:0:
51,192,183130,1,0,0:0:0:0:
256,192,183130,1,0,0:0:0:0:
358,192,183250,1,0,0:0:0:0:
460,192,183370,1,0,0:0:0:0:
358,192,183490,1,0,0:0:0:0:
51,192,183610,1,0,0:0:0:0:
256,192,183610,1,0,0:0:0:0:
358,192,183730,1,0,0:0:0:0:
460,192,183850,1,0,0:0:0:0:
153,192,183850,1,0,0:0:0:0:
51,192,183970,1,0,0:0:0:0:
256,192,183970,1,0,0:0:0:0:
460,192,184090,1,0,0:0:0:0:
358,192,184210,1,0,0:0:0:0:
51,192,184330,1,0,0:0:0:0:
153,192,184330,1,0,0:0:0:0:
256,192,184450,1,0,0:0:0:0:
358,192,184570,1,0,0:0:0:0:
51,192,184690,1,0,0:0:0:0:
153,192,184690,1,0,0:0:0:0:
358,192,184810,1,0,0:0:0:0:
256,192,184810,1,0,0:0:0:0:
460,192,184930,1,0,0:0:0:0:
51,192,185050,1,0,0:0:0:0:
153,192,185050,1,0,0:0:0:0:
460,192,185170,1,0,0:0:0:0:
358,192,185290,1,0,0:0:0:0:
256,192,185410,1,0,0:0:0:0:
51,192,185530,1,0,0:0:0:0:
153,192,185530,1,0,0:0:0:0:
358,192,185650,1,0,0:0:0:0:
256,192,185770,1,0,0:0:0:0:
460,192,185770,1,0,0:0:0:0:
51,192,185770,1,0,0:0:0:0:
153,192,185770,1,0,0:0:0:0:
460,192,186250,1,0,0:0:0:0:
256,192,186250,1,0,0:0:0:0:
51,192,186250,1,0,0:0:0:0:
460,192,186730,1,0,0:0:0:0:
153,192,186730,1,0,0:0:0:0:
51,192,186730,1,0,0:0:0:0:
460,192,187210,1,0,0:0:0:0:
256,192,187210,1,0,0:0:0:0:
153,192,187210,1,0,0:0:0:0:
51,192,187570,1,0,0:0:0:0:
153,192,187570,1,0,0:0:0:0:
358,192,187570,1,0,0:0:0:0:
460,192,187690,1,0,0:0:0:0:
256,192,187690,1,0,0:0:0:0:
153,192,187690,1,0,0:0:0:0:
460,192,188050,1,0,0:0:0:0:
358,192,188050,1,0,0:0:0:0:
51,192,188050,1,0,0:0:0:0:
460,192,188290,1,0,0:0:0:0:
256,192,188290,1,0,0:0:0:0:
153,192,188290,1,0,0:0:0:0:
358,192,188410,1,0,0:0:0:0:
51,192,188410,1,0,0:0:0:0:
256,192,188410,1,0,0:0:0:0:
460,192,188650,1,0,0:0:0:0:
256,192,188650,1,0,0:0:0:0:
51,192,188650,1,0,0:0:0:0:
358,192,188890,1,0,0:0:0:0:
256,192,188890,1,0,0:0:0:0:
460,192,188890,1,0,0:0:0:0:
256,192,189130,1,0,0:0:0:0:
153,192,189130,1,0,0:0:0:0:
51,192,189130,1,0,0:0:0:0:
358,192,189490,1,0,0:0:0:0:
256,192,189490,1,0,0:0:0:0:
153,192,189490,1,0,0:0:0:0:
460,192,189610,1,0,0:0:0:0:
51,192,189610,1,0,0:0:0:0:
358,192,189610,1,0,0:0:0:0:
358,192,189850,1,0,0:0:0:0:
153,192,189850,1,0,0:0:0:0:
51,192,189850,1,0,0:0:0:0:
460,192,190090,1,0,0:0:0:0:
256,192,190090,1,0,0:0:0:0:
153,192,190090,1,0,0:0:0:0:
358,192,190570,1,0,0:0:0:0:
256,192,190570,1,0,0:0:0:0:
51,192,190570,1,0,0:0:0:0:
51,192,191050,1,0,0:0:0:0:
358,192,191050,1,0,0:0:0:0:
460,192,191050,1,0,0:0:0:0:
358,192,191410,1,0,0:0:0:0:
256,192,191410,1,0,0:0:0:0:
51,192,191410,1,0,0:0:0:0:
460,192,191530,1,0,0:0:0:0:
256,192,191530,1,0,0:0:0:0:
153,192,191530,1,0,0:0:0:0:
51,192,191890,1,0,0:0:0:0:
153,192,191890,1,0,0:0:0:0:
358,192,191890,1,0,0:0:0:0:
460,192,192130,1,0,0:0:0:0:
256,192,192130,1,0,0:0:0:0:
153,192,192130,1,0,0:0:0:0:
358,192,192250,1,0,0:0:0:0:
153,192,192250,1,0,0:0:0:0:
51,192,192250,1,0,0:0:0:0:
256,192,192490,1,0,0:0:0:0:
460,192,192490,1,0,0:0:0:0:
51,192,192490,1,0,0:0:0:0:
358,192,192730,1,0,0:0:0:0:
153,192,192730,1,0,0:0:0:0:
256,192,192730,1,0,0:0:0:0:
460,192,192970,1,0,0:0:0:0:
51,192,192970,1,0,0:0:0:0:
358,192,192970,1,0,0:0:0:0:
256,192,193090,1,0,0:0:0:0:
153,192,193210,1,0,0:0:0:0:
51,192,193330,1,0,0:0:0:0:
256,192,193330,1,0,0:0:0:0:
460,192,193330,1,0,0:0:0:0:
358,192,193450,1,0,0:0:0:0:
256,192,193570,1,0,0:0:0:0:
51,192,193570,1,0,0:0:0:0:
460,192,193570,1,0,0:0:0:0:
153,192,193690,1,0,0:0:0:0:
51,192,193810,1,0,0:0:0:0:
153,192,193930,1,0,0:0:0:0:
460,192,193930,1,0,0:0:0:0:
358,192,193930,1,0,0:0:0:0:
460,192,194410,1,0,0:0:0:0:
256,192,194410,1,0,0:0:0:0:
153,192,194410,1,0,0:0:0:0:
358,192,194890,1,0,0:0:0:0:
153,192,194890,1,0,0:0:0:0:
51,192,194890,1,0,0:0:0:0:
51,192,195250,1,0,0:0:0:0:
256,192,195250,1,0,0:0:0:0:
358,192,195250,1,0,0:0:0:0:
460,192,195370,1,0,0:0:0:0:
256,192,195370,1,0,0:0:0:0:
153,192,195370,1,0,0:0:0:0:
460,192,195730,1,0,0:0:0:0:
256,192,195730,1,0,0:0:0:0:
51,192,195730,1,0,0:0:0:0:
153,192,195970,1,0,0:0:0:0:
358,192,195970,1,0,0:0:0:0:
460,192,195970,1,0,0:0:0:0:
358,192,196090,1,0,0:0:0:0:
153,192,196090,1,0,0:0:0:0:
51,192,196090,1,0,0:0:0:0:
256,192,196330,1,0,0:0:0:0:
460,192,196330,1,0,0:0:0:0:
153,192,196330,1,0,0:0:0:0:
358,192,196570,1,0,0:0:0:0:
256,192,196570,1,0,0:0:0:0:
51,192,196570,1,0,0:0:0:0:
153,192,196810,1,0,0:0:0:0:
358,192,196810,1,0,0:0:0:0:
460,192,196810,1,0,0:0:0:0:
358,192,197170,1,0,0:0:0:0:
256,192,197170,1,0,0:0:0:0:
51,192,197170,1,0,0:0:0:0:
460,192,197290,1,0,0:0:0:0:
358,192,197290,1,0,0:0:0:0:
153,192,197290,1,0,0:0:0:0:
51,192,197530,1,0,0:0:0:0:
256,192,197530,1,0,0:0:0:0:
460,192,197530,1,0,0:0:0:0:
51,192,197770,1,0,0:0:0:0:
153,192,197770,1,0,0:0:0:0:
256,192,197770,1,0,0:0:0:0:
153,192,198250,1,0,0:0:0:0:
358,192,198250,1,0,0:0:0:0:
460,192,198250,1,0,0:0:0:0:
51,192,198730,1,0,0:0:0:0:
153,192,198730,1,0,0:0:0:0:
358,192,198730,1,0,0:0:0:0:
460,192,199090,1,0,0:0:0:0:
153,192,199090,1,0,0:0:0:0:
51,192,199090,1,0,0:0:0:0:
358,192,199210,1,0,0:0:0:0:
256,192,199210,1,0,0:0:0:0:
51,192,199210,1,0,0:0:0:0:
460,192,199570,5,0,0:0:0:0:
256,192,199570,1,0,0:0:0:0:
153,192,199570,1,0,0:0:0:0:
51,192,199930,1,0,0:0:0:0:
153,192,199930,1,0,0:0:0:0:
358,192,199930,1,0,0:0:0:0:
460,192,200410,1,0,0:0:0:0:
51,192,200410,1,0,0:0:0:0:
153,192,200410,1,0,0:0:0:0:
358,192,200470,1,0,0:0:0:0:
256,192,200530,1,0,0:0:0:0:
153,192,200590,1,0,0:0:0:0:
51,192,200650,1,0,0:0:0:0:
460,192,200650,1,0,0:0:0:0:
358,192,200650,1,0,0:0:0:0:
256,192,200810,1,0,0:0:0:0:
153,192,200810,1,0,0:0:0:0:
358,192,200970,1,0,0:0:0:0:
256,192,200970,1,0,0:0:0:0:
460,192,201130,1,0,0:0:0:0:
358,192,201130,1,0,0:0:0:0:
51,192,201250,1,0,0:0:0:0:
153,192,201250,1,0,0:0:0:0:
256,192,201250,1,0,0:0:0:0:
460,192,201610,1,0,0:0:0:0:
51,192,201610,1,0,0:0:0:0:
358,192,201610,1,0,0:0:0:0:
358,192,202090,1,0,0:0:0:0:
256,192,202090,1,0,0:0:0:0:
51,192,202090,1,0,0:0:0:0:
51,192,202570,1,0,0:0:0:0:
358,192,202570,1,0,0:0:0:0:
460,192,202570,1,0,0:0:0:0:
358,192,202930,1,0,0:0:0:0:
256,192,202930,1,0,0:0:0:0:
51,192,202930,1,0,0:0:0:0:
460,192,203050,1,0,0:0:0:0:
256,192,203050,1,0,0:0:0:0:
153,192,203050,1,0,0:0:0:0:
51,192,203410,1,0,0:0:0:0:
153,192,203410,1,0,0:0:0:0:
358,192,203410,1,0,0:0:0:0:
460,192,203650,1,0,0:0:0:0:
256,192,203650,1,0,0:0:0:0:
153,192,203650,1,0,0:0:0:0:
358,192,203770,1,0,0:0:0:0:
153,192,203770,1,0,0:0:0:0:
51,192,203770,1,0,0:0:0:0:
256,192,204010,1,0,0:0:0:0:
460,192,204010,1,0,0:0:0:0:
51,192,204010,1,0,0:0:0:0:
358,192,204250,1,0,0:0:0:0:
153,192,204250,1,0,0:0:0:0:
256,192,204250,1,0,0:0:0:0:
460,192,204490,1,0,0:0:0:0:
51,192,204490,1,0,0:0:0:0:
153,192,204490,1,0,0:0:0:0:
153,192,204850,1,0,0:0:0:0:
51,192,204850,1,0,0:0:0:0:
358,192,204850,1,0,0:0:0:0:
460,192,204970,1,0,0:0:0:0:
358,192,204970,1,0,0:0:0:0:
256,192,204970,1,0,0:0:0:0:
51,192,205210,1,0,0:0:0:0:
256,192,205210,1,0,0:0:0:0:
358,192,205210,1,0,0:0:0:0:
153,192,205450,1,0,0:0:0:0:
460,192,205450,1,0,0:0:0:0:
358,192,205450,1,0,0:0:0:0:
460,192,205930,1,0,0:0:0:0:
256,192,205930,1,0,0:0:0:0:
153,192,205930,1,0,0:0:0:0:
358,192,206410,1,0,0:0:0:0:
153,192,206410,1,0,0:0:0:0:
51,192,206410,1,0,0:0:0:0:
51,192,206770,1,0,0:0:0:0:
256,192,206770,1,0,0:0:0:0:
358,192,206770,1,0,0:0:0:0:
256,192,206890,1,0,0:0:0:0:
153,192,206890,1,0,0:0:0:0:
460,192,206890,1,0,0:0:0:0:
460,192,207250,1,0,0:0:0:0:
256,192,207250,1,0,0:0:0:0:
51,192,207250,1,0,0:0:0:0:
153,192,207490,1,0,0:0:0:0:
358,192,207490,1,0,0:0:0:0:
460,192,207490,1,0,0:0:0:0:
358,192,207610,1,0,0:0:0:0:
153,192,207610,1,0,0:0:0:0:
51,192,207610,1,0,0:0:0:0:
256,192,207850,1,0,0:0:0:0:
460,192,207850,1,0,0:0:0:0:
153,192,207850,1,0,0:0:0:0:
51,192,207850,128,0,208330:0:0:0:0:
358,192,208090,1,0,0:0:0:0:
256,192,208090,1,0,0:0:0:0:
153,192,208090,1,0,0:0:0:0:
256,192,208330,1,0,0:0:0:0:
358,192,208330,1,0,0:0:0:0:
460,192,208330,1,0,0:0:0:0:
153,192,208330,128,0,208810:0:0:0:0:
460,192,208690,1,0,0:0:0:0:
256,192,208690,1,0,0:0:0:0:
358,192,208810,128,0,209290:0:0:0:0:
460,192,208930,1,0,0:0:0:0:
51,192,208930,1,0,0:0:0:0:
51,192,209290,1,0,0:0:0:0:
460,192,209290,1,0,0:0:0:0:
153,192,209290,1,0,0:0:0:0:
256,192,209770,1,0,0:0:0:0:
358,192,209770,1,0,0:0:0:0:
460,192,209770,1,0,0:0:0:0:
358,192,210250,1,0,0:0:0:0:
153,192,210250,1,0,0:0:0:0:
51,192,210250,1,0,0:0:0:0:
153,192,210610,1,0,0:0:0:0:
358,192,210610,1,0,0:0:0:0:
460,192,210610,1,0,0:0:0:0:
256,192,210730,1,0,0:0:0:0:
51,192,210730,1,0,0:0:0:0:
153,192,210730,1,0,0:0:0:0:
460,192,211090,1,0,0:0:0:0:
256,192,211090,1,0,0:0:0:0:
153,192,211090,1,0,0:0:0:0:
358,192,211330,1,0,0:0:0:0:
153,192,211330,1,0,0:0:0:0:
51,192,211330,1,0,0:0:0:0:
153,192,211450,1,0,0:0:0:0:
460,192,211450,1,0,0:0:0:0:
358,192,211450,1,0,0:0:0:0:
460,192,211690,1,0,0:0:0:0:
256,192,211690,1,0,0:0:0:0:
358,192,211690,1,0,0:0:0:0:
358,192,211930,1,0,0:0:0:0:
256,192,211930,1,0,0:0:0:0:
153,192,211930,1,0,0:0:0:0:
256,192,212170,1,0,0:0:0:0:
153,192,212170,1,0,0:0:0:0:
51,192,212170,1,0,0:0:0:0:
51,192,212530,1,0,0:0:0:0:
358,192,212530,1,0,0:0:0:0:
460,192,212530,1,0,0:0:0:0:
358,192,212650,1,0,0:0:0:0:
256,192,212650,1,0,0:0:0:0:
153,192,212650,1,0,0:0:0:0:
51,192,212890,1,0,0:0:0:0:
153,192,212890,1,0,0:0:0:0:
358,192,212890,1,0,0:0:0:0:
256,192,213130,1,0,0:0:0:0:
358,192,213130,1,0,0:0:0:0:
460,192,213130,1,0,0:0:0:0:
460,192,213610,1,0,0:0:0:0:
256,192,213610,1,0,0:0:0:0:
153,192,213610,1,0,0:0:0:0:
358,192,214090,1,0,0:0:0:0:
51,192,214090,1,0,0:0:0:0:
153,192,214090,1,0,0:0:0:0:
460,192,214450,1,0,0:0:0:0:
358,192,214450,1,0,0:0:0:0:
153,192,214450,1,0,0:0:0:0:
358,192,214570,1,0,0:0:0:0:
51,192,214570,1,0,0:0:0:0:
153,192,214570,1,0,0:0:0:0:
51,192,214930,1,0,0:0:0:0:
256,192,214930,1,0,0:0:0:0:
358,192,214930,1,0,0:0:0:0:
460,192,215170,1,0,0:0:0:0:
358,192,215170,1,0,0:0:0:0:
153,192,215170,1,0,0:0:0:0:
51,192,215290,1,0,0:0:0:0:
460,192,215290,1,0,0:0:0:0:
153,192,215290,1,0,0:0:0:0:
358,192,215530,1,0,0:0:0:0:
256,192,215530,1,0,0:0:0:0:
153,192,215530,1,0,0:0:0:0:
460,192,215770,1,0,0:0:0:0:
358,192,215770,1,0,0:0:0:0:
153,192,215770,1,0,0:0:0:0:
358,192,216010,1,0,0:0:0:0:
256,192,216010,1,0,0:0:0:0:
51,192,216010,1,0,0:0:0:0:
51,192,216370,1,0,0:0:0:0:
153,192,216370,1,0,0:0:0:0:
460,192,216370,1,0,0:0:0:0:
358,192,216490,1,0,0:0:0:0:
153,192,216490,1,0,0:0:0:0:
256,192,216490,1,0,0:0:0:0:
460,192,216610,1,0,0:0:0:0:
51,192,216610,1,0,0:0:0:0:
460,192,216730,1,0,0:0:0:0:
51,192,216730,1,0,0:0:0:0:
460,192,216850,1,0,0:0:0:0:
51,192,216850,1,0,0:0:0:0:
460,192,216970,1,0,0:0:0:0:
51,192,216970,1,0,0:0:0:0:
153,192,216970,1,0,0:0:0:0:
256,192,216970,1,0,0:0:0:0:
460,192,217690,128,0,217750:0:0:0:0:
358,192,217690,128,0,217750:0:0:0:0:
358,192,217930,128,0,217990:0:0:0:0:
256,192,217930,128,0,217990:0:0:0:0:
51,192,218170,128,0,218230:0:0:0:0:
153,192,218170,128,0,218230:0:0:0:0:
256,192,218290,128,0,218350:0:0:0:0:
358,192,218290,128,0,218350:0:0:0:0:
153,192,218530,128,0,218590:0:0:0:0:
51,192,218530,128,0,218590:0:0:0:0:
256,192,218650,128,0,218710:0:0:0:0:
153,192,218650,128,0,218710:0:0:0:0:
358,192,218770,128,0,218830:0:0:0:0:
256,192,218770,128,0,218830:0:0:0:0:
51,192,218890,128,0,218950:0:0:0:0:
153,192,218890,128,0,218950:0:0:0:0:
153,192,219010,128,0,219070:0:0:0:0:
358,192,219010,128,0,219070:0:0:0:0:
256,192,219130,128,0,219190:0:0:0:0:
460,192,219130,128,0,219190:0:0:0:0:
256,192,219370,128,0,219430:0:0:0:0:
460,192,219370,128,0,219430:0:0:0:0:
256,192,219850,128,0,219910:0:0:0:0:
460,192,219850,128,0,219910:0:0:0:0:
256,192,220210,128,0,220270:0:0:0:0:
460,192,220210,128,0,220270:0:0:0:0:
153,192,220450,128,0,220510:0:0:0:0:
256,192,220450,128,0,220510:0:0:0:0:
460,192,220570,128,0,220630:0:0:0:0:
358,192,220570,128,0,220630:0:0:0:0:
153,192,220810,128,0,220870:0:0:0:0:
51,192,220810,128,0,220870:0:0:0:0:
256,192,221050,128,0,221110:0:0:0:0:
358,192,221050,128,0,221110:0:0:0:0:
256,192,221290,128,0,221350:0:0:0:0:
358,192,221290,128,0,221350:0:0:0:0:
256,192,221770,128,0,221830:0:0:0:0:
358,192,221770,128,0,221830:0:0:0:0:
256,192,222130,128,0,222190:0:0:0:0:
358,192,222130,128,0,222190:0:0:0:0:
51,192,222370,128,0,222430:0:0:0:0:
153,192,222370,128,0,222430:0:0:0:0:
153,192,222490,128,0,222550:0:0:0:0:
256,192,222490,128,0,222550:0:0:0:0:
358,192,222610,128,0,222670:0:0:0:0:
256,192,222610,128,0,222670:0:0:0:0:
460,192,222730,128,0,222790:0:0:0:0:
358,192,222730,128,0,222790:0:0:0:0:
460,192,222850,128,0,222910:0:0:0:0:
358,192,222850,128,0,222910:0:0:0:0:
460,192,222970,128,0,223030:0:0:0:0:
358,192,222970,128,0,223030:0:0:0:0:
358,192,223210,128,0,223270:0:0:0:0:
256,192,223210,128,0,223270:0:0:0:0:
358,192,223330,128,0,223390:0:0:0:0:
256,192,223330,128,0,223390:0:0:0:0:
358,192,223450,128,0,223510:0:0:0:0:
256,192,223450,128,0,223510:0:0:0:0:
153,192,223690,128,0,223750:0:0:0:0:
256,192,223690,128,0,223750:0:0:0:0:
153,192,223930,128,0,223990:0:0:0:0:
256,192,223930,128,0,223990:0:0:0:0:
460,192,224050,128,0,224110:0:0:0:0:
358,192,224050,128,0,224110:0:0:0:0:
358,192,224290,128,0,224350:0:0:0:0:
153,192,224290,128,0,224350:0:0:0:0:
256,192,224410,128,0,224470:0:0:0:0:
51,192,224410,128,0,224470:0:0:0:0:
153,192,224650,128,0,224710:0:0:0:0:
256,192,224650,128,0,224710:0:0:0:0:
51,192,224890,128,0,224950:0:0:0:0:
153,192,224890,128,0,224950:0:0:0:0:
51,192,225010,128,0,225070:0:0:0:0:
153,192,225010,128,0,225070:0:0:0:0:
256,192,225130,128,0,225190:0:0:0:0:
358,192,225130,128,0,225190:0:0:0:0:
256,192,225610,128,0,225670:0:0:0:0:
358,192,225610,128,0,225670:0:0:0:0:
256,192,225970,128,0,226030:0:0:0:0:
358,192,225970,128,0,226030:0:0:0:0:
153,192,226210,128,0,226270:0:0:0:0:
256,192,226210,128,0,226270:0:0:0:0:
256,192,226330,128,0,226390:0:0:0:0:
358,192,226330,128,0,226390:0:0:0:0:
358,192,226450,128,0,226510:0:0:0:0:
460,192,226450,128,0,226510:0:0:0:0:
51,192,226570,128,0,226630:0:0:0:0:
153,192,226570,128,0,226630:0:0:0:0:
153,192,226690,128,0,226750:0:0:0:0:
256,192,226690,128,0,226750:0:0:0:0:
460,192,226810,128,0,226870:0:0:0:0:
358,192,226810,128,0,226870:0:0:0:0:
358,192,226930,128,0,226990:0:0:0:0:
256,192,226930,128,0,226990:0:0:0:0:
256,192,227050,128,0,227110:0:0:0:0:
51,192,227050,128,0,227110:0:0:0:0:
256,192,227530,128,0,227590:0:0:0:0:
51,192,227530,128,0,227590:0:0:0:0:
256,192,227890,128,0,227950:0:0:0:0:
51,192,227890,128,0,227950:0:0:0:0:
51,192,228130,128,0,228190:0:0:0:0:
358,192,228130,128,0,228190:0:0:0:0:
153,192,228250,128,0,228310:0:0:0:0:
460,192,228250,128,0,228310:0:0:0:0:
460,192,228490,5,0,0:0:0:0:
358,192,228490,1,0,0:0:0:0:
256,192,228490,1,0,0:0:0:0:
460,192,228730,1,0,0:0:0:0:
358,192,228730,1,0,0:0:0:0:
256,192,228730,1,0,0:0:0:0:
153,192,228970,1,0,0:0:0:0:
51,192,228970,1,0,0:0:0:0:
358,192,228970,1,0,0:0:0:0:
153,192,229210,1,0,0:0:0:0:
51,192,229210,1,0,0:0:0:0:
358,192,229210,1,0,0:0:0:0:
153,192,229450,1,0,0:0:0:0:
358,192,229450,1,0,0:0:0:0:
460,192,229450,1,0,0:0:0:0:
358,192,229610,1,0,0:0:0:0:
256,192,229610,1,0,0:0:0:0:
51,192,229610,1,0,0:0:0:0:
153,192,229770,1,0,0:0:0:0:
460,192,229770,1,0,0:0:0:0:
256,192,229770,1,0,0:0:0:0:
51,192,229930,1,0,0:0:0:0:
153,192,229930,1,0,0:0:0:0:
358,192,229930,1,0,0:0:0:0:
256,192,230090,1,0,0:0:0:0:
460,192,230090,1,0,0:0:0:0:
51,192,230090,1,0,0:0:0:0:
358,192,230250,1,0,0:0:0:0:
256,192,230250,1,0,0:0:0:0:
153,192,230250,1,0,0:0:0:0:
51,192,230410,128,0,230890:0:0:0:0:
460,192,230410,1,0,0:0:0:0:
358,192,230530,1,0,0:0:0:0:
460,192,230650,1,0,0:0:0:0:
358,192,230770,1,0,0:0:0:0:
153,192,230890,128,0,231370:0:0:0:0:
256,192,230890,1,0,0:0:0:0:
358,192,231010,1,0,0:0:0:0:
256,192,231130,1,0,0:0:0:0:
358,192,231250,1,0,0:0:0:0:
256,192,231370,128,0,231850:0:0:0:0:
460,192,231370,1,0,0:0:0:0:
51,192,231490,1,0,0:0:0:0:
460,192,231610,1,0,0:0:0:0:
51,192,231730,1,0,0:0:0:0:
358,192,231850,128,0,232330:0:0:0:0:
153,192,231850,1,0,0:0:0:0:
51,192,231970,1,0,0:0:0:0:
153,192,232090,1,0,0:0:0:0:
51,192,232210,1,0,0:0:0:0:
460,192,232330,1,0,0:0:0:0:
256,192,232330,1,0,0:0:0:0:
153,192,232330,1,0,0:0:0:0:
