osu file format v14

[General]
AudioFilename: audio.mp3
AudioLeadIn: 0
PreviewTime: 79023
Countdown: 0
SampleSet: Soft
StackLeniency: 0.2
Mode: 0
LetterboxInBreaks: 0
WidescreenStoryboard: 0

[Editor]
Bookmarks: 50678,54402,110678,137161,143782,160333,186816,200057,209988,222195,226954
DistanceSpacing: 2.7
BeatDivisor: 4
GridSize: 4
TimelineZoom: 1.9

[Metadata]
Title:The Princess and the Clock
TitleUnicode:The Princess and the Clock
Artist:Kero Kero Bonito
ArtistUnicode:Kero Kero Bonito
Creator:pocket-
Version:her Sojourn
Source:
Tags:kkb civilization civilisation ii
BeatmapID:3058966
BeatmapSetID:1492284

[Difficulty]
HPDrainRate:6
CircleSize:4.5
OverallDifficulty:8
ApproachRate:9
SliderMultiplier:2.7
SliderTickRate:1

[Events]
//Background and Video events
0,0,"bug.jpg",0,0
Video,0,"mv.mp4"
//Break Periods
2,52851,53802
2,137361,142954
//Storyboard Layer 0 (Background)
//Storyboard Layer 1 (Fail)
//Storyboard Layer 2 (Pass)
//Storyboard Layer 3 (Foreground)
//Storyboard Layer 4 (Overlay)
//Storyboard Sound Samples

[TimingPoints]
610,413.793103448276,4,2,2,25,1,0
610,-166.666666666667,4,2,2,25,0,0
3920,-100,4,2,2,25,0,0
4541,-166.666666666667,4,2,2,25,0,0
6196,-125,4,2,2,25,0,0
6506,-125,4,2,2,5,0,0
6610,-166.666666666667,4,2,2,25,0,0
7230,-200,4,2,2,25,0,0
7644,-66.6666666666667,4,2,2,25,0,0
8058,-100,4,2,2,25,0,0
8265,-125,4,2,2,25,0,0
10541,-100,4,2,2,25,0,0
10954,-66.6666666666667,4,2,2,25,0,0
11161,-100,4,2,2,25,0,0
11368,-125,4,2,2,25,0,0
14265,-66.6666666666667,4,2,2,25,0,0
14678,-100,4,2,2,25,0,0
14885,-125,4,2,2,25,0,0
17575,-66.6666666666667,4,2,2,25,0,0
17782,-100,4,2,2,25,0,0
18196,-125,4,2,2,25,0,0
20472,-100,4,2,2,25,0,0
21092,-200,4,2,2,25,0,0
22127,-100,4,2,2,25,0,0
22747,-200,4,2,2,25,0,0
23368,-83.3333333333333,4,2,2,25,0,0
23782,-125,4,2,2,25,0,0
24610,-100,4,2,2,25,0,0
25023,-125,4,2,2,25,0,0
25437,-100,4,2,2,25,0,0
27506,-500,4,2,2,25,0,0
30403,-100,4,2,2,25,0,0
31023,-200,4,2,2,25,0,0
31644,-125,4,2,2,25,0,0
32058,-333.333333333333,4,2,2,25,0,0
33092,-500,4,2,2,25,0,0
33506,-500,4,2,2,15,0,0
34954,-500,4,2,2,20,0,0
35575,-500,4,2,2,30,0,0
36196,-333.333333333333,4,3,0,45,0,0
37851,413.793103448276,4,2,2,55,1,0
37851,-66.6666666666667,4,2,2,55,0,1
38264,-100,4,2,2,55,0,0
39299,-66.6666666666667,4,2,2,55,0,0
39506,-100,4,2,2,55,0,0
39713,-200,4,2,2,55,0,0
39919,-66.6666666666667,4,2,2,55,0,0
40747,-83.3333333333333,4,2,2,55,0,0
40954,-100,4,2,2,55,0,0
41782,-66.6666666666667,4,2,2,55,0,0
42816,-100,4,2,2,55,0,0
43230,-66.6666666666667,4,2,2,55,0,0
43851,-125,4,2,2,55,0,0
44057,-66.6666666666667,4,2,2,55,0,0
44264,-83.3333333333333,4,2,2,55,0,0
45092,-66.6666666666667,4,2,2,55,0,0
46126,-100,4,2,2,55,0,0
46540,-66.6666666666667,4,2,2,55,0,0
47368,-83.3333333333333,4,2,2,55,0,0
47575,-100,4,2,2,55,0,0
48402,-66.6666666666667,4,2,2,55,0,0
49437,-83.3333333333333,4,2,2,55,0,0
50678,-200,4,2,2,55,0,0
51092,-333.333333333333,4,2,2,40,0,0
51506,-500,4,2,2,30,0,0
51919,-1000,4,2,2,20,0,0
52333,-1000,4,2,2,10,0,0
54402,-200,4,2,2,40,0,0
54609,-83.3333333333333,4,2,2,40,0,0
55023,-100,4,2,2,40,0,0
55230,-83.3333333333333,4,2,2,40,0,0
56264,-200,4,2,2,40,0,0
56678,-125,4,2,2,40,0,0
56885,-83.3333333333333,4,2,2,40,0,0
57919,-125,4,2,2,40,0,0
58747,-83.3333333333333,4,2,2,40,0,0
58954,-1000,4,2,2,40,0,0
59368,-1000,4,2,2,40,0,0
59575,-200,4,2,2,40,0,0
59782,-83.3333333333333,4,2,2,40,0,0
60609,-66.6666666666667,4,2,2,40,0,0
61230,-83.3333333333333,4,2,2,40,0,0
61644,-200,4,2,2,40,0,0
61851,-66.6666666666667,4,2,2,40,0,0
62057,-83.3333333333333,4,2,2,40,0,0
62885,-200,4,2,2,40,0,0
63299,-125,4,2,2,40,0,0
63919,-83.3333333333333,4,2,2,40,0,0
64333,-200,4,2,2,40,0,0
64540,-125,4,2,2,40,0,0
64747,-83.3333333333333,4,2,2,40,0,0
64954,-125,4,2,2,40,0,0
66402,-83.3333333333333,4,2,2,40,0,0
67230,-66.6666666666667,4,2,2,40,0,0
67437,-125,4,2,2,40,0,0
67851,-83.3333333333333,4,2,2,40,0,0
68678,-66.6666666666667,4,2,2,40,0,0
69506,-200,4,2,2,40,0,0
69713,-125,4,2,2,40,0,0
70126,-83.3333333333333,4,2,2,40,0,0
71161,-125,4,2,2,40,0,0
71368,-83.3333333333333,4,2,2,40,0,0
71575,-125,4,2,2,40,0,0
73023,-83.3333333333333,4,2,2,40,0,0
73644,-125,4,2,2,40,0,0
73851,-83.3333333333333,4,2,2,40,0,0
74264,-125,4,2,2,40,0,0
74678,-83.3333333333333,4,2,2,40,0,0
74885,-125,4,2,2,40,0,0
75092,-125,4,2,2,5,0,0
75506,-83.3333333333333,4,2,2,40,0,0
75713,-83.3333333333333,4,2,2,5,0,0
76126,-200,4,2,2,40,0,0
76747,-125,4,2,2,40,0,0
77782,-100,4,2,2,40,0,0
77988,-83.3333333333333,4,2,2,40,0,0
78195,-125,4,2,2,40,0,0
78816,-83.3333333333333,4,2,2,40,0,0
79230,-83.3333333333333,4,2,2,40,0,0
80471,-200,4,2,2,40,0,0
80782,-200,4,2,2,5,0,0
80885,-83.3333333333333,4,2,2,55,0,1
81299,-58.8235294117647,4,2,2,55,0,0
81713,-100,4,2,2,55,0,0
82126,-66.6666666666667,4,2,2,55,0,0
82540,-83.3333333333333,4,2,2,55,0,0
82954,-66.6666666666667,4,2,2,55,0,0
83161,-83.3333333333333,4,2,2,55,0,0
83368,-200,4,2,2,55,0,0
83782,-66.6666666666667,4,2,2,55,0,0
84402,-83.3333333333333,4,2,2,55,0,0
84609,-66.6666666666667,4,2,2,55,0,0
85851,-83.3333333333333,4,2,2,55,0,0
86264,-66.6666666666667,4,2,2,55,0,0
86471,-83.3333333333333,4,2,2,55,0,0
87092,-66.6666666666667,4,2,2,55,0,0
87506,-83.3333333333333,4,2,2,55,0,0
87919,-58.8235294117647,4,2,2,55,0,0
88333,-100,4,2,2,55,0,0
88747,-66.6666666666667,4,2,2,55,0,0
89161,-83.3333333333333,4,2,2,55,0,0
89575,-66.6666666666667,4,2,2,55,0,0
89782,-83.3333333333333,4,2,2,55,0,0
89988,-200,4,2,2,55,0,0
90402,-66.6666666666667,4,2,2,55,0,0
91437,-83.3333333333333,4,2,2,55,0,0
91851,-66.6666666666667,4,2,2,55,0,0
92264,-83.3333333333333,4,2,2,55,0,0
92885,-66.6666666666667,4,2,2,55,0,0
93299,-83.3333333333333,4,2,2,55,0,0
93713,-66.6666666666667,4,2,2,55,0,0
93919,-200,4,2,2,55,0,0
94126,-83.3333333333333,4,2,2,55,0,0
94540,-58.8235294117647,4,2,2,55,0,0
94954,-100,4,2,2,55,0,0
95368,-66.6666666666667,4,2,2,55,0,0
95782,-83.3333333333333,4,2,2,55,0,0
96195,-66.6666666666667,4,2,2,55,0,0
96402,-83.3333333333333,4,2,2,55,0,0
96609,-200,4,2,2,55,0,0
97023,-66.6666666666667,4,2,2,55,0,0
97644,-83.3333333333333,4,2,2,55,0,0
97851,-66.6666666666667,4,2,2,55,0,0
99092,-83.3333333333333,4,2,2,55,0,0
99506,-66.6666666666667,4,2,2,55,0,0
101161,-83.3333333333333,4,2,2,55,0,0
101368,-66.6666666666667,4,2,2,55,0,0
101782,-83.3333333333333,4,2,2,55,0,0
102195,-125,4,2,2,55,0,0
102609,-200,4,2,2,55,0,0
102816,-66.6666666666667,4,2,2,55,0,0
103023,-83.3333333333333,4,2,2,55,0,0
103230,-200,4,2,2,55,0,0
103644,-66.6666666666667,4,2,2,55,0,0
104678,-83.3333333333333,4,2,2,55,0,0
105092,-66.6666666666667,4,2,2,55,0,0
105506,-83.3333333333333,4,2,2,55,0,0
105919,-200,4,2,2,55,0,0
106126,-66.6666666666667,4,2,2,55,0,0
106333,-83.3333333333333,4,2,2,55,0,0
106540,-200,4,2,2,55,0,0
106954,-66.6666666666667,4,2,2,55,0,0
107988,-83.3333333333333,4,2,2,55,0,0
108402,-125,4,2,2,55,0,0
108609,-66.6666666666667,4,2,2,55,0,0
108816,-50,4,2,2,55,0,0
108971,-50,4,2,2,5,0,0
109023,-125,4,2,2,55,0,0
110264,-66.6666666666667,4,2,2,55,0,0
111092,-83.3333333333333,4,2,2,55,0,0
111919,-125,4,2,2,55,0,0
112747,-83.3333333333333,4,2,2,55,0,0
113161,-125,4,2,2,55,0,0
113575,-83.3333333333333,4,2,2,55,0,0
113782,-200,4,2,2,55,0,0
113988,-83.3333333333333,4,2,2,55,0,0
114609,-125,4,2,2,55,0,0
115230,-83.3333333333333,4,2,2,55,0,0
115851,-83.3333333333333,4,2,2,55,0,0
116471,-125,4,2,2,55,0,0
116885,-83.3333333333333,4,2,2,55,0,0
117092,-125,4,2,2,55,0,0
117299,-83.3333333333333,4,2,2,55,0,0
117919,-125,4,2,2,55,0,0
118540,-83.3333333333333,4,2,2,55,0,0
118954,-125,4,2,2,55,0,0
119368,-83.3333333333333,4,2,2,55,0,0
119782,-200,4,2,2,55,0,0
120195,-83.3333333333333,4,2,2,55,0,0
120609,-125,4,2,2,55,0,0
121023,-83.3333333333333,4,2,2,55,0,0
121230,-125,4,2,2,55,0,0
121851,-83.3333333333333,4,2,2,55,0,0
122264,-125,4,2,2,55,0,0
122678,-83.3333333333333,4,2,2,55,0,0
123713,-125,4,2,2,55,0,0
124333,-83.3333333333333,4,2,2,55,0,0
124540,-125,4,2,2,55,0,0
126816,-83.3333333333333,4,2,2,55,0,0
127851,-125,4,2,2,55,0,0
128471,-83.3333333333333,4,2,2,55,0,0
128885,-66.6666666666667,4,2,2,55,0,0
129506,-125,4,2,2,55,0,0
129713,-83.3333333333333,4,2,2,55,0,0
130333,-125,4,2,2,55,0,0
130540,-166.666666666667,4,2,2,55,0,0
130954,-83.3333333333333,4,2,2,55,0,0
131161,-125,4,2,2,55,0,0
131782,-125,4,2,2,55,0,0
132195,-100,4,2,2,55,0,0
132609,-83.3333333333333,4,2,2,55,0,0
133023,-200,4,2,2,55,0,0
133437,-83.3333333333333,4,2,2,55,0,0
143782,-166.666666666667,4,2,2,35,0,0
144195,-166.666666666667,4,2,2,25,0,0
144816,-125,4,2,2,25,0,0
148126,-125,4,2,2,25,0,0
148747,-200,4,2,2,25,0,0
150402,-50,4,2,99,70,0,1
150609,-50,4,2,2,70,0,1
151023,-66.6666666666667,4,2,2,70,0,1
151851,-100,4,2,2,70,0,1
152057,-50,4,2,2,70,0,1
152264,-66.6666666666667,4,2,2,70,0,1
153299,-50,4,2,2,70,0,1
155161,-100,4,2,2,70,0,1
155368,-66.6666666666667,4,2,2,70,0,1
156402,-100,4,2,2,70,0,1
156609,-66.6666666666667,4,2,2,70,0,1
156816,-50,4,2,2,70,0,1
158264,-44.4444444444445,4,2,2,70,0,1
158885,-40,4,2,2,70,0,1
159506,-1000,4,2,2,70,0,1
160126,-125,4,2,2,70,0,1
160333,-125,4,2,2,55,0,0
161575,-66.6666666666667,4,2,2,55,0,1
161988,-83.3333333333333,4,2,2,55,0,0
162402,-66.6666666666667,4,2,2,55,0,0
162609,-83.3333333333333,4,2,2,55,0,0
162816,-200,4,2,2,55,0,0
163230,-66.6666666666667,4,2,2,55,0,0
163850,-83.3333333333333,4,2,2,55,0,0
164057,-66.6666666666667,4,2,2,55,0,0
165299,-83.3333333333333,4,2,2,55,0,0
165712,-66.6666666666667,4,2,2,55,0,0
165919,-83.3333333333333,4,2,2,55,0,0
166540,-66.6666666666667,4,2,2,55,0,0
166954,-83.3333333333333,4,2,2,55,0,0
167367,-58.8235294117647,4,2,2,55,0,0
167781,-100,4,2,2,55,0,0
168195,-66.6666666666667,4,2,2,55,0,0
168609,-83.3333333333333,4,2,2,55,0,0
169023,-66.6666666666667,4,2,2,55,0,0
169230,-83.3333333333333,4,2,2,55,0,0
169436,-200,4,2,2,55,0,0
169850,-66.6666666666667,4,2,2,55,0,0
170885,-83.3333333333333,4,2,2,55,0,0
171299,-66.6666666666667,4,2,2,55,0,0
171712,-83.3333333333333,4,2,2,55,0,0
172333,-66.6666666666667,4,2,2,55,0,0
172747,-200,4,2,2,55,0,0
173161,-66.6666666666667,4,2,2,55,0,0
173367,-200,4,2,2,55,0,0
173574,-83.3333333333333,4,2,2,55,0,0
173988,-58.8235294117647,4,2,2,55,0,0
174402,-100,4,2,2,55,0,0
174816,-66.6666666666667,4,2,2,55,0,0
175230,-83.3333333333333,4,2,2,55,0,0
175643,-66.6666666666667,4,2,2,55,0,0
175850,-83.3333333333333,4,2,2,55,0,0
176057,-200,4,2,2,55,0,0
176471,-66.6666666666667,4,2,2,55,0,0
177092,-83.3333333333333,4,2,2,55,0,0
177299,-66.6666666666667,4,2,2,55,0,0
178540,-83.3333333333333,4,2,2,55,0,0
178954,-66.6666666666667,4,2,2,55,0,0
179161,-83.3333333333333,4,2,2,55,0,0
179782,-66.6666666666667,4,2,2,55,0,0
179988,-83.3333333333333,4,2,2,55,0,0
180195,-66.6666666666667,4,2,2,55,0,0
180816,-83.3333333333333,4,2,2,55,0,0
181230,-66.6666666666667,4,2,2,55,0,0
181643,-83.3333333333333,4,2,2,55,0,0
182057,-200,4,2,2,55,0,0
182264,-66.6666666666667,4,2,2,55,0,0
182471,-83.3333333333333,4,2,2,55,0,0
182678,-200,4,2,2,55,0,0
183092,-66.6666666666667,4,2,2,55,0,0
184126,-83.3333333333333,4,2,2,55,0,0
184540,-66.6666666666667,4,2,2,55,0,0
184954,-83.3333333333333,4,2,2,55,0,0
185367,-200,4,2,2,55,0,0
185574,-66.6666666666667,4,2,2,55,0,0
185781,-83.3333333333333,4,2,2,55,0,0
185988,-200,4,2,2,55,0,0
186402,-66.6666666666667,4,2,2,55,0,0
186816,-100,4,2,2,55,0,0
187540,-100,4,2,2,5,0,0
187644,-83.3333333333333,4,2,2,40,0,0
187747,-83.3333333333333,4,2,2,5,0,0
188678,-83.3333333333333,4,2,2,40,0,0
190126,-125,4,2,2,40,0,0
190851,-125,4,2,2,5,0,0
190954,-83.3333333333333,4,2,2,40,0,0
191057,-83.3333333333333,4,2,2,5,0,0
191782,-125,4,2,2,40,0,0
194161,-125,4,2,2,5,0,0
194264,-83.3333333333333,4,2,2,40,0,0
194368,-83.3333333333333,4,2,2,5,0,0
195299,-125,4,2,2,40,0,0
197471,-125,4,2,2,5,0,0
197575,-83.3333333333333,4,2,2,40,0,0
197678,-83.3333333333333,4,2,2,5,0,0
198402,-83.3333333333333,4,2,2,40,0,0
200057,-166.666666666667,4,2,2,40,0,0
201299,-333.333333333334,4,2,2,40,0,0
204195,-166.666666666667,4,2,2,40,0,0
204506,-166.666666666667,4,2,2,5,0,0
204609,-111.111111111111,4,2,2,40,0,0
204919,-111.111111111111,4,2,2,5,0,0
205023,-222.222222222222,4,2,2,40,0,0
205747,-222.222222222222,4,2,2,5,0,0
205851,-166.666666666667,4,2,2,40,0,0
206575,-166.666666666667,4,2,2,5,0,0
206678,-111.111111111111,4,2,2,40,0,0
208126,-499.999999999997,4,2,2,40,0,0
208747,-999.99999999999,4,2,2,30,0,0
208954,-999.99999999999,4,2,2,5,0,0
209988,-333.333333333333,4,2,2,25,0,0
210609,-500,4,2,2,15,0,0
211230,-1000,4,2,2,10,0,0
214540,-200,4,2,2,10,0,0
215782,-333.333333333333,4,2,2,10,0,0
216195,-500,4,2,2,10,0,0
216609,-1000,4,2,2,10,0,0
222195,-666.666666666667,4,2,1,5,0,0
223437,-666.666666666667,4,3,1,5,0,0
223540,-666.666666666667,4,2,1,5,0,0
224678,-666.666666666667,4,3,1,5,0,0
224782,-666.666666666667,4,2,1,5,0,0
225919,-666.666666666667,4,3,1,5,0,0
226023,-666.666666666667,4,2,1,5,0,0
227368,-666.666666666667,4,2,1,10,0,0

[Colours]
Combo1 : 88,245,139
Combo2 : 255,233,72
Combo3 : 77,223,249
Combo4 : 247,187,214

[HitObjects]
0,134,610,6,0,P|51:164|84:215,1,121.499996292114,4|0,0:3|0:0,0:0:0:0:
84,215,1023,1,0,0:0:0:0:
159,239,1230,2,0,P|171:207|169:149,1,80.9999975280763,4|0,0:3|0:0,0:0:0:0:
344,104,1644,6,0,B|351:135|354:108|362:138,1,40.4999987640381,0|2,0:0|0:3,0:0:0:0:
250,51,1851,2,0,B|257:82|260:55|268:85,1,40.4999987640381,8|2,0:0|0:3,0:0:0:0:
268,85,2265,5,4,0:3:0:0:
406,49,2472,1,4,0:3:0:0:
482,169,2678,1,10,0:0:0:0:
412,197,2885,5,4,0:3:0:0:
482,169,3092,5,2,0:0:0:0:
255,109,3299,1,0,0:0:0:0:
130,306,3506,1,10,0:0:0:0:
130,306,3920,6,0,P|145:240|146:173,2,135,4|0|8,0:3|0:0|0:0,0:0:0:0:
234,247,4541,2,0,P|218:297|218:334,1,80.9999975280763,4|0,0:3|0:0,0:0:0:0:
428,352,4954,6,0,B|396:358|423:363|392:368,1,40.4999987640381,0|2,0:0|0:3,0:0:0:0:
488,262,5161,2,0,B|456:268|483:273|452:278,1,40.4999987640381,10|2,0:0|0:3,0:0:0:0:
452,278,5575,5,2,0:0:0:0:
384,249,5782,2,0,P|346:257|304:295,1,80.9999975280763,4|8,0:3|0:0,0:0:0:0:
256,380,6196,2,0,P|212:380|127:298,1,162,4|0,0:3|0:0,0:0:0:0:
129,305,6610,6,0,L|121:271,3,20.2499993820191,8|8|8|8,0:3|0:3|0:3|0:3,0:3:0:0:
107,212,6816,1,8,0:0:0:0:
107,212,7023,2,0,L|97:172,1,40.4999987640381,0|4,0:0|0:3,0:0:0:0:
61,31,7230,6,0,P|100:32|151:83,1,101.25,6|0,0:0|0:0,0:0:0:0:
107,211,7644,6,0,P|150:121|221:49,1,202.500007724762,8|4,0:0|0:3,0:0:0:0:
286,10,7954,1,0,0:0:0:0:
290,17,8058,6,0,P|296:49|288:82,1,67.5
288,82,8265,6,0,B|293:124|300:88|308:130,1,54,0|2,0:0|0:3,0:0:0:0:
477,23,8472,2,0,B|482:65|489:29|497:71,1,54,8|2,0:0|0:3,0:0:0:0:
497,71,8885,5,4,0:3:0:0:
372,43,9092,1,4,0:3:0:0:
410,165,9299,1,8,0:0:0:0:
426,89,9506,5,4,0:3:0:0:
410,165,9713,2,0,P|433:217|429:278,1,108
497,311,10023,1,0,0:0:0:0:
503,305,10127,2,0,P|436:304|352:365,1,162,8|0,0:0|0:0,0:0:0:0:
358,354,10541,5,4,0:3:0:0:
210,205,10747,2,0,P|196:243|199:278,1,67.5
266,310,10954,2,0,P|285:267|280:204,1,101.250003862381,8|0,0:0|0:0,0:0:0:0:
129,306,11161,2,0,P|103:326|63:326,1,67.5,4|0,0:3|0:0,0:0:0:0:
9,280,11368,1,0,0:0:0:0:
9,280,11575,6,0,B|51:287|15:294|57:300,1,54,0|2,0:0|0:3,0:0:0:0:
45,80,11782,2,0,B|87:87|51:94|93:100,1,54,8|2,0:0|0:3,0:0:0:0:
92,100,12196,5,4,0:3:0:0:
60,173,12403,1,4,0:3:0:0:
119,225,12610,1,8,0:0:0:0:
186,184,12816,5,4,0:3:0:0:
119,225,13023,5,0,0:0:0:0:
224,82,13231,1,0,0:0:0:0:
392,137,13437,1,8,0:0:0:0:
392,137,13851,6,0,P|440:107|445:4,1,162,4|0,0:3|0:0,0:0:0:0:
328,91,14265,6,0,P|370:161|375:304,1,202.500007724762,8|4,0:0|0:3,0:0:0:0:
326,328,14575,1,0,0:0:0:0:
320,322,14678,6,0,P|307:291|309:257,1,67.5
309,258,14885,6,0,B|302:216|295:252|289:210,1,54,0|2,0:0|0:3,0:0:0:0:
509,222,15092,2,0,B|502:180|495:216|489:174,1,54,8|2,0:0|0:3,0:0:0:0:
489,174,15506,5,4,0:3:0:0:
429,219,15713,1,4,0:3:0:0:
455,289,15920,1,8,0:0:0:0:
418,225,16127,5,4,0:3:0:0:
455,289,16334,5,0,0:0:0:0:
342,140,16541,1,0,0:0:0:0:
166,201,16747,2,0,P|128:172|-1:154,1,162,8|0,0:0|0:0,0:0:0:0:
17,150,17161,5,4,0:3:0:0:
117,218,17368,2,0,P|145:214|171:192,1,54
204,107,17575,2,0,P|160:107|116:149,1,101.250003862381,8|0,0:0|0:0,0:0:0:0:
219,294,17782,2,0,P|234:257|222:200,1,67.5,4|0,0:3|0:0,0:0:0:0:
293,184,17989,1,0,0:0:0:0:
293,184,18196,6,0,B|335:177|299:170|341:164,1,54,0|2,0:0|0:3,0:0:0:0:
329,384,18403,2,0,B|371:377|335:370|377:364,1,54,8|2,0:0|0:3,0:0:0:0:
376,364,18816,5,0,0:0:0:0:
394,292,19023,1,4,0:3:0:0:
448,382,19230,1,8,0:0:0:0:
466,310,19437,5,4,0:3:0:0:
448,382,19644,5,0,0:0:0:0:
401,196,19851,1,0,0:0:0:0:
216,243,20058,1,8,0:0:0:0:
216,243,20472,6,0,P|181:148|107:81,1,202.5,6|0,0:0|0:0,0:0:0:0:
107,81,20885,1,8,0:0:0:0:
47,130,21092,6,0,P|41:171|7:226,1,101.25,4|0,0:3|0:0,0:0:0:0:
10,221,21506,1,0,0:0:0:0:
152,309,21713,1,10,0:0:0:0:
136,237,21920,1,0,0:0:0:0:
152,309,22127,6,0,P|214:304|358:364,1,202.5,4|0,0:3|0:0,0:0:0:0:
343,351,22541,1,8,0:0:0:0:
294,188,22747,6,0,P|326:208|359:268,1,101.25,4|0,0:3|0:0,0:0:0:0:
358,261,23161,1,0,0:0:0:0:
512,238,23368,6,0,B|516:288|466:322|482:288|423:330|446:392,1,161.999995056153,10|0,0:0|0:0,0:0:0:0:
436,240,23782,6,0,P|433:161|463:80,1,162,4|0,0:3|0:0,0:0:0:0:
460,83,24196,1,8,0:0:0:0:
312,151,24403,1,4,0:3:0:0:
353,36,24610,6,0,P|355:136|318:230,1,202.5
247,249,25023,2,0,P|205:209|193:153,1,108,8|0,0:0|0:0,0:0:0:0:
101,83,25437,6,0,P|179:142|275:123,1,202.5,4|0,0:3|0:0,0:0:0:0:
275,123,25851,1,8,0:0:0:0:
228,64,26058,1,4,0:3:0:0:
269,1,26265,5,2,0:0:0:0:
193,162,26472,1,4,0:3:0:0:
322,284,26678,1,8,0:0:0:0:
322,284,26885,2,0,P|379:249|445:238,1,135,0|4,0:0|0:3,0:0:0:0:
450,242,27506,6,0,P|450:263|439:285,1,40.4999987640381,10|0,0:0|0:0,0:0:0:0:
271,379,27920,2,0,P|271:358|260:336,1,40.4999987640381,2|0,0:1|0:0,0:0:0:0:
263,340,28334,1,0,0:0:0:0:
211,286,28541,6,0,P|194:276|180:276,1,27,2|0,0:1|0:0,0:0:0:0:
41,351,28954,1,2,0:1:0:0:
111,279,29161,2,0,P|93:285|84:295,1,27,10|0,0:0|0:0,0:0:0:0:
271,379,29575,6,0,P|278:360|278:340,1,40.4999987640381,2|0,0:1|0:0,0:0:0:0:
450,242,29989,2,0,P|457:260|457:280,1,40.4999987640381,10|0,0:0|0:0,0:0:0:0:
453,286,30403,6,0,P|386:225|268:229,1,202.5,4|0,0:3|0:0,0:0:0:0:
278,224,30816,1,8,0:0:0:0:
208,194,31023,6,0,P|186:159|187:84,1,101.25,4|0,0:3|0:0,0:0:0:0:
181,100,31437,1,0,0:0:0:0:
315,68,31644,2,0,P|337:103|336:178,1,108,8|0,0:0|0:0,0:0:0:0:
111,73,32058,6,0,P|111:52|120:34,2,40.4999987640381,4|4|8,0:3|0:3|0:0,0:0:0:0:
410,195,32678,2,0,P|409:215|400:233,1,40.4999987640381,4|0,0:3|0:0,0:0:0:0:
330,253,33092,1,4,0:3:0:0:
330,253,33299,2,0,P|315:265|303:268,1,27,8|0,0:0|0:0,0:0:0:0:
256,192,34747,12,0,36196,0:0:0:0:
242,280,37230,5,8,3:0:0:0:
178,236,37334,1,8,3:0:0:0:
172,159,37437,1,4,3:0:0:0:
229,106,37541,1,4,3:0:0:0:
306,118,37644,1,4,3:0:0:0:
344,185,37747,1,4,3:0:0:0:
316,257,37851,6,0,P|384:209|523:196,2,202.500007724762,6|0|8,1:2|0:0|0:1,0:0:0:0:
124,378,38471,1,4,0:3:0:0:
124,378,38678,6,0,P|110:348|111:305,1,67.5
242,280,38885,2,0,P|256:310|255:353,1,67.5
183,329,39092,1,8,0:1:0:0:
33,289,39299,2,0,P|39:245|83:169,1,101.250003862381
126,122,39506,5,0,0:0:0:0:
126,122,39713,2,0,L|116:78,1,33.75,0|0,3:0|0:0,0:0:0:0:
62,193,39919,6,0,L|161:212,1,101.250003862381,8|0,0:1|0:0,0:0:0:0:
182,18,40126,2,0,L|83:-1,1,101.250003862381,8|0,0:1|0:0,0:0:0:0:
29,53,40333,5,0,3:0:0:0:
214,157,40540,1,0,3:0:0:0:
370,8,40747,2,0,P|389:44|384:92,1,80.9999975280763,8|0,0:1|0:0,0:0:0:0:
315,103,40954,2,0,P|296:74|299:36,1,67.5
465,99,41161,6,0,P|386:108|306:223,1,202.5,0|0,3:0|0:0,0:0:0:0:
309,197,41575,1,8,0:1:0:0:
395,349,41782,2,0,P|459:370|399:338,1,202.500007724762,4|0,0:3|0:0,0:0:0:0:
395,349,42195,6,0,B|403:313|378:288|385:306|363:277|378:239,1,101.250003862381
497,123,42402,2,0,B|461:134|452:168|464:153|450:186|410:192,1,101.250003862381,8|0,0:1|0:0,0:0:0:0:
251,147,42609,2,0,B|278:171|312:162|293:159|329:155|354:187,1,101.250003862381
320,345,42816,6,0,P|287:352|254:372,1,67.5
192,332,43023,1,0,3:0:0:0:
61,229,43230,2,0,P|104:254|154:256,1,101.250003862381,8|0,0:1|0:0,0:0:0:0:
0,285,43437,1,0,0:0:0:0:
69,381,43644,5,0,3:0:0:0:
69,381,43851,2,0,P|83:354|76:316,1,54
253,251,44057,2,0,P|239:202|180:202,1,101.250003862381,8|0,0:1|0:0,0:0:0:0:
121,186,44264,2,0,P|126:225|153:254,1,80.9999975280763,0|0,3:0|0:0,0:0:0:0:
269,379,44471,6,0,P|360:302|480:288,1,242.999992584229,6|0,1:0|0:0,0:0:0:0:
499,359,44885,2,0,P|463:380|421:378,1,80.9999975280763,8|0,0:1|0:0,0:0:0:0:
300,221,45092,2,0,P|327:158|310:224,1,202.500007724762,4|0,0:3|0:0,0:0:0:0:
300,221,45506,6,0,B|300:184|271:164|281:180|254:156|262:116,1,101.250003862381
162,295,45713,2,0,B|181:263|165:231|166:251|155:216|181:185,1,101.250003862381,8|0,0:1|0:0,0:0:0:0:
8,284,45919,2,0,B|40:266|42:231|33:248|41:212|79:199,1,101.250003862381
220,348,46126,5,0,0:0:0:0:
220,348,46333,2,0,P|193:367|158:371,1,67.5,0|0,3:0|0:0,0:0:0:0:
5,147,46540,6,0,B|-10:93|-10:93|22:156,1,101.250003862381,8|0,0:1|0:0,0:0:0:0:
156,281,46747,2,0,B|141:335|141:335|173:272,1,101.250003862381
215,237,46954,5,0,3:0:0:0:
430,310,47161,1,0,3:0:0:0:
386,88,47368,2,0,P|341:105|317:142,1,80.9999975280763,8|0,0:1|0:0,0:0:0:0:
345,204,47575,2,0,P|336:236|351:277,1,67.5
500,197,47782,6,0,P|429:197|306:106,1,202.5,0|0,3:0|0:0,0:0:0:0:
320,129,48195,1,8,0:1:0:0:
158,47,48402,2,0,P|94:26|154:58,1,202.500007724762,4|0,0:3|0:0,0:0:0:0:
158,47,48816,5,0,0:0:0:0:
203,49,48919,1,0,0:0:0:0:
234,15,49022,5,8,0:1:0:0:
216,92,49126,1,0,0:0:0:0:
256,158,49230,1,0,3:0:0:0:
330,176,49333,1,0,0:0:0:0:
398,142,49437,6,0,L|410:91,2,40.4999987640381,8|0|0,0:1|0:0|0:0,0:0:0:0:
347,328,49644,2,0,P|326:290|330:244,1,80.9999975280763,0|0,3:0|0:0,0:0:0:0:
419,309,49851,2,0,P|418:268|398:234,1,80.9999975280763,0|0,3:0|0:0,0:0:0:0:
354,39,50057,6,0,L|366:-12,2,40.4999987640381,8|0|0,0:1|0:0|0:0,0:0:0:0:
234,275,50264,2,0,P|240:232|270:197,1,80.9999975280763,0|0,3:0|0:0,0:0:0:0:
502,308,50471,2,0,P|497:347|473:379,1,80.9999975280763,0|0,3:0|0:0,0:0:0:0:
188,348,50678,6,0,L|107:363,1,67.5,6|2,1:2|0:1,0:0:0:0:
197,153,51092,6,0,L|153:190,1,40.4999987640381,0|2,0:0|0:1,0:0:0:0:
149,55,51506,6,0,L|139:82,1,27,0|2,0:0|0:1,0:0:0:0:
79,7,51919,6,0,L|82:24,3,13.5,0|2|0|2,0:0|0:1|0:0|0:1,0:0:0:0:
110,317,54402,6,0,L|122:260,1,33.75,4|0,1:2|0:0,0:0:0:0:
155,119,54609,2,0,B|143:108|143:108|64:129,1,80.9999975280763
136,193,54816,1,8,0:1:0:0:
136,193,55023,6,0,B|144:209|144:209|228:228,1,67.5,0|0,3:0|0:0,0:0:0:0:
200,297,55230,2,0,B|216:302|216:302|298:250,1,80.9999975280763
345,332,55437,2,0,B|360:323|360:323|381:228,1,80.9999975280763
494,150,55644,1,8,0:1:0:0:
494,150,56264,6,0,L|484:198,1,33.75,0|0,3:0|0:0,0:0:0:0:
318,82,56471,1,8,0:1:0:0:
318,82,56678,2,0,B|330:74|330:74|384:90,1,54
435,236,56885,6,0,B|443:252|443:252|423:328,1,80.9999975280763,0|0,3:0|0:0,0:0:0:0:
354,332,57092,1,0,3:0:0:0:
512,383,57299,1,8,0:1:0:0:
195,362,57713,5,0,3:0:0:0:
195,362,57919,2,0,B|184:355|184:355|172:305,1,54
222,169,58126,1,8,0:1:0:0:
303,292,58333,5,0,3:0:0:0:
303,292,58540,2,0,B|293:274|293:274|236:256,1,54
150,205,58747,2,0,B|140:224|140:224|62:252,1,80.9999975280763
147,71,58954,6,0,L|156:45,1,27,10|2,0:1|0:1,0:0:0:0:
156,46,59575,6,0,L|119:59,1,33.75,0|0,3:0|0:0,0:0:0:0:
245,149,59782,1,8,0:1:0:0:
245,149,60195,6,0,B|256:131|256:131|341:109,1,80.9999975280763,0|0,3:0|0:0,0:0:0:0:
273,48,60402,2,0,B|284:30|284:30|369:8,1,80.9999975280763,0|0,3:0|0:0,0:0:0:0:
494,111,60609,6,0,B|471:166|471:166|421:12,2,202.500007724762,8|0|0,0:1|3:0|3:0,0:0:0:0:
494,111,61230,6,0,B|477:99|477:99|400:125,1,80.9999975280763
368,296,61437,1,8,0:1:0:0:
347,225,61644,2,0,L|334:177,1,33.75,0|0,3:0|0:0,0:0:0:0:
445,308,61851,6,0,B|490:330|490:330|413:324,1,101.250003862381,2|0,0:0|0:0,0:0:0:0:
312,356,62057,1,0,0:0:0:0:
245,245,62264,2,0,B|234:266|234:266|80:310,1,161.999995056153,8|0,0:1|0:0,0:0:0:0:
101,303,62885,6,0,L|144:312,1,33.75,0|0,3:0|0:0,0:0:0:0:
287,333,63092,1,8,0:1:0:0:
287,333,63299,2,0,B|302:344|302:344|310:388,1,54
172,240,63506,6,0,B|157:229|157:229|149:185,1,54,0|0,3:0|0:0,0:0:0:0:
203,136,63713,2,0,B|198:117|198:117|220:79,1,54,0|0,3:0|0:0,0:0:0:0:
373,8,63919,2,0,B|413:117|413:117|365:90,1,161.999995056153,8|0,0:1|0:0,0:0:0:0:
373,94,64333,6,0,L|382:56,1,33.75,0|0,3:0|0:0,0:0:0:0:
459,17,64540,2,0,B|496:24|496:24|505:37,1,54
432,160,64747,2,0,B|422:174|422:174|343:196,1,80.9999975280763,8|0,0:1|0:0,0:0:0:0:
288,211,64954,2,0,B|270:226|270:226|254:316,1,108,0|0,3:0|0:0,0:0:0:0:
473,373,65575,5,8,0:1:0:0:
453,300,65782,2,0,B|444:287|444:287|406:276,1,54
321,361,65988,1,0,0:0:0:0:
321,361,66195,2,0,B|312:374|312:374|274:385,1,54,0|0,3:0|0:0,0:0:0:0:
90,248,66402,6,0,B|105:265|105:265|259:300,2,161.999995056153,8|0|0,0:1|0:0|0:0,0:0:0:0:
90,248,67230,6,0,B|71:261|71:261|56:350,1,101.250003862381,8|0,0:1|0:0,0:0:0:0:
223,213,67437,2,0,L|209:142,1,54,0|0,3:0|0:0,0:0:0:0:
164,27,67644,5,6,0:2:0:0:
66,140,67851,2,0,B|79:158|79:158|148:179,1,80.9999975280763
303,218,68057,1,8,0:1:0:0:
303,218,68264,6,0,P|364:116|489:108,1,242.999992584229,0|0,3:0|0:0,0:0:0:0:
512,173,68678,2,0,B|515:224|515:224|493:179,1,101.250003862381,2|0,0:0|0:0,0:0:0:0:
326,103,68885,1,8,0:1:0:0:
326,103,69092,6,0,P|381:104|413:161,1,101.250003862381
432,306,69299,2,0,P|405:257|438:201,1,101.250003862381
478,104,69506,2,0,L|488:60,1,33.75,0|0,3:0|0:0,0:0:0:0:
341,191,69713,5,8,0:1:0:0:
300,85,69919,2,0,B|288:72|288:72|232:55,1,54
65,63,70126,6,0,B|50:95|50:95|70:144,1,80.9999975280763,0|0,3:0|0:0,0:0:0:0:
177,104,70333,2,0,B|170:58|170:58|141:38,1,80.9999975280763,0|0,3:0|0:0,0:0:0:0:
61,153,70540,2,0,B|73:175|73:175|225:214,1,161.999995056153,8|0,0:1|0:0,0:0:0:0:
245,337,70954,5,0,3:0:0:0:
215,223,71161,2,0,B|201:236|201:236|192:282,1,54
61,343,71368,2,0,B|101:350|101:350|139:315,1,80.9999975280763,8|0,0:1|0:0,0:0:0:0:
295,262,71575,2,0,B|346:252|346:252|396:298,1,108,0|0,3:0|0:0,0:0:0:0:
505,370,72195,5,8,0:1:0:0:
464,236,72402,2,0,B|450:226|450:226|440:164,1,54
370,181,72609,2,0,B|365:164|365:164|397:110,1,54
478,13,72816,5,0,3:0:0:0:
478,13,73023,2,0,B|465:32|465:32|317:64,1,161.999995056153,8|0,0:1|0:0,0:0:0:0:
176,94,73437,5,0,3:0:0:0:
244,51,73644,2,0,B|256:76|256:76|250:117,1,54
112,139,73851,2,0,B|96:104|96:104|108:36,1,80.9999975280763,8|0,0:1|0:0,0:0:0:0:
296,168,74057,1,0,3:0:0:0:
108,283,74264,5,0,3:0:0:0:
108,283,74471,2,0,B|92:297|92:297|84:347,1,54
284,383,74678,2,0,B|295:361|295:361|278:277,1,80.9999975280763,8|0,0:1|0:0,0:0:0:0:
151,368,74885,2,0,B|214:351|214:351|185:388,1,108
312,280,75506,6,0,B|420:305|420:305|365:239,1,161.999995056153,8|0,0:1|0:0,0:0:0:0:
387,265,76126,6,0,L|437:254,1,33.75,0|0,3:0|0:0,0:0:0:0:
244,207,76333,1,8,0:1:0:0:
362,337,76540,1,0,0:0:0:0:
416,168,76747,6,0,B|404:157|404:157|393:104,1,54,0|0,3:0|0:0,0:0:0:0:
320,127,76954,2,0,B|308:116|308:116|297:63,1,54,0|0,3:0|0:0,0:0:0:0:
436,3,77161,1,8,0:1:0:0:
512,139,77368,1,0,0:0:0:0:
505,156,77471,1,0,0:0:0:0:
498,173,77575,6,0,B|486:187|486:187|433:201,1,54,0|0,3:0|0:0,0:0:0:0:
387,265,77782,2,0,B|375:248|375:248|304:226,1,67.5
156,154,77988,1,8,0:1:0:0:
156,154,78195,2,0,B|177:161|177:161|285:137,1,108,0|0,3:0|0:0,0:0:0:0:
260,143,78816,6,0,B|270:105|270:105|233:70,1,80.9999975280763,8|0,0:1|0:0,0:0:0:0:
48,125,79023,1,0,3:0:0:0:
53,111,79230,6,0,B|38:99|38:99|26:38,1,80.9999975280763,8|0,0:1|0:0,0:0:0:0:
148,129,79437,1,0,3:0:0:0:
145,141,79644,1,0,3:0:0:0:
200,282,79851,6,0,B|185:294|185:294|173:355,1,80.9999975280763,8|0,0:1|0:0,0:0:0:0:
295,264,80058,1,0,3:0:0:0:
292,252,80265,1,0,3:0:0:0:
420,149,80471,6,0,B|433:169|433:169|523:191,1,101.25,8|0,0:1|0:0,0:0:0:0:
512,192,80885,6,0,P|464:85|348:67,1,242.999992584229,6|0,1:0|0:0,0:0:0:0:
276,96,81299,6,0,P|217:133|273:86,1,229.500004377365,10|0,0:1|3:0,0:0:0:0:
410,161,81609,1,0,0:0:0:0:
420,149,81713,6,0,P|417:186|382:224,1,67.5,2|0,0:1|0:0,0:0:0:0:
330,243,81919,1,0,0:0:0:0:
468,384,82126,2,0,P|382:331|282:318,1,202.500007724762,8|0,0:1|0:0,0:0:0:0:
283,318,82540,6,0,P|299:354|337:362,1,80.9999975280763,2|0,0:0|0:0,0:0:0:0:
400,315,82747,1,0,3:0:0:0:
305,217,82954,2,0,P|261:194|198:194,1,101.250003862381,8|0,0:1|0:0,0:0:0:0:
144,222,83161,2,0,P|117:252|106:291,1,80.9999975280763,2|0,0:0|0:0,0:0:0:0:
125,362,83368,6,0,L|167:373,1,33.75,0|0,3:0|0:0,0:0:0:0:
43,157,83575,2,0,L|85:168,1,33.75,0|0,3:0|0:0,0:0:0:0:
220,203,83782,6,0,B|207:222|207:222|33:267,2,202.500007724762,8|0|0,0:1|0:0|3:0,0:0:0:0:
220,203,84402,6,0,P|202:170|208:117,1,80.9999975280763
275,94,84609,2,0,P|294:140|292:190,1,101.250003862381,10|0,0:1|0:0,0:0:0:0:
77,33,84816,2,0,P|108:66|176:50,1,101.250003862381,0|0,3:0|0:0,0:0:0:0:
299,105,85023,6,0,B|333:75|391:99|391:99|327:73|325:24,1,202.500007724762,2|0,0:1|0:0,0:0:0:0:
407,235,85333,1,0,0:0:0:0:
413,247,85437,2,0,B|447:217|505:241|505:241|441:215|439:166,1,202.500007724762,10|0,0:1|0:0,0:0:0:0:
501,127,85851,6,0,P|476:103|415:99,1,80.9999975280763,2|0,0:0|0:0,0:0:0:0:
353,183,86057,1,0,3:0:0:0:
406,378,86264,2,0,P|449:373|519:337,1,101.250003862381,8|0,0:1|0:0,0:0:0:0:
484,272,86471,6,0,P|457:250|406:249,1,80.9999975280763,2|0,0:0|0:0,0:0:0:0:
261,334,86678,1,0,3:0:0:0:
245,327,86885,1,0,0:0:0:0:
325,281,87092,6,0,B|343:314|343:314|324:382,1,101.250003862381,8|0,0:1|0:0,0:0:0:0:
167,349,87299,2,0,B|171:286|171:286|200:261,1,101.250003862381,0|0,3:0|0:0,0:0:0:0:
60,135,87506,6,0,B|156:107|237:184|237:184|191:113,1,242.999992584229,6|0,1:0|0:0,0:0:0:0:
234,70,87919,6,0,P|243:1|243:74,1,229.500004377365,2|0,0:1|3:0,0:0:0:0:
126,169,88230,1,0,0:0:0:0:
135,158,88333,6,0,P|128:189|98:217,1,67.5,2|0,0:1|0:0,0:0:0:0:
31,234,88540,1,0,0:0:0:0:
272,362,88747,2,0,P|271:262|211:182,1,202.500007724762,8|0,0:1|0:0,0:0:0:0:
211,182,89161,6,0,P|214:221|236:255,1,80.9999975280763,2|0,0:0|0:0,0:0:0:0:
306,282,89368,1,0,3:0:0:0:
475,139,89575,2,0,P|438:103|370:116,1,101.250003862381,8|0,0:1|0:0,0:0:0:0:
357,170,89782,2,0,P|327:196|287:198,1,80.9999975280763,2|0,0:0|0:0,0:0:0:0:
387,22,89988,6,0,L|345:11,1,33.75,0|0,3:0|0:0,0:0:0:0:
469,227,90195,2,0,L|427:216,1,33.75,0|0,3:0|0:0,0:0:0:0:
284,50,90402,6,0,L|160:17,1,101.250003862381,8|0,0:1|0:0,0:0:0:0:
301,128,90609,1,0,0:0:0:0:
115,9,90816,6,0,B|183:63|164:156|164:156|148:128|122:123,1,202.500007724762,4|0,3:2|0:0,0:0:0:0:
35,120,91126,1,0,0:0:0:0:
32,137,91230,2,0,P|53:185|127:177,1,101.250003862381,8|0,0:1|0:0,0:0:0:0:
141,260,91437,6,0,P|221:260|290:300,1,161.999995056153,0|0,3:0|0:0,0:0:0:0:
88,334,91747,1,0,0:0:0:0:
82,321,91851,2,0,P|168:372|269:376,1,202.500007724762,0|8,0:0|0:1,0:0:0:0:
313,164,92264,2,0,P|338:207|342:250,1,80.9999975280763
432,370,92471,5,2,3:1:0:0:
493,322,92678,2,0,P|475:293|416:305,1,80.9999975280763,0|0,3:0|0:0,0:0:0:0:
240,170,92885,2,0,P|245:219|270:263,1,101.250003862381
329,311,93092,1,2,0:1:0:0:
122,374,93299,6,0,P|111:298|184:235,1,161.999995056153,0|0,3:0|0:0,0:0:0:0:
165,239,93713,2,0,P|153:302|104:292,1,101.250003862381,8|0,0:1|0:0,0:0:0:0:
12,383,93919,2,0,L|27:344,1,33.75,0|0,3:0|0:0,0:0:0:0:
151,55,94126,6,0,B|129:8|129:8|64:51|73:153|152:196,1,242.999992584229,6|0,1:0|0:0,0:0:0:0:
165,239,94540,6,0,P|199:307|158:244,1,229.500004377365,2|0,0:1|3:0,0:0:0:0:
210,119,94851,1,0,0:0:0:0:
196,126,94954,6,0,P|219:102|268:95,1,67.5,2|0,0:1|0:0,0:0:0:0:
304,35,95161,1,0,0:0:0:0:
260,173,95368,2,0,P|359:176|441:233,1,202.500007724762,8|0,0:1|0:0,0:0:0:0:
441,233,95782,6,0,P|435:269|393:286,1,80.9999975280763,2|0,0:0|0:0,0:0:0:0:
327,265,95988,1,0,3:0:0:0:
123,343,96195,2,0,P|168:362|231:356,1,101.250003862381,8|0,0:1|0:0,0:0:0:0:
282,323,96402,2,0,P|306:290|313:250,1,80.9999975280763,2|0,0:0|0:0,0:0:0:0:
292,181,96609,6,0,L|250:170,1,33.75,0|0,3:0|0:0,0:0:0:0:
403,373,96816,2,0,L|361:362,1,33.75,0|0,3:0|0:0,0:0:0:0:
197,226,97023,6,0,B|177:215|177:215|2:257,2,202.500007724762,8|0|0,0:1|0:0|3:0,0:0:0:0:
197,226,97644,6,0,P|201:257|181:304,1,80.9999975280763
107,308,97851,2,0,P|100:271|123:214,1,101.250003862381,10|0,0:1|0:0,0:0:0:0:
262,328,98057,2,0,P|291:365|351:354,1,101.250003862381,0|0,3:0|0:0,0:0:0:0:
470,262,98264,6,0,B|503:271|508:315|508:315|454:257|382:279,1,202.500007724762,2|0,0:1|0:0,0:0:0:0:
339,143,98575,1,0,0:0:0:0:
346,132,98678,2,0,B|379:141|384:185|384:185|330:127|258:149,1,202.500007724762,10|0,0:1|0:0,0:0:0:0:
210,197,99092,6,0,P|243:218|283:217,1,80.9999975280763,2|0,0:0|0:0,0:0:0:0:
308,65,99299,1,0,3:0:0:0:
170,0,99506,2,0,P|118:2|67:36,1,101.250003862381,8|0,0:1|0:0,0:0:0:0:
41,93,99713,5,2,0:0:0:0:
135,254,99919,1,0,3:0:0:0:
140,237,100126,1,0,0:0:0:0:
206,180,100333,6,0,B|236:236|236:236|222:271,1,101.250003862381,8|0,0:1|0:0,0:0:0:0:
77,308,100540,2,0,B|50:282|50:282|56:218,1,101.250003862381,0|0,3:0|0:0,0:0:0:0:
214,263,100747,6,0,B|273:236|321:293|299:280|339:347|417:308,1,202.500007724762,6|0,1:0|0:0,0:0:0:0:
456,263,101057,1,0,0:0:0:0:
468,278,101161,2,0,P|468:247|435:204,1,80.9999975280763,8|0,0:1|0:0,0:0:0:0:
206,339,101368,6,0,P|274:265|371:241,1,202.500007724762,2|0,3:1|0:0,0:0:0:0:
330,101,101782,2,0,P|375:104|417:136,1,80.9999975280763
445,187,101988,1,8,0:1:0:0:
396,315,102195,6,0,P|373:334|336:337,1,54
283,304,102402,1,2,0:0:0:0:
283,304,102609,2,0,L|294:263,1,33.75,0|0,3:0|0:0,0:0:0:0:
329,101,102816,6,0,P|290:69|227:76,1,101.250003862381,8|0,0:1|0:0,0:0:0:0:
306,174,103023,2,0,P|266:175|234:151,1,80.9999975280763,2|0,0:0|0:0,0:0:0:0:
126,8,103230,6,0,L|158:0,1,33.75,0|0,3:0|0:0,0:0:0:0:
44,213,103437,2,0,L|86:202,1,33.75,0|0,3:0|0:0,0:0:0:0:
54,25,103644,6,0,L|31:139,1,101.250003862381,8|0,0:1|0:0,0:0:0:0:
148,187,103851,1,0,0:0:0:0:
304,32,104057,6,0,B|312:-23|384:-25|406:39|375:102|306:103,1,202.500007724762,6|0,1:0|0:0,0:0:0:0:
230,214,104368,1,0,0:0:0:0:
239,223,104471,2,0,P|275:191|342:183,1,101.250003862381,8|0,0:1|0:0,0:0:0:0:
459,309,104678,6,0,P|380:308|312:264,1,161.999995056153,0|0,3:0|0:0,0:0:0:0:
495,176,104988,1,0,0:0:0:0:
505,169,105092,2,0,P|427:107|328:99,1,202.500007724762,0|8,0:0|0:1,0:0:0:0:
246,301,105506,2,0,P|234:262|239:223,1,80.9999975280763
134,45,105713,5,6,1:0:0:0:
134,45,105919,2,0,L|123:98,1,33.75,0|0,3:0|0:0,0:0:0:0:
160,319,106126,2,0,P|160:278|128:215,1,101.250003862381,8|0,0:1|0:0,0:0:0:0:
111,150,106333,1,0,0:0:0:0:
246,301,106540,6,0,L|278:309,1,33.75,0|0,3:0|0:0,0:0:0:0:
28,240,106747,2,0,L|60:248,1,33.75,0|0,3:0|0:0,0:0:0:0:
264,183,106954,6,0,B|283:197|283:197|323:374,2,202.500007724762,8|0|6,0:1|0:0|1:0,0:0:0:0:
417,104,107782,1,8,0:1:0:0:
391,245,107988,6,0,B|379:224|379:224|410:82,1,161.999995056153,2|0,0:0|0:0,0:0:0:0:
409,89,108402,2,0,P|419:117|416:148,1,54
493,261,108609,2,0,P|461:232|395:239,1,101.250003862381,8|0,0:1|0:0,0:0:0:0:
334,53,108816,6,2,P|261:123|138:96,1,202.5,4|0,3:2|0:0,0:1:0:0:
165,115,109023,6,0,B|159:88|159:88|193:79,1,54,8|0,3:0|0:0,0:0:0:0:
327,11,109230,6,0,P|329:38|316:62,1,54
187,210,109437,1,8,0:1:0:0:
187,210,109644,6,0,P|167:227|141:233,1,54
72,202,109851,1,0,3:0:0:0:
51,130,110057,2,0,P|59:104|78:86,1,54
185,364,110264,6,0,P|103:306|3:305,2,202.500007724762,8|0|6,0:1|0:0|1:2,0:0:0:0:
185,364,111092,6,0,P|177:294|248:299,1,161.999995056153,8|2,0:1|0:0,0:0:0:0:
496,202,111919,6,0,P|448:262|300:233,1,216,8|0,0:1|0:0,0:0:0:0:
334,180,112540,1,2,0:0:0:0:
492,106,112747,2,0,B|506:160|456:194|475:162|419:211|446:267,1,161.999995056153,8|0,0:1|0:0,0:0:0:0:
303,340,113161,6,0,P|236:346|172:260,1,162,2|0,0:0|0:0,0:0:0:0:
117,121,113575,2,0,P|81:95|32:99,1,80.9999975280763,8|0,0:1|0:0,0:0:0:0:
132,198,113782,6,0,L|173:206,1,33.75,0|0,3:0|0:0,0:0:0:0:
310,67,113988,6,0,B|476:31|476:31|413:84,1,242.999992584229,6|0,0:2|0:0,0:0:0:0:
349,91,114402,2,0,B|342:51|342:51|371:20,1,80.9999975280763,8|0,0:1|0:0,0:0:0:0:
512,127,114609,6,0,P|476:222|497:357,1,216,2|0,3:2|0:0,0:0:0:0:
390,164,115230,2,0,P|394:245|359:322,1,161.999995056153,8|0,0:1|0:0,0:0:0:0:
362,317,115851,6,0,P|325:325|297:298,1,80.9999975280763,0|0,3:0|0:0,0:0:0:0:
267,96,116057,2,0,P|295:124|313:160,1,80.9999975280763,8|0,0:1|0:0,0:0:0:0:
270,225,116264,1,0,0:0:0:0:
92,85,116471,6,0,L|162:71,1,54,0|0,3:0|0:0,0:0:0:0:
199,133,116678,2,0,P|199:159|185:182,1,54
22,282,116885,2,0,P|-3:248|3:207,1,80.9999975280763,8|0,0:1|0:0,0:0:0:0:
59,160,117092,2,0,L|129:174,1,54,0|0,3:0|0:0,0:0:0:0:
224,322,117299,6,0,B|284:342|327:285|282:308|372:216|461:282,1,242.999992584229,4|0,0:0|0:0,0:0:0:0:
414,342,117713,2,0,P|374:339|353:306,1,80.9999975280763,8|0,0:1|0:0,0:0:0:0:
247,247,117919,6,0,P|325:173|426:137,1,216,2|0,3:2|0:0,0:0:0:0:
235,346,118540,2,0,P|284:370|240:336,1,161.999995056153,8|0,0:1|0:0,0:0:0:0:
235,346,119161,6,0,P|217:363|185:366,1,54,0|0,3:0|0:0,0:0:0:0:
105,282,119368,2,0,P|75:255|24:261,1,80.9999975280763,8|0,0:1|0:0,0:0:0:0:
36,254,119782,6,0,L|26:297,1,33.75,0|0,3:0|0:0,0:0:0:0:
211,189,119988,2,0,L|201:232,1,33.75,0|0,3:0|0:0,0:0:0:0:
54,101,120195,6,0,B|37:112|37:112|20:181,1,80.9999975280763,8|0,0:1|0:0,0:0:0:0:
118,296,120402,2,0,B|101:307|101:307|84:376,1,80.9999975280763
204,222,120609,6,0,P|234:173|355:145,1,162,4|0,0:0|0:0,0:0:0:0:
378,199,121023,2,0,P|413:230|467:203,1,80.9999975280763,8|0,0:1|0:0,0:0:0:0:
368,30,121230,6,0,B|327:-19|260:4|260:4|317:21|334:72,1,216,0|0,3:0|0:0,0:0:0:0:
398,206,121851,2,0,B|413:161|464:158|464:158|435:190|444:235,1,161.999995056153,8|0,0:1|0:0,0:0:0:0:
486,291,122264,6,0,P|484:319|466:345,1,54
402,366,122471,1,0,3:0:0:0:
314,231,122678,2,0,P|288:275|297:318,1,80.9999975280763,8|0,0:1|0:0,0:0:0:0:
362,288,122885,1,2,0:0:0:0:
219,333,123092,6,0,P|186:299|-14:259,1,242.999992584229,0|0,3:0|0:0,0:0:0:0:
144,380,123506,2,0,L|121:302,1,80.9999975280763,8|0,0:1|0:0,0:0:0:0:
100,231,123713,2,0,L|84:179,1,54
212,20,123919,5,0,3:0:0:0:
212,20,124126,2,0,P|218:48|208:79,1,54
143,97,124333,2,0,P|115:76|110:19,1,80.9999975280763,8|0,0:1|0:0,0:0:0:0:
281,112,124540,2,0,L|294:167,1,54,0|0,3:0|0:0,0:0:0:0:
312,237,124747,1,2,0:0:0:0:
312,237,125161,6,0,P|333:251|364:252,1,54,8|0,0:1|0:0,0:0:0:0:
459,185,125368,2,0,L|472:130,1,54
377,70,125575,2,0,L|390:125,1,54
431,292,125782,2,0,P|455:283|473:264,1,54,0|0,3:0|0:0,0:0:0:0:
309,142,125988,1,8,0:1:0:0:
309,142,126402,6,0,P|290:126|259:123,1,54,0|0,3:0|0:0,0:0:0:0:
194,91,126609,2,0,P|171:99|152:124,1,54,0|0,3:0|0:0,0:0:0:0:
7,222,126816,6,0,B|0:271|0:271|25:302,1,80.9999975280763,8|0,0:1|0:0,0:0:0:0:
137,268,127023,2,0,B|147:238|147:238|123:194,1,80.9999975280763
36,130,127230,6,0,B|51:154|51:154|261:195,1,242.999992584229,4|0,3:2|0:0,0:0:0:0:
261,195,127644,1,8,0:1:0:0:
320,337,127851,2,0,P|313:370|297:387,1,54,2|0,3:2|0:0,0:0:0:0:
228,373,128057,2,0,P|213:342|236:257,1,108
336,355,128471,6,0,P|396:365|491:223,1,242.999992584229,10|0,0:1|0:0,0:0:0:0:
465,164,128885,2,0,P|422:110|456:169,1,202.500007724762,6|0,0:1|3:0,0:0:0:0:
404,318,129299,1,8,0:1:0:0:
404,318,129506,2,0,P|415:294|410:261,1,54
312,130,129713,6,0,P|278:87|305:134,1,161.999995056153,6|0,3:1|0:0,0:0:0:0:
340,282,130126,1,8,0:1:0:0:
340,282,130333,2,0,P|332:256|307:234,1,54
177,109,130540,6,0,P|151:76|170:114,1,121.499996292114,6|0,3:1|0:0,0:0:0:0:
209,179,130954,2,0,P|208:224|178:261,1,80.9999975280763,8|0,0:1|0:0,0:0:0:0:
72,217,131161,1,0,3:0:0:0:
9,324,131368,1,0,0:0:0:0:
9,324,131782,6,0,P|13:293|23:262,1,54,8|0,0:1|0:0,0:0:0:0:
106,350,131988,6,0,P|93:321|87:289,1,54,2|0,0:0|0:0,0:0:0:0:
215,332,132195,6,0,P|186:313|162:290,1,67.5,2|0,0:0|0:0,0:0:0:0:
256,224,132402,6,0,P|265:256|280:286,1,67.5,2|0,3:2|0:0,0:0:0:0:
369,215,132609,6,0,P|360:247|363:316,1,80.9999975280763,8|0,0:1|0:0,0:0:0:0:
359,294,133023,6,0,L|370:342,1,33.75,0|0,3:0|0:0,0:0:0:0:
451,148,133230,2,0,L|462:196,1,33.75,0|0,3:0|0:0,0:0:0:0:
441,375,133437,6,0,L|463:275,1,80.9999975280763,8|0,0:1|0:0,0:0:0:0:
359,195,133644,1,0,0:0:0:0:
455,21,133851,6,0,B|485:11|524:39|524:39|420:34|359:131,1,242.999992584229,6|0,3:2|0:0,0:0:0:0:
380,112,134264,2,0,P|336:110|314:69,1,80.9999975280763,8|0,0:1|0:0,0:0:0:0:
356,15,134471,1,0,3:0:0:0:
203,86,135092,6,0,P|85:87|0:5,1,242.999992584229,8|0,0:1|0:0,0:0:0:0:
0,5,135506,1,2,3:2:0:0:
256,192,135609,12,6,137161,0:0:0:0:
512,186,143782,6,0,P|478:209|458:120,1,161.999995056153,4|0,0:0|0:0,0:0:0:0:
445,128,144402,1,4,0:3:0:0:
409,19,144609,1,0,0:0:0:0:
409,19,144816,6,0,B|403:61|396:25|389:67,1,54,0|2,0:0|0:3,0:0:0:0:
329,116,145023,2,0,B|323:158|316:122|309:164,1,54,0|2,0:0|0:3,0:0:0:0:
309,163,145437,1,0,0:0:0:0:
409,341,145644,5,4,0:3:0:0:
277,359,145850,1,0,0:0:0:0:
347,382,146057,1,0,0:0:0:0:
253,290,146264,2,0,P|226:300|205:316,1,54,4|0,0:3|0:0,0:0:0:0:
161,374,146471,2,0,P|134:364|113:348,1,54,4|0,0:3|0:0,0:0:0:0:
40,352,146678,1,0,0:0:0:0:
4,261,146885,1,0,0:0:0:0:
24,140,147092,6,0,P|48:189|41:263,2,108,4|0|0,0:3|0:0|0:0,0:0:0:0:
24,140,147713,1,4,0:3:0:0:
103,75,147919,1,0,0:0:0:0:
103,75,148126,6,0,B|109:117|116:81|123:123,1,54,0|2,0:0|0:3,0:0:0:0:
183,172,148333,2,0,B|189:214|196:178|203:220,1,54,0|2,0:0|0:3,0:0:0:0:
203,220,148747,5,0,0:0:0:0:
211,150,148954,1,0,0:0:0:0:
282,137,149161,1,0,0:3:0:0:
314,200,149368,1,0,0:3:0:0:
265,250,149575,2,0,P|256:283|256:317,1,67.5
255,316,150402,6,0,B|240:378|240:378|348:295|289:163,1,270,6|0,1:2|0:0,0:0:0:0:
325,32,150713,1,0,0:0:0:0:
335,17,150816,2,0,P|288:10|235:103,1,135,8|0,1:0|0:0,0:0:0:0:
287,122,151023,6,0,P|368:127|486:202,1,202.500007724762,2|0,3:2|0:0,0:0:0:0:
129,272,151437,2,0,P|210:267|328:192,1,202.500007724762,2|8,0:0|1:0,0:0:0:0:
260,51,151851,1,2,0:0:0:0:
260,51,151902,2,0,L|241:3,1,33.75,2|0,0:0|0:0,0:0:0:0:
65,159,152057,6,0,P|11:201|72:169,1,202.5,2|0,3:2|0:0,0:0:0:0:
128,119,152264,2,0,P|178:120|221:147,1,101.250003862381
166,384,152471,1,8,1:0:0:0:
166,384,152678,6,0,B|185:313|257:309|209:353|341:312|366:235|284:185|233:197|222:274,1,303.750011587143,2|0,3:2|0:0,0:0:0:0:
231,243,153092,1,0,3:0:0:0:
380,332,153299,2,0,P|383:265|429:217,1,135,8|0,1:0|0:0,0:0:0:0:
393,45,153506,5,2,0:0:0:0:
424,211,153609,1,2,0:0:0:0:
456,379,153713,1,6,1:2:0:0:
456,379,153919,6,0,P|501:330|504:264,1,135
329,24,154126,2,0,B|265:53|265:53|289:113,1,135,8|0,1:0|0:0,0:0:0:0:
360,150,154333,6,0,P|246:165|99:271,1,270,2|0,3:2|0:0,0:0:0:0:
266,380,154747,2,0,P|152:365|5:259,1,270,2|8,0:0|1:0,0:0:0:0:
171,28,155161,1,2,0:0:0:0:
171,28,155212,2,0,L|185:77,1,33.75,2|0,0:0|0:0,0:0:0:0:
51,202,155368,6,0,B|44:151|84:121|75:145|129:98|85:26,1,151.875005793572,2|0,3:2|0:0,0:0:0:0:
61,0,155575,2,0,P|19:36|28:86,1,101.250003862381,0|0,3:0|0:0,0:0:0:0:
193,200,155782,1,8,1:0:0:0:
193,200,155988,6,0,B|263:182|354:233|378:320|378:320|436:339,1,303.750011587143,2|0,3:2|0:0,0:0:0:0:
511,346,156402,2,0,B|515:313|515:313|492:287,1,67.5,0|0,3:0|0:0,0:0:0:0:
339,125,156609,2,0,B|368:167|368:167|326:194,1,101.250003862381,8|0,1:0|0:0,0:0:0:0:
187,311,156816,6,0,P|115:244|16:247,1,202.5,6|0,0:1|0:0,0:0:0:0:
10,252,157023,2,0,P|1:314|78:291,1,135,0|0,3:0|0:0,0:0:0:0:
107,384,157230,2,0,P|227:325|361:331,1,270,0|8,0:0|1:0,0:0:0:0:
16,246,157644,6,0,P|271:200|497:370,1,540,6|0,1:0|0:0,0:0:0:0:
0,41,158264,6,0,P|298:51|529:240,1,607.500023174287,14|0,1:0|0:0,0:0:0:0:
70,137,158885,6,0,P|77:222|109:302,1,168.75,6|0,1:0|0:0,0:0:0:0:
442,247,159092,2,0,P|435:162|403:82,1,168.75,8|0,1:0|0:0,0:0:0:0:
150,167,159299,5,2,1:2:0:0:
356,211,159402,1,2,1:2:0:0:
84,232,159506,6,0,L|57:238,1,27,6|8,1:0|1:0,0:0:0:0:
428,152,160126,2,0,L|455:146,3,27,2|0|0|0,3:2|0:0|0:0|0:0,0:0:0:0:
256,192,160333,5,4,3:0:0:0:
3,135,161368,5,0,3:0:0:0:
509,249,161575,5,6,1:2:0:0:
432,234,161678,1,0,0:0:0:0:
357,250,161781,1,0,0:0:0:0:
293,289,161885,1,0,0:0:0:0:
244,348,161988,6,0,P|211:368|166:367,1,80.9999975280763,2|0,0:0|0:0,0:0:0:0:
104,330,162195,1,0,3:0:0:0:
52,207,162402,2,0,P|101:213|146:237,1,101.250003862381,8|0,0:1|0:0,0:0:0:0:
124,309,162609,2,0,P|84:303|48:284,1,80.9999975280763,2|0,0:0|0:0,0:0:0:0:
202,143,162816,6,0,L|194:176,1,33.75,0|0,3:0|0:0,0:0:0:0:
8,351,163023,2,0,L|0:384,1,33.75,0|0,3:0|0:0,0:0:0:0:
60,125,163230,6,0,B|83:136|83:136|126:321,2,202.500007724762,8|0|0,0:1|0:0|3:0,0:0:0:0:
60,125,163851,6,0,P|70:94|116:62,1,80.9999975280763
174,23,164057,2,0,P|193:70|236:94,1,101.250003862381,10|0,0:1|0:0,0:0:0:0:
413,139,164264,2,0,P|405:90|362:69,1,101.250003862381,0|0,3:0|0:0,0:0:0:0:
296,29,164471,6,0,B|351:86|326:172|326:172|305:112,1,202.500007724762,2|0,0:1|0:0,0:0:0:0:
502,177,164782,1,0,0:0:0:0:
496,165,164885,2,0,B|441:222|466:308|466:308|487:248,1,202.500007724762,10|0,0:1|0:0,0:0:0:0:
482,262,165299,6,0,P|511:286|504:337,1,80.9999975280763,2|0,0:0|0:0,0:0:0:0:
460,383,165506,1,0,3:0:0:0:
364,248,165713,2,0,P|321:222|271:222,1,101.250003862381,8|0,0:1|0:0,0:0:0:0:
209,265,165919,6,0,P|190:298|193:350,1,80.9999975280763,2|0,0:0|0:0,0:0:0:0:
270,382,166126,1,0,3:0:0:0:
264,365,166333,1,0,0:0:0:0:
202,185,166540,6,0,B|185:131|185:131|208:173,1,101.250003862381,8|0,0:1|0:0,0:0:0:0:
189,340,166747,2,0,P|151:378|104:365,1,101.250003862381,0|0,3:0|0:0,0:0:0:0:
34,92,166954,6,0,B|53:59|93:58|93:58|24:127|38:222,1,242.999992584229,6|0,1:0|0:0,0:0:0:0:
64,284,167368,6,0,P|92:353|56:286,1,229.500004377365,10|0,0:1|3:0,0:0:0:0:
162,125,167679,1,0,0:0:0:0:
157,110,167782,6,0,P|182:129|194:168,1,67.5,2|0,0:1|0:0,0:0:0:0:
162,233,167988,1,0,0:0:0:0:
296,383,168195,2,0,P|350:315|355:184,1,202.500007724762,8|0,0:1|0:0,0:0:0:0:
360,202,168609,6,0,P|385:171|386:118,1,80.9999975280763,2|0,0:0|0:0,0:0:0:0:
357,63,168816,1,0,3:0:0:0:
236,243,169023,2,0,P|266:286|337:264,1,101.250003862381,8|0,0:1|0:0,0:0:0:0:
374,326,169230,2,0,P|414:304|466:303,1,80.9999975280763,2|0,0:0|0:0,0:0:0:0:
275,144,169437,6,0,L|283:176,1,33.75,0|0,3:0|0:0,0:0:0:0:
503,351,169644,2,0,L|512:384,1,33.75,0|0,3:0|0:0,0:0:0:0:
399,111,169851,6,0,B|384:125|384:125|365:213,1,101.250003862381,8|0,0:1|0:0,0:0:0:0:
416,263,170057,1,0,0:0:0:0:
240,380,170264,6,0,B|213:297|135:298|174:339|78:308|67:206|130:173|186:197|190:260,1,303.750011587143,4|0,3:2|0:0,0:0:0:0:
260,226,170678,2,0,P|255:266|191:311,1,101.250003862381,8|0,0:1|0:0,0:0:0:0:
69,268,170885,6,0,P|66:180|19:112,1,161.999995056153,0|0,3:0|0:0,0:0:0:0:
188,223,171195,1,0,0:0:0:0:
184,236,171299,2,0,P|136:147|137:47,1,202.500007724762,0|8,0:0|0:1,0:0:0:0:
7,313,171713,2,0,P|37:337|78:341,1,80.9999975280763
273,245,171919,5,2,0:1:0:0:
313,180,172126,2,0,P|312:141|288:107,1,80.9999975280763,0|0,3:0|0:0,0:0:0:0:
475,244,172333,2,0,P|472:293|430:316,1,101.250003862381,8|0,0:1|0:0,0:0:0:0:
399,245,172540,1,2,0:1:0:0:
509,152,172747,6,0,L|476:160,1,33.75,0|0,3:0|0:0,0:0:0:0:
367,363,172954,2,0,L|334:371,1,33.75,0|0,3:0|0:0,0:0:0:0:
410,113,173161,6,0,L|385:211,1,101.250003862381,8|0,0:1|0:0,0:0:0:0:
512,375,173368,2,0,L|480:384,1,33.75,0|0,3:0|0:0,0:0:0:0:
243,270,173575,6,0,B|198:168|87:200|87:200|112:284,1,242.999992584229,6|0,1:0|0:0,0:0:0:0:
57,313,173988,6,0,P|16:377|66:319,1,229.500004377365,10|0,0:1|3:0,0:0:0:0:
149,156,174299,1,0,0:0:0:0:
160,171,174402,6,0,P|155:137|136:110,1,67.5,2|0,0:1|0:0,0:0:0:0:
65,91,174609,1,0,0:0:0:0:
212,291,174816,2,0,P|267:227|409:205,1,202.500007724762,8|0,0:1|0:0,0:0:0:0:
378,198,175230,6,0,P|401:229|444:232,1,80.9999975280763,2|0,0:0|0:0,0:0:0:0:
505,193,175437,1,0,3:0:0:0:
435,17,175644,2,0,P|389:-2|326:3,1,101.250003862381,8|0,0:1|0:0,0:0:0:0:
275,36,175851,2,0,P|250:68|243:108,1,80.9999975280763,2|0,0:0|0:0,0:0:0:0:
273,178,176058,6,0,L|315:189,1,33.75,0|0,3:0|0:0,0:0:0:0:
152,0,176264,2,0,L|194:11,1,33.75,0|0,3:0|0:0,0:0:0:0:
382,166,176471,6,0,B|371:191|371:191|179:240,2,202.500007724762,8|0|0,0:1|0:0|3:0,0:0:0:0:
382,166,177092,6,0,P|386:209|365:246,1,80.9999975280763
294,248,177299,2,0,P|286:202|316:145,1,101.250003862381,10|0,0:1|0:0,0:0:0:0:
439,108,177506,2,0,P|480:104|503:36,1,101.250003862381,0|0,3:0|0:0,0:0:0:0:
285,44,177713,6,0,B|265:20|220:20|220:20|281:66|289:154,1,202.500007724762,2|0,0:1|0:0,0:0:0:0:
121,18,178023,1,0,0:0:0:0:
116,4,178126,2,0,B|87:-6|48:15|48:15|124:25|175:97,1,202.500007724762,10|0,0:1|0:0,0:0:0:0:
206,140,178540,6,0,P|169:154|130:147,1,80.9999975280763,2|0,0:0|0:0,0:0:0:0:
66,105,178747,1,0,3:0:0:0:
26,256,178954,2,0,P|3:200|18:151,1,101.250003862381,8|0,0:1|0:0,0:0:0:0:
55,98,179161,5,2,0:0:0:0:
192,236,179368,1,0,3:0:0:0:
186,253,179575,1,0,0:0:0:0:
0,383,179782,6,0,L|122:353,1,101.250003862381,8|0,0:1|0:0,0:0:0:0:
169,339,179988,2,0,L|247:319,1,80.9999975280763,0|0,3:0|0:0,0:0:0:0:
472,254,180195,6,0,B|510:282|494:335|494:335|386:303,1,202.500007724762,6|0,1:0|0:0,0:0:0:0:
458,165,180506,1,0,0:0:0:0:
474,173,180609,2,0,P|451:143|388:135,1,101.250003862381
404,289,180816,6,0,P|372:334|248:341,1,161.999995056153,2|0,3:1|0:0,0:0:0:0:
310,281,181230,2,0,P|265:262|251:214,1,101.250003862381
305,53,181437,1,8,0:1:0:0:
305,53,181644,6,0,P|344:63|373:90,1,80.9999975280763
358,164,181851,1,2,0:0:0:0:
358,164,182057,2,0,L|312:174,1,33.75,0|0,3:0|0:0,0:0:0:0:
141,193,182264,6,0,P|190:188|228:220,1,101.250003862381,8|0,0:1|0:0,0:0:0:0:
257,292,182471,2,0,P|250:331|221:358,1,80.9999975280763,2|0,0:0|0:0,0:0:0:0:
70,176,182678,6,0,L|37:167,1,33.75,0|0,3:0|0:0,0:0:0:0:
147,383,182885,2,0,L|115:375,1,33.75,0|0,3:0|0:0,0:0:0:0:
141,193,183092,6,0,L|161:292,1,101.250003862381,8|0,0:1|0:0,0:0:0:0:
43,359,183299,1,0,0:0:0:0:
222,200,183506,6,0,B|262:206|262:206|282:210|292:227|292:227|300:247|322:252|322:252|451:279|451:279|411:271|389:217,1,303.750011587143,6|0,1:0|0:0,0:0:0:0:
511,130,183919,2,0,P|464:165|474:220,1,101.250003862381,8|0,0:1|0:0,0:0:0:0:
222,200,184126,6,0,P|224:268|297:341,1,161.999995056153,0|0,3:0|0:0,0:0:0:0:
291,124,184437,1,0,0:0:0:0:
274,132,184540,2,0,P|343:202|352:301,1,202.500007724762,0|8,0:0|0:1,0:0:0:0:
203,102,184954,2,0,P|171:126|156:163,1,80.9999975280763,2|0,0:0|0:0,0:0:0:0:
267,10,185161,5,6,1:0:0:0:
267,10,185368,2,0,L|259:60,1,33.75,0|0,3:0|0:0,0:0:0:0:
118,230,185575,2,0,P|78:201|80:152,1,101.250003862381,8|0,0:1|0:0,0:0:0:0:
155,163,185782,1,2,0:0:0:0:
23,93,185988,6,0,L|18:60,1,33.75,0|0,3:0|0:0,0:0:0:0:
197,274,186195,2,0,L|190:242,1,33.75,0|0,3:0|0:0,0:0:0:0:
154,54,186402,6,0,B|133:67|133:67|89:260,1,202.500007724762,8|0,0:1|0:0,0:0:0:0:
323,229,186816,6,0,B|325:213|325:213|434:157|544:195|544:195|457:199|414:252|414:252|398:336,1,472.5,6|0,1:2|0:0,0:0:0:0:
473,352,187644,6,0,P|472:313|450:279,1,80.9999975280763,8|0,0:1|0:0,0:0:0:0:
450,279,188678,1,4,0:3:0:0:
399,336,188885,1,4,0:3:0:0:
324,320,189092,1,0,0:0:0:0:
467,379,189299,5,8,0:1:0:0:
402,331,189505,1,0,0:0:0:0:
366,260,189712,1,0,0:0:0:0:
369,180,189919,1,0,0:0:0:0:
369,180,190126,6,0,B|290:192|203:132|287:165|184:102|84:113|84:113|143:124|185:78,1,378,4|0,0:3|0:0,0:0:0:0:
216,48,190954,6,0,P|186:27|135:29,1,80.9999975280763,8|0,0:1|0:0,0:0:0:0:
142,26,191782,1,0,0:0:0:0:
160,98,191988,1,4,0:3:0:0:
226,130,192195,1,4,0:3:0:0:
286,377,192609,5,0,0:0:0:0:
304,305,192815,1,4,0:3:0:0:
370,273,193022,1,4,0:3:0:0:
510,175,193437,5,4,0:3:0:0:
510,175,193851,2,0,B|449:174|459:153|412:120|347:142,1,162
401,32,194264,6,2,B|407:51|424:62|424:62|419:82|427:103,1,80.9999975280763,8|0,0:1|0:0,0:1:0:0:
428,104,195299,5,4,0:3:0:0:
323,141,195506,1,4,0:3:0:0:
213,121,195713,1,0,0:0:0:0:
92,301,195919,5,8,0:1:0:0:
178,230,196126,1,0,0:0:0:0:
218,125,196333,1,0,0:0:0:0:
198,13,196540,1,0,0:0:0:0:
198,13,196747,6,0,B|172:22|147:64|183:103|225:97|242:71|242:71|275:21|358:33|379:112|337:160|291:160,1,378,4|0,0:3|0:0,0:0:0:0:
317,230,197575,6,0,P|269:230|235:199,1,80.9999975280763,8|0,0:1|0:0,0:0:0:0:
243,211,198402,1,0,0:0:0:0:
318,117,198609,1,4,0:3:0:0:
292,0,198816,1,4,0:3:0:0:
128,282,199230,5,8,0:1:0:0:
75,231,199437,1,4,0:3:0:0:
77,158,199644,1,4,0:3:0:0:
173,383,200057,6,0,B|190:313|259:303|214:336|380:355|361:205|301:184|259:208|241:238|241:238|191:185|232:114|232:114|239:135|263:155,1,485.999985168458,6|0,0:2|0:0,0:0:0:0:
305,92,201506,2,0,P|321:104|340:108,1,40.4999987640381
424,94,201919,5,0,0:0:0:0:
428,80,202126,1,0,0:0:0:0:
413,83,202333,1,0,0:0:0:0:
441,5,202540,5,0,0:0:0:0:
369,19,202747,1,0,0:0:0:0:
480,143,202954,1,0,0:0:0:0:
504,74,203161,1,0,0:0:0:0:
389,164,203368,6,0,P|407:215|403:293,1,121.499996292114,2|0,0:0|0:0,0:0:0:0:
301,278,204195,6,0,B|291:238|319:215|319:215|330:250|312:269,1,121.499996292114,2|0,0:0|0:0,0:0:0:0:
381,309,204609,2,0,P|326:308|201:382,1,182.249994438172,2|0,0:0|0:0,0:0:0:0:
130,176,205023,6,0,B|138:119|212:117|234:183|202:247|132:248,1,212.6249935112,2|0,0:0|0:0,0:0:0:0:
147,246,205851,6,0,P|28:187|55:58,1,283.499991348267,2|0,0:0|0:0,0:0:0:0:
54,58,206678,6,0,P|267:76|223:293,1,485.999985168458,2|0,0:0|0:0,0:0:0:0:
130,176,208126,1,2,0:0:0:0:
130,176,208333,6,0,L|145:149,1,27,2|0,0:1|0:0,0:0:0:0:
130,176,208747,6,0,B|125:164|125:164|102:142,1,40.5,2|0,0:1|0:0,0:0:0:0:
358,16,209988,6,0,L|402:4,2,40.4999987640381,6|0|0,0:0|0:0|0:0,0:0:0:0:
469,99,210609,6,0,L|493:113,2,27,2|0|0,0:0|0:0|0:0,0:0:0:0:
483,190,211230,6,0,L|486:204,2,13.5,2|0|0,0:0|0:0|0:0,0:0:0:0:
422,352,211851,2,0,L|435:348,1,13.5,2|0,0:0|0:0,0:0:0:0:
417,275,212264,2,0,L|403:278,2,13.5,2|0|0,0:0|0:0|0:0,0:0:0:0:
239,363,212885,6,0,L|235:376,1,13.5,2|0,0:0|0:0,0:0:0:0:
214,294,213299,5,2,0:0:0:0:
262,238,213506,1,2,0:0:0:0:
362,256,213713,1,2,0:0:0:0:
426,334,213919,1,2,0:0:0:0:
483,381,214126,1,2,0:0:0:0:
512,363,214333,1,2,0:0:0:0:
408,193,214540,6,0,P|396:160|396:108,1,67.5,2|0,0:0|0:0,0:0:0:0:
423,60,214954,1,0,0:0:0:0:
490,207,215161,1,2,0:0:0:0:
353,292,215368,6,0,P|312:299|281:322,1,67.5,0|2,0:0|0:0,0:0:0:0:
387,218,215782,2,0,P|362:203|350:179,1,40.4999987640381
441,312,216195,2,0,P|430:324|423:343,1,27,2|0,0:0|0:0,0:0:0:0:
275,152,216609,6,0,L|271:138,2,13.5,2|0|0,0:0|0:0|0:0,0:0:0:0:
170,59,217230,6,0,L|166:72,2,13.5,2|0|0,0:0|0:0|0:0,0:0:0:0:
98,114,217851,6,0,L|94:100,2,13.5,2|0|0,0:0|0:0|0:0,0:0:0:0:
148,314,218471,2,0,L|134:310,1,13.5,2|0,0:0|0:0,0:0:0:0:
155,239,218885,2,0,L|168:242,2,13.5,2|0|0,0:0|0:0|0:0,0:0:0:0:
311,358,219506,6,0,L|314:371,1,13.5,2|0,0:0|0:0,0:0:0:0:
356,296,219919,5,2,0:0:0:0:
300,248,220126,1,2,0:0:0:0:
335,113,220333,1,2,0:0:0:0:
469,151,220540,1,2,0:0:0:0:
498,220,220747,1,2,0:0:0:0:
469,248,220954,1,2,0:0:0:0:
392,171,221161,6,0,L|395:157,2,13.5,2|0|0,0:0|0:0|0:0,0:0:0:0:
482,326,221782,6,0,L|479:340,1,13.5,2|0,0:0|0:0,0:0:0:0:
356,296,222195,6,0,B|381:331|393:369|393:369|440:354|489:348|489:348|489:309|499:264|499:264|458:304|458:304|421:248|421:248|408:315|408:315|361:296,1,506.249984550477,10|8,0:2|0:2,0:0:0:0:
