osu file format v14

[General]
AudioFilename: audio.mp3
AudioLeadIn: 0
PreviewTime: 62811
Countdown: 0
SampleSet: Soft
StackLeniency: 0.7
Mode: 3
LetterboxInBreaks: 0
SpecialStyle: 0
WidescreenStoryboard: 1

[Editor]
Bookmarks: 24030,48030,63030,79530,91530,115530,126030,150030,174030,199530
DistanceSpacing: 0.8
BeatDivisor: 12
GridSize: 32
TimelineZoom: 2.5

[Metadata]
Title:My Party (bo en Remix)
TitleUnicode:My Party (bo en Remix)
Artist:Kero Kero Bonito
ArtistUnicode:Kero Kero Bonito
Creator:Hydria
Version:Hard
Source:
Tags:pop intro bonito
BeatmapID:1703185
BeatmapSetID:812008

[Difficulty]
HPDrainRate:7.5
CircleSize:4
OverallDifficulty:7.5
ApproachRate:5
SliderMultiplier:1.4
SliderTickRate:1

[Events]
//Background and Video events
0,0,"KKBG.png",0,0
//Break Periods
//Storyboard Layer 0 (Background)
//Storyboard Layer 1 (Fail)
//Storyboard Layer 2 (Pass)
//Storyboard Layer 3 (Foreground)
//Storyboard Sound Samples

[TimingPoints]
30,375,4,2,1,40,1,0
79530,-100,4,2,1,60,0,1
91530,-100,4,2,1,40,0,0
150030,-100,4,2,1,60,0,1
161842,-100,4,2,1,40,0,0
162030,-100,4,2,1,60,0,1
172905,-100,4,2,1,40,0,0

[HitObjects]
64,192,30,5,0,0:0:0:0:
448,192,30,128,0,217:0:0:0:0:
192,192,217,1,0,0:0:0:0:
320,192,405,1,0,0:0:0:0:
64,192,592,1,0,0:0:0:0:
192,192,592,128,0,686:0:0:0:0:
448,192,686,1,0,0:0:0:0:
320,192,780,1,0,0:0:0:0:
192,192,967,128,0,1061:0:0:0:0:
64,192,967,1,0,0:0:0:0:
448,192,1155,1,0,0:0:0:0:
320,192,1342,128,0,1436:0:0:0:0:
192,192,1342,1,0,0:0:0:0:
64,192,1530,1,0,0:0:0:0:
192,192,1530,128,0,1905:0:0:0:0:
320,192,1717,1,0,0:0:0:0:
448,192,1905,1,0,0:0:0:0:
64,192,1905,128,0,2092:0:0:0:0:
320,192,2092,1,0,0:0:0:0:
64,192,3030,1,0,0:0:0:0:
320,192,3030,128,0,3123:0:0:0:0:
448,192,3217,1,0,0:0:0:0:
192,192,3405,1,0,0:0:0:0:
320,192,3405,128,0,3498:0:0:0:0:
448,192,3592,1,0,0:0:0:0:
64,192,3592,128,0,4155:0:0:0:0:
192,192,3780,1,0,0:0:0:0:
448,192,3967,1,0,0:0:0:0:
448,192,4155,128,0,4342:0:0:0:0:
320,192,4155,1,0,0:0:0:0:
192,192,4342,1,0,0:0:0:0:
192,192,4530,128,0,4717:0:0:0:0:
64,192,4530,1,0,0:0:0:0:
320,192,4717,1,0,0:0:0:0:
192,192,4905,1,0,0:0:0:0:
448,192,5092,1,0,0:0:0:0:
64,192,5280,1,0,0:0:0:0:
192,192,5467,1,0,0:0:0:0:
448,192,5561,1,0,0:0:0:0:
320,192,5655,1,0,0:0:0:0:
448,192,5842,1,0,0:0:0:0:
320,192,6030,128,0,6123:0:0:0:0:
64,192,6030,1,0,0:0:0:0:
192,192,6217,1,0,0:0:0:0:
64,192,6405,1,0,0:0:0:0:
320,192,6405,128,0,6592:0:0:0:0:
192,192,6592,1,0,0:0:0:0:
448,192,6592,128,0,6686:0:0:0:0:
448,192,6967,128,0,7061:0:0:0:0:
320,192,7155,128,0,7342:0:0:0:0:
192,192,7342,1,0,0:0:0:0:
64,192,7530,128,0,7623:0:0:0:0:
448,192,7530,1,0,0:0:0:0:
192,192,7717,1,0,0:0:0:0:
64,192,7905,128,0,7998:0:0:0:0:
320,192,7905,1,0,0:0:0:0:
448,192,8092,1,0,0:0:0:0:
192,192,8655,1,0,0:0:0:0:
320,192,8842,1,0,0:0:0:0:
64,192,9030,1,0,0:0:0:0:
192,192,9030,128,0,9123:0:0:0:0:
320,192,9217,1,0,0:0:0:0:
192,192,9405,128,0,9498:0:0:0:0:
448,192,9405,1,0,0:0:0:0:
320,192,9592,128,0,9686:0:0:0:0:
64,192,9592,1,0,0:0:0:0:
448,192,9780,1,0,0:0:0:0:
320,192,9967,128,0,10061:0:0:0:0:
448,192,9967,1,0,0:0:0:0:
64,192,10061,1,0,0:0:0:0:
320,192,10155,1,0,0:0:0:0:
192,192,10155,128,0,10248:0:0:0:0:
448,192,10342,1,0,0:0:0:0:
192,192,10530,128,0,10623:0:0:0:0:
64,192,10530,1,0,0:0:0:0:
320,192,10717,1,0,0:0:0:0:
448,192,10811,1,0,0:0:0:0:
320,192,10905,1,0,0:0:0:0:
192,192,11092,1,0,0:0:0:0:
448,192,11280,1,0,0:0:0:0:
320,192,11655,1,0,0:0:0:0:
64,192,12030,1,0,0:0:0:0:
448,192,12030,128,0,12123:0:0:0:0:
192,192,12217,1,0,0:0:0:0:
320,192,12405,128,0,12498:0:0:0:0:
448,192,12405,1,0,0:0:0:0:
320,192,12592,128,0,12686:0:0:0:0:
64,192,12592,1,0,0:0:0:0:
448,192,12686,1,0,0:0:0:0:
64,192,12780,1,0,0:0:0:0:
192,192,12780,128,0,12873:0:0:0:0:
320,192,12967,1,0,0:0:0:0:
448,192,13155,1,0,0:0:0:0:
192,192,13155,128,0,13248:0:0:0:0:
320,192,13342,1,0,0:0:0:0:
192,192,13530,128,0,13905:0:0:0:0:
64,192,13530,1,0,0:0:0:0:
448,192,13717,1,0,0:0:0:0:
64,192,13905,128,0,13998:0:0:0:0:
320,192,13905,1,0,0:0:0:0:
448,192,14092,1,0,0:0:0:0:
64,192,14280,128,0,14373:0:0:0:0:
320,192,15030,128,0,15123:0:0:0:0:
192,192,15030,1,0,0:0:0:0:
64,192,15217,1,0,0:0:0:0:
192,192,15405,1,0,0:0:0:0:
320,192,15405,128,0,15498:0:0:0:0:
448,192,15592,1,0,0:0:0:0:
64,192,15780,1,0,0:0:0:0:
192,192,15780,128,0,15873:0:0:0:0:
320,192,15967,1,0,0:0:0:0:
192,192,16155,1,0,0:0:0:0:
448,192,16155,128,0,16248:0:0:0:0:
320,192,16342,1,0,0:0:0:0:
192,192,16530,1,0,0:0:0:0:
64,192,16530,128,0,16811:0:0:0:0:
320,192,16717,1,0,0:0:0:0:
192,192,16905,1,0,0:0:0:0:
448,192,17092,1,0,0:0:0:0:
64,192,17280,1,0,0:0:0:0:
192,192,17467,1,0,0:0:0:0:
64,192,17561,1,0,0:0:0:0:
320,192,17655,1,0,0:0:0:0:
448,192,17842,1,0,0:0:0:0:
192,192,18030,128,0,18123:0:0:0:0:
64,192,18030,1,0,0:0:0:0:
448,192,18217,1,0,0:0:0:0:
64,192,18405,1,0,0:0:0:0:
192,192,18405,128,0,18592:0:0:0:0:
448,192,18592,128,0,18686:0:0:0:0:
320,192,18592,1,0,0:0:0:0:
448,192,18967,128,0,19061:0:0:0:0:
320,192,19155,128,0,19248:0:0:0:0:
192,192,19342,1,0,0:0:0:0:
192,192,19530,128,0,19623:0:0:0:0:
320,192,19530,1,0,0:0:0:0:
64,192,19717,1,0,0:0:0:0:
320,192,19905,1,0,0:0:0:0:
192,192,19905,128,0,19998:0:0:0:0:
448,192,20092,1,0,0:0:0:0:
192,192,20655,1,0,0:0:0:0:
320,192,20842,1,0,0:0:0:0:
448,192,21030,1,0,0:0:0:0:
64,192,21030,128,0,21123:0:0:0:0:
192,192,21217,1,0,0:0:0:0:
320,192,21405,1,0,0:0:0:0:
64,192,21405,128,0,21498:0:0:0:0:
320,192,21592,128,0,21686:0:0:0:0:
448,192,21592,1,0,0:0:0:0:
192,192,21780,1,0,0:0:0:0:
320,192,21967,128,0,22155:0:0:0:0:
192,192,21967,1,0,0:0:0:0:
64,192,22061,1,0,0:0:0:0:
192,192,22155,128,0,22248:0:0:0:0:
448,192,22155,1,0,0:0:0:0:
320,192,22342,1,0,0:0:0:0:
192,192,22530,128,0,22623:0:0:0:0:
320,192,22717,1,0,0:0:0:0:
448,192,22811,1,0,0:0:0:0:
320,192,22905,1,0,0:0:0:0:
192,192,23092,1,0,0:0:0:0:
64,192,23280,1,6,0:0:0:0:
320,192,23280,1,4,0:0:0:0:
448,192,23280,1,2,0:0:0:0:
448,192,23655,1,6,0:0:0:0:
192,192,23655,1,4,0:0:0:0:
64,192,23655,1,2,0:0:0:0:
448,192,24030,128,2,24405:0:0:0:0:
320,192,24030,1,0,0:0:0:0:
192,192,24030,1,0,0:0:0:0:
192,192,24405,1,0,0:0:0:0:
64,192,24592,128,0,24967:0:0:0:0:
320,192,24780,1,8,0:0:0:0:
448,192,24780,1,0,0:0:0:0:
320,192,24967,128,0,25342:0:0:0:0:
64,192,25155,1,0,0:0:0:0:
192,192,25342,128,0,25530:0:0:0:0:
448,192,25342,1,2,0:0:0:0:
64,192,25530,128,0,25905:0:0:0:0:
448,192,25530,1,0,0:0:0:0:
320,192,25530,1,2,0:0:0:0:
320,192,25905,128,0,26280:0:0:0:0:
192,192,25905,1,2,0:0:0:0:
448,192,25905,1,0,0:0:0:0:
192,192,26280,1,4,0:0:0:0:
64,192,26280,1,0,0:0:0:0:
192,192,26467,1,0,0:0:0:0:
448,192,26655,1,0,0:0:0:0:
320,192,26842,1,0,0:0:0:0:
448,192,27030,128,0,27405:0:0:0:0:
192,192,27030,1,2,0:0:0:0:
64,192,27030,1,0,0:0:0:0:
320,192,27405,128,0,27592:0:0:0:0:
64,192,27405,1,0,0:0:0:0:
192,192,27592,128,2,27967:0:0:0:0:
64,192,27780,1,8,0:0:0:0:
448,192,27780,1,2,0:0:0:0:
64,192,28155,128,0,28530:0:0:0:0:
320,192,28155,1,0,0:0:0:0:
320,192,28530,128,0,28905:0:0:0:0:
192,192,28530,1,0,0:0:0:0:
448,192,28530,1,2,0:0:0:0:
64,192,28905,1,0,0:0:0:0:
320,192,29092,1,0,0:0:0:0:
448,192,29092,1,2,0:0:0:0:
192,192,29280,1,4,0:0:0:0:
64,192,29280,1,2,0:0:0:0:
320,192,29467,1,0,0:0:0:0:
192,192,29561,1,0,0:0:0:0:
448,192,29655,1,0,0:0:0:0:
192,192,29842,1,0,0:0:0:0:
320,192,30030,128,0,30405:0:0:0:0:
64,192,30030,1,2,0:0:0:0:
448,192,30030,1,0,0:0:0:0:
192,192,30405,128,0,30592:0:0:0:0:
64,192,30405,1,0,0:0:0:0:
448,192,30592,128,0,30967:0:0:0:0:
320,192,30780,1,8,0:0:0:0:
192,192,30780,1,0,0:0:0:0:
64,192,30967,128,0,31155:0:0:0:0:
320,192,31155,128,0,31530:0:0:0:0:
192,192,31155,1,0,0:0:0:0:
64,192,31342,1,2,0:0:0:0:
192,192,31530,128,0,31905:0:0:0:0:
64,192,31530,1,2,0:0:0:0:
448,192,31530,1,0,0:0:0:0:
64,192,31905,128,0,32280:0:0:0:0:
320,192,31905,1,2,0:0:0:0:
448,192,31905,1,0,0:0:0:0:
192,192,32280,1,0,0:0:0:0:
448,192,32280,1,4,0:0:0:0:
320,192,32467,1,0,0:0:0:0:
448,192,32655,1,0,0:0:0:0:
192,192,32842,1,0,0:0:0:0:
320,192,33030,128,0,33405:0:0:0:0:
64,192,33030,1,2,0:0:0:0:
448,192,33030,1,0,0:0:0:0:
64,192,33405,128,0,33592:0:0:0:0:
192,192,33405,1,0,0:0:0:0:
192,192,33592,128,0,33967:0:0:0:0:
448,192,33592,1,2,0:0:0:0:
320,192,33780,1,0,0:0:0:0:
448,192,33780,1,8,0:0:0:0:
448,192,34155,128,0,34530:0:0:0:0:
64,192,34155,1,0,0:0:0:0:
192,192,34342,1,2,0:0:0:0:
320,192,34530,128,0,35280:0:0:0:0:
192,192,34530,1,2,0:0:0:0:
64,192,34530,1,0,0:0:0:0:
64,192,34717,128,0,34905:0:0:0:0:
192,192,34905,128,0,35092:0:0:0:0:
448,192,35092,128,2,35280:0:0:0:0:
192,192,35280,128,0,35655:0:0:0:0:
64,192,35280,1,4,0:0:0:0:
64,192,35655,128,0,36030:0:0:0:0:
320,192,35655,1,2,0:0:0:0:
448,192,35655,1,0,0:0:0:0:
448,192,36030,128,0,36405:0:0:0:0:
320,192,36030,1,2,0:0:0:0:
192,192,36030,1,0,0:0:0:0:
64,192,36405,128,0,36592:0:0:0:0:
320,192,36405,1,0,0:0:0:0:
192,192,36592,128,0,36780:0:0:0:0:
320,192,36780,128,0,37155:0:0:0:0:
448,192,36780,1,8,0:0:0:0:
64,192,36780,1,0,0:0:0:0:
192,192,37155,128,0,37530:0:0:0:0:
448,192,37155,1,0,0:0:0:0:
320,192,37342,1,2,0:0:0:0:
64,192,37530,128,2,37905:0:0:0:0:
320,192,37530,1,0,0:0:0:0:
448,192,37530,1,0,0:0:0:0:
320,192,37905,128,2,38280:0:0:0:0:
192,192,37905,1,0,0:0:0:0:
448,192,37905,1,0,0:0:0:0:
192,192,38280,128,4,38655:0:0:0:0:
448,192,38280,1,0,0:0:0:0:
64,192,38280,1,0,0:0:0:0:
320,192,38655,1,0,0:0:0:0:
448,192,38842,1,0,0:0:0:0:
192,192,39030,128,0,39405:0:0:0:0:
320,192,39030,1,2,0:0:0:0:
64,192,39030,1,0,0:0:0:0:
320,192,39405,128,0,39592:0:0:0:0:
448,192,39405,1,0,0:0:0:0:
64,192,39592,128,0,39967:0:0:0:0:
192,192,39592,1,2,0:0:0:0:
448,192,39780,1,8,0:0:0:0:
320,192,39780,1,2,0:0:0:0:
192,192,40155,128,0,40530:0:0:0:0:
64,192,40155,1,0,0:0:0:0:
320,192,40342,1,2,0:0:0:0:
448,192,40530,128,0,40905:0:0:0:0:
320,192,40530,1,2,0:0:0:0:
64,192,40530,1,0,0:0:0:0:
192,192,40905,1,0,0:0:0:0:
320,192,41092,1,2,0:0:0:0:
448,192,41092,1,0,0:0:0:0:
192,192,41280,1,2,0:0:0:0:
64,192,41280,1,4,0:0:0:0:
320,192,41467,1,0,0:0:0:0:
192,192,41561,1,0,0:0:0:0:
448,192,41655,1,0,0:0:0:0:
320,192,41842,1,0,0:0:0:0:
448,192,42030,128,0,42405:0:0:0:0:
192,192,42030,1,2,0:0:0:0:
64,192,42030,1,0,0:0:0:0:
192,192,42405,1,0,0:0:0:0:
320,192,42592,128,0,42967:0:0:0:0:
448,192,42780,1,8,0:0:0:0:
64,192,42780,1,0,0:0:0:0:
192,192,43155,128,0,43530:0:0:0:0:
320,192,43155,1,0,0:0:0:0:
448,192,43342,1,2,0:0:0:0:
64,192,43530,128,0,43905:0:0:0:0:
320,192,43530,1,2,0:0:0:0:
448,192,43530,1,0,0:0:0:0:
320,192,43905,128,2,44280:0:0:0:0:
192,192,43905,1,0,0:0:0:0:
448,192,43905,1,0,0:0:0:0:
448,192,44280,128,0,44655:0:0:0:0:
192,192,44280,1,4,0:0:0:0:
64,192,44280,1,0,0:0:0:0:
320,192,44655,1,0,0:0:0:0:
64,192,44842,1,0,0:0:0:0:
192,192,45030,128,0,45405:0:0:0:0:
320,192,45030,1,2,0:0:0:0:
448,192,45030,1,0,0:0:0:0:
320,192,45405,128,0,45592:0:0:0:0:
64,192,45405,1,0,0:0:0:0:
448,192,45592,128,0,45967:0:0:0:0:
192,192,45592,1,2,0:0:0:0:
192,192,45780,1,8,0:0:0:0:
64,192,45780,1,2,0:0:0:0:
320,192,46155,128,0,46530:0:0:0:0:
192,192,46155,1,0,0:0:0:0:
448,192,46342,1,2,0:0:0:0:
64,192,46530,128,0,46905:0:0:0:0:
448,192,46530,1,2,0:0:0:0:
192,192,46530,1,0,0:0:0:0:
192,192,46717,128,0,46905:0:0:0:0:
320,192,46905,128,0,47092:0:0:0:0:
448,192,47092,128,2,47280:0:0:0:0:
320,192,47280,128,0,47655:0:0:0:0:
192,192,47280,1,4,0:0:0:0:
64,192,47280,1,0,0:0:0:0:
192,192,47655,128,0,48030:0:0:0:0:
448,192,48030,128,0,48405:0:0:0:0:
320,192,48030,1,0,0:0:0:0:
64,192,48405,128,0,48780:0:0:0:0:
192,192,48405,1,0,0:0:0:0:
320,192,48780,128,0,49155:0:0:0:0:
448,192,48780,1,0,0:0:0:0:
192,192,49155,128,0,49530:0:0:0:0:
64,192,49155,1,0,0:0:0:0:
448,192,49530,128,0,49905:0:0:0:0:
320,192,49530,1,0,0:0:0:0:
64,192,49905,128,0,50280:0:0:0:0:
192,192,49905,1,0,0:0:0:0:
320,192,50280,128,0,50655:0:0:0:0:
448,192,50280,1,0,0:0:0:0:
448,192,50655,128,0,51030:0:0:0:0:
192,192,50655,1,0,0:0:0:0:
192,192,51030,128,0,51592:0:0:0:0:
64,192,51030,1,0,0:0:0:0:
320,192,51592,128,0,51780:0:0:0:0:
448,192,51592,1,0,0:0:0:0:
64,192,51780,128,0,52155:0:0:0:0:
192,192,51780,1,0,0:0:0:0:
192,192,52342,1,0,0:0:0:0:
448,192,52530,1,0,0:0:0:0:
320,192,52717,1,0,0:0:0:0:
64,192,52905,1,0,0:0:0:0:
192,192,52905,1,0,0:0:0:0:
320,192,53092,1,0,0:0:0:0:
192,192,53280,1,0,0:0:0:0:
64,192,53467,1,0,0:0:0:0:
448,192,53467,1,0,0:0:0:0:
320,192,53561,1,0,0:0:0:0:
192,192,53655,1,0,0:0:0:0:
64,192,53842,1,0,0:0:0:0:
192,192,54030,128,0,54405:0:0:0:0:
320,192,54030,1,0,0:0:0:0:
320,192,54405,128,0,54780:0:0:0:0:
448,192,54405,1,0,0:0:0:0:
192,192,54780,128,0,55155:0:0:0:0:
64,192,54780,1,0,0:0:0:0:
448,192,55155,128,0,55530:0:0:0:0:
320,192,55155,1,0,0:0:0:0:
64,192,55530,128,0,55905:0:0:0:0:
192,192,55530,1,0,0:0:0:0:
320,192,55905,128,0,56280:0:0:0:0:
448,192,55905,1,0,0:0:0:0:
192,192,56280,128,0,56655:0:0:0:0:
64,192,56280,1,0,0:0:0:0:
64,192,56655,128,0,57030:0:0:0:0:
448,192,56655,1,0,0:0:0:0:
320,192,57030,128,0,57451:0:0:0:0:
192,192,57030,1,0,0:0:0:0:
448,192,57451,128,0,57780:0:0:0:0:
64,192,57451,1,0,0:0:0:0:
192,192,57780,128,0,58155:0:0:0:0:
320,192,57780,1,0,0:0:0:0:
320,192,58155,128,0,58530:0:0:0:0:
64,192,58155,1,0,0:0:0:0:
192,192,58530,1,0,0:0:0:0:
320,192,58623,1,0,0:0:0:0:
192,192,58717,1,0,0:0:0:0:
320,192,58811,1,0,0:0:0:0:
192,192,58905,1,0,0:0:0:0:
320,192,58998,1,0,0:0:0:0:
192,192,59092,1,0,0:0:0:0:
320,192,59186,1,0,0:0:0:0:
192,192,59280,1,0,0:0:0:0:
320,192,59373,1,0,0:0:0:0:
192,192,59467,1,0,0:0:0:0:
320,192,59561,1,0,0:0:0:0:
192,192,59655,1,0,0:0:0:0:
320,192,59748,1,0,0:0:0:0:
192,192,59842,1,0,0:0:0:0:
320,192,59936,1,0,0:0:0:0:
192,192,60030,1,0,0:0:0:0:
320,192,60123,1,0,0:0:0:0:
192,192,60217,1,0,0:0:0:0:
320,192,60311,1,0,0:0:0:0:
192,192,60405,1,0,0:0:0:0:
320,192,60498,1,0,0:0:0:0:
192,192,60592,1,0,0:0:0:0:
320,192,60686,1,0,0:0:0:0:
192,192,60780,1,0,0:0:0:0:
320,192,60873,1,0,0:0:0:0:
192,192,60967,1,0,0:0:0:0:
320,192,61061,1,0,0:0:0:0:
192,192,61155,1,0,0:0:0:0:
320,192,61248,1,0,0:0:0:0:
64,192,61280,1,0,0:0:0:0:
192,192,61342,1,0,0:0:0:0:
320,192,61405,1,0,0:0:0:0:
448,192,61467,1,0,0:0:0:0:
448,192,62092,128,0,62280:0:0:0:0:
192,192,62280,128,0,62655:0:0:0:0:
320,192,62655,128,0,63030:0:0:0:0:
64,192,62842,1,0,0:0:0:0:
192,192,62905,1,0,0:0:0:0:
448,192,62967,1,0,0:0:0:0:
192,192,63030,1,0,0:0:0:0:
64,192,63030,1,4,0:0:0:0:
448,192,63217,1,0,0:0:0:0:
320,192,63311,1,0,0:0:0:0:
192,192,63405,1,4,0:0:0:0:
320,192,63592,1,0,0:0:0:0:
192,192,63780,1,12,0:0:0:0:
320,192,63967,1,0,0:0:0:0:
192,192,64155,1,4,0:0:0:0:
64,192,64342,1,0,0:0:0:0:
192,192,64717,1,0,0:0:0:0:
320,192,64905,1,4,0:0:0:0:
448,192,65092,128,0,65280:0:0:0:0:
320,192,65280,128,12,65655:0:0:0:0:
192,192,65280,1,0,0:0:0:0:
64,192,65467,1,0,0:0:0:0:
192,192,65655,128,0,66030:0:0:0:0:
448,192,65655,1,4,0:0:0:0:
320,192,65842,1,0,0:0:0:0:
64,192,66030,128,4,66405:0:0:0:0:
448,192,66030,1,0,0:0:0:0:
320,192,66217,1,0,0:0:0:0:
192,192,66405,1,4,0:0:0:0:
320,192,66592,1,0,0:0:0:0:
192,192,66780,1,12,0:0:0:0:
448,192,66967,1,0,0:0:0:0:
320,192,67342,1,0,0:0:0:0:
448,192,67436,1,0,0:0:0:0:
192,192,67530,1,4,0:0:0:0:
64,192,67686,1,0,0:0:0:0:
448,192,67717,1,0,0:0:0:0:
192,192,67905,1,4,0:0:0:0:
64,192,68061,1,0,0:0:0:0:
448,192,68092,128,0,68280:0:0:0:0:
192,192,68280,128,12,68655:0:0:0:0:
320,192,68280,1,0,0:0:0:0:
448,192,68467,1,0,0:0:0:0:
320,192,68655,128,0,69030:0:0:0:0:
64,192,68655,1,4,0:0:0:0:
192,192,68842,1,0,0:0:0:0:
64,192,69030,1,0,0:0:0:0:
192,192,69123,1,0,0:0:0:0:
448,192,69217,1,0,0:0:0:0:
64,192,69311,1,0,0:0:0:0:
320,192,69405,1,4,0:0:0:0:
192,192,69498,1,0,0:0:0:0:
448,192,69592,1,0,0:0:0:0:
320,192,69686,1,0,0:0:0:0:
192,192,69780,1,12,0:0:0:0:
64,192,69873,1,0,0:0:0:0:
320,192,69967,1,0,0:0:0:0:
448,192,70061,1,0,0:0:0:0:
192,192,70155,1,4,0:0:0:0:
320,192,70248,1,0,0:0:0:0:
64,192,70342,1,0,0:0:0:0:
192,192,70436,1,0,0:0:0:0:
448,192,70530,1,4,0:0:0:0:
320,192,70623,1,0,0:0:0:0:
192,192,70717,1,0,0:0:0:0:
320,192,70811,1,0,0:0:0:0:
192,192,70905,1,4,0:0:0:0:
64,192,70998,1,0,0:0:0:0:
320,192,71092,1,0,0:0:0:0:
64,192,71186,1,0,0:0:0:0:
192,192,71280,1,12,0:0:0:0:
320,192,71467,1,0,0:0:0:0:
448,192,71561,1,0,0:0:0:0:
320,192,71655,1,4,0:0:0:0:
192,192,71748,1,0,0:0:0:0:
320,192,71842,1,0,0:0:0:0:
192,192,71936,1,0,0:0:0:0:
64,192,72030,1,0,0:0:0:0:
448,192,72030,128,0,72780:0:0:0:0:
192,192,72780,128,0,73530:0:0:0:0:
64,192,72780,1,0,0:0:0:0:
320,192,73530,1,2,0:0:0:0:
448,192,73530,1,2,0:0:0:0:
448,192,73811,1,2,0:0:0:0:
448,192,74092,1,2,0:0:0:0:
320,192,74280,1,2,0:0:0:0:
320,192,74561,1,2,0:0:0:0:
320,192,74842,1,2,0:0:0:0:
192,192,75030,1,2,0:0:0:0:
192,192,75311,1,2,0:0:0:0:
192,192,75592,1,2,0:0:0:0:
64,192,75780,1,2,0:0:0:0:
64,192,76061,1,2,0:0:0:0:
64,192,76342,1,2,0:0:0:0:
64,192,76530,1,2,0:0:0:0:
64,192,76655,1,2,0:0:0:0:
64,192,76780,1,2,0:0:0:0:
192,192,76905,1,2,0:0:0:0:
192,192,77030,1,2,0:0:0:0:
192,192,77155,1,2,0:0:0:0:
320,192,77280,1,2,0:0:0:0:
320,192,77405,1,2,0:0:0:0:
320,192,77530,1,2,0:0:0:0:
448,192,77655,1,2,0:0:0:0:
448,192,77780,1,2,0:0:0:0:
448,192,77905,1,2,0:0:0:0:
64,192,78030,128,2,78155:0:0:0:0:
192,192,78030,1,0,0:0:0:0:
64,192,79155,1,12,0:0:0:0:
320,192,79155,1,12,0:0:0:0:
448,192,79155,1,12,0:0:0:0:
320,192,79530,1,2,0:0:0:0:
448,192,79530,1,4,0:0:0:0:
448,192,79623,1,0,0:0:0:0:
192,192,79717,1,0,0:0:0:0:
64,192,79905,1,2,0:0:0:0:
192,192,79905,1,0,0:0:0:0:
64,192,79998,1,0,0:0:0:0:
448,192,80092,1,0,0:0:0:0:
320,192,80186,1,0,0:0:0:0:
192,192,80280,1,2,0:0:0:0:
448,192,80280,1,0,0:0:0:0:
320,192,80467,1,0,0:0:0:0:
192,192,80561,1,0,0:0:0:0:
448,192,80655,1,2,0:0:0:0:
64,192,80655,1,0,0:0:0:0:
320,192,80842,1,0,0:0:0:0:
192,192,80936,1,0,0:0:0:0:
320,192,81030,1,0,0:0:0:0:
448,192,81030,1,2,0:0:0:0:
448,192,81217,1,0,0:0:0:0:
448,192,81311,1,0,0:0:0:0:
192,192,81405,1,0,0:0:0:0:
64,192,81405,1,2,0:0:0:0:
320,192,81498,1,0,0:0:0:0:
320,192,81686,1,0,0:0:0:0:
192,192,81780,1,2,0:0:0:0:
64,192,81780,1,0,0:0:0:0:
64,192,81873,1,0,0:0:0:0:
320,192,81967,1,0,0:0:0:0:
448,192,82061,1,0,0:0:0:0:
192,192,82155,1,2,0:0:0:0:
320,192,82155,1,0,0:0:0:0:
192,192,82342,1,0,0:0:0:0:
320,192,82342,1,2,0:0:0:0:
64,192,82530,1,2,0:0:0:0:
192,192,82530,1,0,0:0:0:0:
64,192,82623,1,0,0:0:0:0:
448,192,82811,1,0,0:0:0:0:
192,192,82905,1,2,0:0:0:0:
320,192,82905,1,0,0:0:0:0:
448,192,82998,1,0,0:0:0:0:
64,192,83092,1,0,0:0:0:0:
320,192,83186,1,0,0:0:0:0:
192,192,83280,1,2,0:0:0:0:
64,192,83280,1,0,0:0:0:0:
192,192,83467,1,0,0:0:0:0:
320,192,83561,1,0,0:0:0:0:
192,192,83655,1,2,0:0:0:0:
64,192,83655,1,0,0:0:0:0:
320,192,83748,1,0,0:0:0:0:
64,192,83842,1,0,0:0:0:0:
448,192,83936,1,0,0:0:0:0:
192,192,84030,1,2,0:0:0:0:
320,192,84030,1,0,0:0:0:0:
192,192,84217,1,0,0:0:0:0:
192,192,84311,1,0,0:0:0:0:
64,192,84405,1,2,0:0:0:0:
448,192,84405,1,0,0:0:0:0:
320,192,84592,1,0,0:0:0:0:
448,192,84686,1,0,0:0:0:0:
192,192,84780,1,0,0:0:0:0:
64,192,84780,1,2,0:0:0:0:
192,192,84967,1,0,0:0:0:0:
320,192,85061,1,0,0:0:0:0:
64,192,85155,1,2,0:0:0:0:
448,192,85155,1,0,0:0:0:0:
64,192,85342,1,2,0:0:0:0:
448,192,85342,1,0,0:0:0:0:
320,192,85530,1,2,0:0:0:0:
192,192,85530,1,0,0:0:0:0:
320,192,85717,1,0,0:0:0:0:
64,192,85905,1,2,0:0:0:0:
192,192,85905,1,0,0:0:0:0:
192,192,85998,1,0,0:0:0:0:
448,192,86092,1,0,0:0:0:0:
192,192,86186,1,0,0:0:0:0:
320,192,86280,1,2,0:0:0:0:
64,192,86280,1,0,0:0:0:0:
448,192,86373,1,0,0:0:0:0:
448,192,86561,1,0,0:0:0:0:
192,192,86655,1,2,0:0:0:0:
64,192,86655,1,0,0:0:0:0:
320,192,86842,1,0,0:0:0:0:
192,192,86936,1,0,0:0:0:0:
64,192,87030,1,2,0:0:0:0:
448,192,87030,1,0,0:0:0:0:
320,192,87217,1,0,0:0:0:0:
192,192,87405,1,2,0:0:0:0:
64,192,87405,1,0,0:0:0:0:
192,192,87592,1,0,0:0:0:0:
448,192,87686,1,0,0:0:0:0:
320,192,87780,1,2,0:0:0:0:
64,192,87780,1,0,0:0:0:0:
448,192,87873,1,0,0:0:0:0:
448,192,88061,1,0,0:0:0:0:
192,192,88155,1,2,0:0:0:0:
64,192,88155,1,0,0:0:0:0:
192,192,88342,1,0,0:0:0:0:
64,192,88342,1,2,0:0:0:0:
320,192,88530,1,2,0:0:0:0:
192,192,88530,1,0,0:0:0:0:
320,192,88623,1,0,0:0:0:0:
64,192,88717,1,0,0:0:0:0:
192,192,88811,1,0,0:0:0:0:
448,192,88905,1,2,0:0:0:0:
64,192,88905,1,0,0:0:0:0:
320,192,89092,1,0,0:0:0:0:
64,192,89186,1,0,0:0:0:0:
320,192,89280,1,2,0:0:0:0:
192,192,89280,1,0,0:0:0:0:
448,192,89373,1,0,0:0:0:0:
448,192,89561,1,0,0:0:0:0:
64,192,89655,1,2,0:0:0:0:
320,192,89655,1,0,0:0:0:0:
320,192,89842,1,2,0:0:0:0:
64,192,89842,1,0,0:0:0:0:
448,192,90030,1,2,0:0:0:0:
192,192,90030,1,0,0:0:0:0:
320,192,90217,1,0,0:0:0:0:
192,192,90405,1,2,0:0:0:0:
64,192,90405,1,0,0:0:0:0:
192,192,90498,1,0,0:0:0:0:
448,192,90592,1,2,0:0:0:0:
320,192,90592,1,0,0:0:0:0:
64,192,90780,1,2,0:0:0:0:
192,192,90780,1,4,0:0:0:0:
320,192,90967,1,2,0:0:0:0:
448,192,90967,1,4,0:0:0:0:
448,192,91061,1,4,0:0:0:0:
320,192,91061,1,2,0:0:0:0:
192,192,91155,1,4,0:0:0:0:
64,192,91155,1,0,0:0:0:0:
64,192,91342,1,2,0:0:0:0:
192,192,91342,1,4,0:0:0:0:
320,192,91530,1,2,0:0:0:0:
448,192,91530,128,0,91905:0:0:0:0:
64,192,91905,128,0,92092:0:0:0:0:
192,192,91905,1,0,0:0:0:0:
320,192,92092,128,0,92467:0:0:0:0:
448,192,92280,1,8,0:0:0:0:
64,192,92280,1,0,0:0:0:0:
192,192,92467,128,0,92655:0:0:0:0:
448,192,92655,128,0,93030:0:0:0:0:
64,192,92655,1,0,0:0:0:0:
192,192,92842,1,2,0:0:0:0:
192,192,93030,128,0,93405:0:0:0:0:
320,192,93030,1,2,0:0:0:0:
64,192,93030,1,0,0:0:0:0:
320,192,93405,128,0,93780:0:0:0:0:
448,192,93405,1,2,0:0:0:0:
64,192,93405,1,0,0:0:0:0:
64,192,93780,128,4,94155:0:0:0:0:
192,192,93780,1,0,0:0:0:0:
448,192,93780,1,0,0:0:0:0:
448,192,94155,1,0,0:0:0:0:
320,192,94342,1,0,0:0:0:0:
192,192,94530,128,0,94905:0:0:0:0:
64,192,94530,1,2,0:0:0:0:
448,192,94530,1,0,0:0:0:0:
64,192,94905,128,0,95092:0:0:0:0:
320,192,94905,1,0,0:0:0:0:
320,192,95092,128,0,95280:0:0:0:0:
448,192,95092,1,2,0:0:0:0:
192,192,95280,128,8,95655:0:0:0:0:
448,192,95280,1,2,0:0:0:0:
64,192,95280,1,0,0:0:0:0:
448,192,95655,128,0,96030:0:0:0:0:
320,192,95655,1,0,0:0:0:0:
64,192,95842,1,2,0:0:0:0:
320,192,96030,128,0,96405:0:0:0:0:
192,192,96030,1,2,0:0:0:0:
64,192,96030,1,0,0:0:0:0:
192,192,96405,1,0,0:0:0:0:
448,192,96592,1,2,0:0:0:0:
320,192,96592,1,0,0:0:0:0:
64,192,96780,1,2,0:0:0:0:
192,192,96780,1,4,0:0:0:0:
320,192,96967,1,0,0:0:0:0:
192,192,97061,1,0,0:0:0:0:
64,192,97155,1,0,0:0:0:0:
448,192,97342,1,0,0:0:0:0:
320,192,97530,128,0,97905:0:0:0:0:
192,192,97530,1,2,0:0:0:0:
64,192,97530,1,0,0:0:0:0:
64,192,97905,128,0,98092:0:0:0:0:
192,192,97905,1,0,0:0:0:0:
448,192,98092,128,0,98467:0:0:0:0:
320,192,98280,1,0,0:0:0:0:
192,192,98280,1,8,0:0:0:0:
320,192,98467,128,0,98655:0:0:0:0:
192,192,98655,128,0,99030:0:0:0:0:
64,192,98655,1,0,0:0:0:0:
448,192,98842,1,2,0:0:0:0:
320,192,99030,128,0,99405:0:0:0:0:
448,192,99030,1,2,0:0:0:0:
64,192,99030,1,0,0:0:0:0:
64,192,99405,128,0,99780:0:0:0:0:
192,192,99405,1,2,0:0:0:0:
448,192,99405,1,0,0:0:0:0:
320,192,99780,1,4,0:0:0:0:
448,192,99780,1,0,0:0:0:0:
192,192,99967,1,0,0:0:0:0:
448,192,100155,1,0,0:0:0:0:
320,192,100342,128,0,100530:0:0:0:0:
192,192,100530,128,0,100717:0:0:0:0:
64,192,100530,1,2,0:0:0:0:
448,192,100530,1,0,0:0:0:0:
64,192,100905,128,0,101092:0:0:0:0:
448,192,100905,1,0,0:0:0:0:
320,192,101092,128,0,101655:0:0:0:0:
192,192,101092,1,2,0:0:0:0:
192,192,101280,1,0,0:0:0:0:
64,192,101280,1,8,0:0:0:0:
448,192,101655,128,0,102030:0:0:0:0:
64,192,101655,1,0,0:0:0:0:
192,192,101842,1,2,0:0:0:0:
192,192,102030,128,2,102405:0:0:0:0:
320,192,102030,1,0,0:0:0:0:
64,192,102030,1,0,0:0:0:0:
448,192,102217,1,0,0:0:0:0:
64,192,102405,1,0,0:0:0:0:
320,192,102592,1,2,0:0:0:0:
448,192,102780,128,2,103155:0:0:0:0:
320,192,102780,1,4,0:0:0:0:
192,192,103155,128,2,103530:0:0:0:0:
64,192,103155,1,0,0:0:0:0:
64,192,103530,128,0,103905:0:0:0:0:
320,192,103530,1,2,0:0:0:0:
448,192,103530,1,0,0:0:0:0:
448,192,103905,128,0,104092:0:0:0:0:
192,192,103905,1,0,0:0:0:0:
320,192,104092,128,0,104280:0:0:0:0:
192,192,104280,128,0,104467:0:0:0:0:
64,192,104280,1,8,0:0:0:0:
448,192,104280,1,0,0:0:0:0:
192,192,104655,128,0,105030:0:0:0:0:
320,192,104655,1,0,0:0:0:0:
64,192,104842,1,2,0:0:0:0:
448,192,105030,128,0,105405:0:0:0:0:
64,192,105030,1,2,0:0:0:0:
320,192,105030,1,0,0:0:0:0:
320,192,105405,128,2,105780:0:0:0:0:
192,192,105405,1,0,0:0:0:0:
64,192,105405,1,0,0:0:0:0:
64,192,105780,1,4,0:0:0:0:
448,192,105780,1,0,0:0:0:0:
192,192,105967,1,0,0:0:0:0:
320,192,106155,1,0,0:0:0:0:
448,192,106342,1,0,0:0:0:0:
192,192,106530,128,0,106905:0:0:0:0:
64,192,106530,1,2,0:0:0:0:
320,192,106530,1,0,0:0:0:0:
320,192,106905,128,0,107280:0:0:0:0:
448,192,106905,1,0,0:0:0:0:
64,192,107092,1,2,0:0:0:0:
448,192,107280,128,2,107655:0:0:0:0:
64,192,107280,1,8,0:0:0:0:
192,192,107280,1,0,0:0:0:0:
320,192,107655,128,0,108030:0:0:0:0:
192,192,107655,1,0,0:0:0:0:
64,192,107842,1,2,0:0:0:0:
448,192,108030,128,2,108405:0:0:0:0:
64,192,108030,1,0,0:0:0:0:
192,192,108030,1,0,0:0:0:0:
192,192,108405,1,0,0:0:0:0:
320,192,108592,1,2,0:0:0:0:
192,192,108780,1,2,0:0:0:0:
64,192,108780,1,4,0:0:0:0:
320,192,108967,1,0,0:0:0:0:
192,192,109061,1,0,0:0:0:0:
448,192,109155,1,0,0:0:0:0:
320,192,109342,1,0,0:0:0:0:
448,192,109530,128,0,109905:0:0:0:0:
64,192,109530,1,2,0:0:0:0:
192,192,109530,1,0,0:0:0:0:
192,192,109905,128,0,110092:0:0:0:0:
64,192,109905,1,0,0:0:0:0:
320,192,110092,128,0,110280:0:0:0:0:
448,192,110280,1,8,0:0:0:0:
64,192,110280,1,0,0:0:0:0:
192,192,110467,128,0,110655:0:0:0:0:
320,192,110655,128,0,111030:0:0:0:0:
64,192,110655,1,0,0:0:0:0:
192,192,110842,1,2,0:0:0:0:
64,192,111030,128,0,111405:0:0:0:0:
192,192,111030,1,2,0:0:0:0:
448,192,111030,1,0,0:0:0:0:
192,192,111405,128,2,111780:0:0:0:0:
448,192,111405,1,0,0:0:0:0:
320,192,111405,1,0,0:0:0:0:
448,192,111780,1,4,0:0:0:0:
64,192,111780,1,0,0:0:0:0:
192,192,111967,1,0,0:0:0:0:
448,192,112155,1,0,0:0:0:0:
192,192,112342,128,0,112530:0:0:0:0:
64,192,112530,128,2,112905:0:0:0:0:
320,192,112530,1,0,0:0:0:0:
448,192,112530,1,0,0:0:0:0:
192,192,112905,128,0,113092:0:0:0:0:
448,192,112905,1,0,0:0:0:0:
448,192,113092,128,0,113467:0:0:0:0:
320,192,113092,1,2,0:0:0:0:
320,192,113280,1,8,0:0:0:0:
64,192,113280,1,0,0:0:0:0:
320,192,113467,128,0,113655:0:0:0:0:
64,192,113655,128,0,114030:0:0:0:0:
192,192,113655,1,0,0:0:0:0:
448,192,113842,1,2,0:0:0:0:
192,192,114030,128,2,114405:0:0:0:0:
448,192,114030,1,0,0:0:0:0:
320,192,114030,1,0,0:0:0:0:
64,192,114217,128,0,114405:0:0:0:0:
320,192,114405,128,0,114592:0:0:0:0:
192,192,114592,128,2,114780:0:0:0:0:
64,192,114592,1,0,0:0:0:0:
448,192,114780,128,0,115155:0:0:0:0:
320,192,114780,1,4,0:0:0:0:
64,192,114780,1,0,0:0:0:0:
192,192,115155,128,0,115530:0:0:0:0:
448,192,115530,128,0,115905:0:0:0:0:
320,192,115530,1,0,0:0:0:0:
64,192,115905,128,0,116280:0:0:0:0:
448,192,116092,1,4,0:0:0:0:
192,192,116280,128,0,116655:0:0:0:0:
320,192,116655,128,0,117030:0:0:0:0:
448,192,116655,1,4,0:0:0:0:
192,192,117030,128,0,117405:0:0:0:0:
448,192,117217,1,4,0:0:0:0:
320,192,117405,128,0,117780:0:0:0:0:
64,192,117592,1,4,0:0:0:0:
192,192,117686,1,4,0:0:0:0:
64,192,117780,128,0,118155:0:0:0:0:
448,192,117780,1,4,0:0:0:0:
448,192,117967,1,4,0:0:0:0:
192,192,118155,128,0,118530:0:0:0:0:
320,192,118155,1,4,0:0:0:0:
320,192,118342,1,4,0:0:0:0:
448,192,118530,128,0,119092:0:0:0:0:
64,192,118530,1,0,0:0:0:0:
320,192,119092,128,0,119280:0:0:0:0:
192,192,119280,128,0,120030:0:0:0:0:
64,192,119842,1,0,0:0:0:0:
448,192,120030,1,0,0:0:0:0:
320,192,120217,1,0,0:0:0:0:
192,192,120405,1,0,0:0:0:0:
320,192,120592,1,0,0:0:0:0:
64,192,120780,1,0,0:0:0:0:
448,192,120967,1,0,0:0:0:0:
320,192,121061,1,0,0:0:0:0:
192,192,121155,128,0,121530:0:0:0:0:
64,192,121342,1,0,0:0:0:0:
448,192,121530,128,0,121905:0:0:0:0:
320,192,121530,1,0,0:0:0:0:
192,192,121905,128,0,122280:0:0:0:0:
64,192,121905,1,0,0:0:0:0:
320,192,122280,128,0,122655:0:0:0:0:
64,192,122467,1,0,0:0:0:0:
448,192,122655,128,0,123030:0:0:0:0:
192,192,123030,128,0,123405:0:0:0:0:
320,192,123030,1,0,0:0:0:0:
320,192,123405,128,0,123780:0:0:0:0:
448,192,123639,1,0,0:0:0:0:
64,192,123780,128,0,124155:0:0:0:0:
192,192,124155,128,0,124530:0:0:0:0:
320,192,124155,1,0,0:0:0:0:
320,192,124530,128,0,124905:0:0:0:0:
448,192,124530,1,0,0:0:0:0:
192,192,124905,128,0,125280:0:0:0:0:
64,192,125280,128,4,125655:0:0:0:0:
320,192,125280,1,0,0:0:0:0:
320,192,125655,128,4,126030:0:0:0:0:
192,192,125655,1,0,0:0:0:0:
64,192,126030,1,0,0:0:0:0:
192,192,126030,1,0,0:0:0:0:
64,192,126311,1,0,0:0:0:0:
192,192,126405,1,8,0:0:0:0:
64,192,126592,1,0,0:0:0:0:
64,192,126780,1,0,0:0:0:0:
192,192,126873,1,0,0:0:0:0:
448,192,126967,1,0,0:0:0:0:
64,192,127061,1,0,0:0:0:0:
320,192,127155,1,8,0:0:0:0:
64,192,127342,1,0,0:0:0:0:
64,192,127530,1,0,0:0:0:0:
448,192,127623,1,0,0:0:0:0:
320,192,127717,1,0,0:0:0:0:
64,192,127811,1,0,0:0:0:0:
320,192,127905,1,8,0:0:0:0:
64,192,128092,1,0,0:0:0:0:
64,192,128280,1,0,0:0:0:0:
320,192,128373,1,0,0:0:0:0:
192,192,128467,1,0,0:0:0:0:
64,192,128561,1,0,0:0:0:0:
448,192,128655,1,8,0:0:0:0:
64,192,128842,1,0,0:0:0:0:
448,192,129030,1,0,0:0:0:0:
320,192,129123,1,0,0:0:0:0:
192,192,129217,1,0,0:0:0:0:
448,192,129311,1,0,0:0:0:0:
320,192,129405,1,8,0:0:0:0:
448,192,129592,1,0,0:0:0:0:
448,192,129780,1,0,0:0:0:0:
64,192,129873,1,0,0:0:0:0:
320,192,129967,1,0,0:0:0:0:
448,192,130061,1,0,0:0:0:0:
192,192,130155,1,8,0:0:0:0:
448,192,130342,1,0,0:0:0:0:
448,192,130530,1,0,0:0:0:0:
192,192,130623,1,0,0:0:0:0:
320,192,130717,1,0,0:0:0:0:
448,192,130811,1,0,0:0:0:0:
64,192,130905,1,8,0:0:0:0:
448,192,131092,1,0,0:0:0:0:
448,192,131280,1,0,0:0:0:0:
320,192,131373,1,0,0:0:0:0:
192,192,131467,1,0,0:0:0:0:
448,192,131561,1,0,0:0:0:0:
64,192,131655,1,8,0:0:0:0:
448,192,131842,1,0,0:0:0:0:
320,192,132030,1,0,0:0:0:0:
64,192,132123,1,0,0:0:0:0:
192,192,132217,1,0,0:0:0:0:
320,192,132311,1,0,0:0:0:0:
448,192,132405,1,8,0:0:0:0:
320,192,132592,1,0,0:0:0:0:
320,192,132780,1,0,0:0:0:0:
448,192,132873,1,0,0:0:0:0:
192,192,132967,1,0,0:0:0:0:
320,192,133061,1,0,0:0:0:0:
64,192,133155,1,8,0:0:0:0:
320,192,133342,1,0,0:0:0:0:
320,192,133530,1,0,0:0:0:0:
64,192,133623,1,0,0:0:0:0:
192,192,133717,1,0,0:0:0:0:
320,192,133811,1,0,0:0:0:0:
448,192,133905,1,8,0:0:0:0:
320,192,134092,1,0,0:0:0:0:
320,192,134280,1,0,0:0:0:0:
448,192,134373,1,0,0:0:0:0:
64,192,134467,1,0,0:0:0:0:
320,192,134561,1,0,0:0:0:0:
192,192,134655,1,8,0:0:0:0:
320,192,134842,1,0,0:0:0:0:
192,192,135030,1,0,0:0:0:0:
320,192,135123,1,0,0:0:0:0:
448,192,135217,1,0,0:0:0:0:
192,192,135311,1,0,0:0:0:0:
64,192,135405,1,8,0:0:0:0:
192,192,135592,1,0,0:0:0:0:
192,192,135780,1,0,0:0:0:0:
64,192,135873,1,0,0:0:0:0:
448,192,135967,1,0,0:0:0:0:
192,192,136061,1,0,0:0:0:0:
320,192,136155,1,8,0:0:0:0:
192,192,136342,1,0,0:0:0:0:
192,192,136530,1,0,0:0:0:0:
320,192,136623,1,0,0:0:0:0:
64,192,136717,1,0,0:0:0:0:
192,192,136811,1,0,0:0:0:0:
448,192,136905,1,8,0:0:0:0:
192,192,137092,1,0,0:0:0:0:
192,192,137280,1,0,0:0:0:0:
448,192,137373,1,0,0:0:0:0:
320,192,137467,1,0,0:0:0:0:
192,192,137561,1,0,0:0:0:0:
64,192,137655,1,8,0:0:0:0:
192,192,137842,1,0,0:0:0:0:
320,192,138030,1,0,0:0:0:0:
448,192,138123,1,0,0:0:0:0:
192,192,138217,1,0,0:0:0:0:
320,192,138311,1,0,0:0:0:0:
64,192,138405,1,8,0:0:0:0:
320,192,138592,1,0,0:0:0:0:
320,192,138780,1,0,0:0:0:0:
64,192,138873,1,0,0:0:0:0:
192,192,138967,1,0,0:0:0:0:
320,192,139061,1,0,0:0:0:0:
448,192,139155,1,8,0:0:0:0:
320,192,139342,1,0,0:0:0:0:
320,192,139530,1,0,0:0:0:0:
448,192,139623,1,0,0:0:0:0:
64,192,139717,1,0,0:0:0:0:
320,192,139811,1,0,0:0:0:0:
192,192,139905,1,8,0:0:0:0:
320,192,140092,1,0,0:0:0:0:
192,192,140280,1,0,0:0:0:0:
320,192,140373,1,0,0:0:0:0:
64,192,140467,1,0,0:0:0:0:
192,192,140561,1,0,0:0:0:0:
448,192,140655,1,8,0:0:0:0:
320,192,140842,1,0,0:0:0:0:
64,192,141030,1,0,0:0:0:0:
192,192,141123,1,0,0:0:0:0:
448,192,141217,1,0,0:0:0:0:
64,192,141311,1,0,0:0:0:0:
192,192,141405,1,8,0:0:0:0:
64,192,141592,1,0,0:0:0:0:
64,192,141780,1,0,0:0:0:0:
448,192,141873,1,0,0:0:0:0:
320,192,141967,1,0,0:0:0:0:
64,192,142061,1,0,0:0:0:0:
192,192,142155,1,8,0:0:0:0:
64,192,142342,1,0,0:0:0:0:
448,192,142530,1,0,0:0:0:0:
192,192,142623,1,0,0:0:0:0:
64,192,142717,1,0,0:0:0:0:
448,192,142811,1,0,0:0:0:0:
320,192,142905,1,8,0:0:0:0:
448,192,143092,1,0,0:0:0:0:
448,192,143280,1,0,0:0:0:0:
320,192,143373,1,0,0:0:0:0:
64,192,143467,1,0,0:0:0:0:
448,192,143561,1,0,0:0:0:0:
320,192,143655,1,8,0:0:0:0:
448,192,143842,1,0,0:0:0:0:
320,192,144030,1,0,0:0:0:0:
64,192,144123,1,0,0:0:0:0:
192,192,144217,1,0,0:0:0:0:
320,192,144311,1,0,0:0:0:0:
64,192,144405,1,8,0:0:0:0:
320,192,144592,1,0,0:0:0:0:
320,192,144780,1,0,0:0:0:0:
192,192,144873,1,0,0:0:0:0:
64,192,144967,1,0,0:0:0:0:
320,192,145061,1,0,0:0:0:0:
448,192,145155,1,8,0:0:0:0:
320,192,145342,1,0,0:0:0:0:
320,192,145530,1,0,0:0:0:0:
64,192,145623,1,0,0:0:0:0:
192,192,145717,1,0,0:0:0:0:
320,192,145811,1,0,0:0:0:0:
448,192,145905,1,8,0:0:0:0:
320,192,146092,1,0,0:0:0:0:
192,192,146280,1,0,0:0:0:0:
320,192,146373,1,0,0:0:0:0:
448,192,146467,1,0,0:0:0:0:
192,192,146561,1,0,0:0:0:0:
320,192,146655,1,8,0:0:0:0:
192,192,146842,1,0,0:0:0:0:
64,192,147030,1,0,0:0:0:0:
448,192,147123,1,0,0:0:0:0:
320,192,147217,1,0,0:0:0:0:
64,192,147311,1,0,0:0:0:0:
448,192,147405,1,8,0:0:0:0:
64,192,147592,1,0,0:0:0:0:
64,192,147780,1,0,0:0:0:0:
192,192,147873,1,0,0:0:0:0:
448,192,147967,1,0,0:0:0:0:
64,192,148061,1,0,0:0:0:0:
320,192,148155,1,8,0:0:0:0:
64,192,148342,1,0,0:0:0:0:
64,192,148530,1,0,0:0:0:0:
320,192,148623,1,0,0:0:0:0:
448,192,148717,1,0,0:0:0:0:
320,192,148905,1,8,0:0:0:0:
320,192,149092,1,0,0:0:0:0:
192,192,149186,1,0,0:0:0:0:
64,192,149280,1,0,0:0:0:0:
320,192,149373,1,0,0:0:0:0:
448,192,149467,1,0,0:0:0:0:
192,192,149655,1,8,0:0:0:0:
320,192,149748,1,0,0:0:0:0:
192,192,149842,1,0,0:0:0:0:
320,192,149936,1,0,0:0:0:0:
64,192,150030,1,2,0:0:0:0:
192,192,150030,1,0,0:0:0:0:
64,192,150123,1,0,0:0:0:0:
448,192,150217,1,0,0:0:0:0:
192,192,150405,1,8,0:0:0:0:
448,192,150405,1,0,0:0:0:0:
448,192,150498,1,0,0:0:0:0:
320,192,150592,1,0,0:0:0:0:
192,192,150686,1,0,0:0:0:0:
64,192,150780,1,2,0:0:0:0:
320,192,150780,1,0,0:0:0:0:
64,192,150967,1,0,0:0:0:0:
192,192,151061,1,0,0:0:0:0:
320,192,151155,1,8,0:0:0:0:
448,192,151155,1,0,0:0:0:0:
320,192,151342,1,0,0:0:0:0:
192,192,151530,1,2,0:0:0:0:
64,192,151530,1,0,0:0:0:0:
192,192,151717,1,0,0:0:0:0:
192,192,151811,1,0,0:0:0:0:
320,192,151905,1,8,0:0:0:0:
448,192,151905,1,0,0:0:0:0:
64,192,151998,1,0,0:0:0:0:
64,192,152186,1,0,0:0:0:0:
192,192,152280,1,2,0:0:0:0:
448,192,152280,1,0,0:0:0:0:
192,192,152373,1,0,0:0:0:0:
448,192,152467,1,0,0:0:0:0:
320,192,152561,1,0,0:0:0:0:
192,192,152655,1,8,0:0:0:0:
64,192,152655,1,0,0:0:0:0:
192,192,152842,1,0,0:0:0:0:
64,192,152842,1,0,0:0:0:0:
320,192,153030,1,2,0:0:0:0:
448,192,153030,1,0,0:0:0:0:
64,192,153123,1,0,0:0:0:0:
64,192,153311,1,0,0:0:0:0:
192,192,153405,1,8,0:0:0:0:
448,192,153405,1,0,0:0:0:0:
320,192,153498,1,0,0:0:0:0:
64,192,153592,1,0,0:0:0:0:
192,192,153686,1,0,0:0:0:0:
320,192,153780,1,2,0:0:0:0:
448,192,153780,1,0,0:0:0:0:
320,192,153967,1,0,0:0:0:0:
448,192,154061,1,0,0:0:0:0:
192,192,154155,1,8,0:0:0:0:
64,192,154155,1,0,0:0:0:0:
320,192,154248,1,0,0:0:0:0:
192,192,154342,1,0,0:0:0:0:
64,192,154436,1,0,0:0:0:0:
448,192,154530,1,2,0:0:0:0:
320,192,154530,1,0,0:0:0:0:
192,192,154717,1,0,0:0:0:0:
192,192,154811,1,0,0:0:0:0:
448,192,154905,1,8,0:0:0:0:
64,192,154905,1,0,0:0:0:0:
320,192,155092,1,0,0:0:0:0:
192,192,155280,1,2,0:0:0:0:
64,192,155280,1,0,0:0:0:0:
192,192,155467,1,0,0:0:0:0:
320,192,155561,1,0,0:0:0:0:
448,192,155655,1,8,0:0:0:0:
64,192,155655,1,0,0:0:0:0:
448,192,155842,1,0,0:0:0:0:
64,192,155842,1,0,0:0:0:0:
192,192,156030,1,2,0:0:0:0:
64,192,156030,1,0,0:0:0:0:
320,192,156217,1,0,0:0:0:0:
192,192,156311,1,0,0:0:0:0:
320,192,156405,1,8,0:0:0:0:
448,192,156405,1,0,0:0:0:0:
192,192,156498,1,0,0:0:0:0:
64,192,156592,1,0,0:0:0:0:
192,192,156780,1,2,0:0:0:0:
320,192,156780,1,0,0:0:0:0:
448,192,156873,1,0,0:0:0:0:
448,192,157061,1,0,0:0:0:0:
192,192,157155,1,8,0:0:0:0:
64,192,157155,1,0,0:0:0:0:
192,192,157342,1,0,0:0:0:0:
64,192,157530,1,2,0:0:0:0:
320,192,157530,1,0,0:0:0:0:
320,192,157717,1,0,0:0:0:0:
64,192,157905,1,8,0:0:0:0:
192,192,157905,1,0,0:0:0:0:
64,192,158092,1,0,0:0:0:0:
192,192,158280,1,2,0:0:0:0:
320,192,158280,1,0,0:0:0:0:
448,192,158373,1,0,0:0:0:0:
448,192,158561,1,0,0:0:0:0:
192,192,158655,1,8,0:0:0:0:
64,192,158655,1,0,0:0:0:0:
192,192,158842,1,0,0:0:0:0:
64,192,158842,1,0,0:0:0:0:
192,192,159030,1,2,0:0:0:0:
320,192,159030,1,0,0:0:0:0:
320,192,159123,1,0,0:0:0:0:
448,192,159217,1,0,0:0:0:0:
192,192,159311,1,0,0:0:0:0:
64,192,159405,1,0,0:0:0:0:
320,192,159405,1,8,0:0:0:0:
320,192,159592,1,0,0:0:0:0:
192,192,159780,1,2,0:0:0:0:
64,192,159780,1,0,0:0:0:0:
448,192,159873,1,0,0:0:0:0:
320,192,160061,1,0,0:0:0:0:
192,192,160155,1,8,0:0:0:0:
64,192,160155,1,0,0:0:0:0:
192,192,160342,1,0,0:0:0:0:
320,192,160342,1,0,0:0:0:0:
320,192,160530,1,2,0:0:0:0:
448,192,160530,1,0,0:0:0:0:
192,192,160717,1,0,0:0:0:0:
64,192,160905,1,8,0:0:0:0:
320,192,160905,1,0,0:0:0:0:
320,192,160998,1,0,0:0:0:0:
192,192,161092,1,0,0:0:0:0:
64,192,161280,1,2,0:0:0:0:
448,192,161280,1,0,0:0:0:0:
192,192,161373,1,0,0:0:0:0:
320,192,161467,1,0,0:0:0:0:
192,192,161561,1,0,0:0:0:0:
320,192,161655,1,0,0:0:0:0:
448,192,161655,1,8,0:0:0:0:
320,192,161842,1,0,0:0:0:0:
192,192,162030,1,2,0:0:0:0:
64,192,162030,1,2,0:0:0:0:
192,192,162123,1,0,0:0:0:0:
320,192,162217,1,0,0:0:0:0:
64,192,162311,1,0,0:0:0:0:
192,192,162405,1,8,0:0:0:0:
448,192,162405,1,8,0:0:0:0:
448,192,162498,1,0,0:0:0:0:
64,192,162592,1,0,0:0:0:0:
192,192,162686,1,0,0:0:0:0:
320,192,162780,1,2,0:0:0:0:
448,192,162780,1,2,0:0:0:0:
64,192,162873,1,0,0:0:0:0:
320,192,162967,1,0,0:0:0:0:
192,192,163061,1,0,0:0:0:0:
448,192,163155,1,8,0:0:0:0:
64,192,163155,1,8,0:0:0:0:
320,192,163248,1,0,0:0:0:0:
192,192,163342,1,0,0:0:0:0:
320,192,163436,1,0,0:0:0:0:
192,192,163530,1,2,0:0:0:0:
64,192,163530,1,2,0:0:0:0:
448,192,163623,1,0,0:0:0:0:
320,192,163717,1,0,0:0:0:0:
320,192,163811,1,0,0:0:0:0:
192,192,163905,1,8,0:0:0:0:
64,192,163905,1,8,0:0:0:0:
448,192,163998,1,0,0:0:0:0:
64,192,164092,1,0,0:0:0:0:
448,192,164186,1,0,0:0:0:0:
320,192,164280,1,2,0:0:0:0:
192,192,164280,1,2,0:0:0:0:
192,192,164373,1,0,0:0:0:0:
448,192,164467,1,0,0:0:0:0:
448,192,164561,1,0,0:0:0:0:
192,192,164655,1,8,0:0:0:0:
64,192,164655,1,8,0:0:0:0:
192,192,164842,1,0,0:0:0:0:
320,192,165030,1,2,0:0:0:0:
448,192,165030,1,2,0:0:0:0:
64,192,165123,1,0,0:0:0:0:
192,192,165217,1,0,0:0:0:0:
448,192,165311,1,0,0:0:0:0:
320,192,165405,1,8,0:0:0:0:
64,192,165405,1,8,0:0:0:0:
192,192,165498,1,0,0:0:0:0:
320,192,165592,1,0,0:0:0:0:
64,192,165686,1,0,0:0:0:0:
192,192,165780,1,2,0:0:0:0:
448,192,165780,1,2,0:0:0:0:
320,192,165873,1,0,0:0:0:0:
192,192,165967,1,0,0:0:0:0:
448,192,166061,1,0,0:0:0:0:
64,192,166155,1,8,0:0:0:0:
320,192,166155,1,8,0:0:0:0:
192,192,166248,1,0,0:0:0:0:
448,192,166342,1,0,0:0:0:0:
64,192,166436,1,0,0:0:0:0:
320,192,166530,1,2,0:0:0:0:
448,192,166530,1,2,0:0:0:0:
192,192,166623,1,0,0:0:0:0:
320,192,166717,1,0,0:0:0:0:
320,192,166811,1,0,0:0:0:0:
64,192,166905,1,8,0:0:0:0:
448,192,166905,1,8,0:0:0:0:
192,192,166998,1,0,0:0:0:0:
320,192,167092,1,0,0:0:0:0:
448,192,167186,1,0,0:0:0:0:
192,192,167280,1,2,0:0:0:0:
64,192,167280,1,2,0:0:0:0:
320,192,167373,1,0,0:0:0:0:
192,192,167467,1,0,0:0:0:0:
192,192,167561,1,0,0:0:0:0:
320,192,167655,1,8,0:0:0:0:
64,192,167655,1,8,0:0:0:0:
64,192,167842,1,0,0:0:0:0:
320,192,168030,1,2,0:0:0:0:
448,192,168030,1,2,0:0:0:0:
192,192,168123,1,0,0:0:0:0:
448,192,168217,1,0,0:0:0:0:
320,192,168311,1,0,0:0:0:0:
192,192,168405,1,8,0:0:0:0:
64,192,168405,1,8,0:0:0:0:
64,192,168498,1,0,0:0:0:0:
320,192,168592,1,0,0:0:0:0:
192,192,168686,1,0,0:0:0:0:
320,192,168780,1,2,0:0:0:0:
448,192,168780,1,2,0:0:0:0:
448,192,168873,1,0,0:0:0:0:
192,192,168967,1,0,0:0:0:0:
448,192,169061,1,0,0:0:0:0:
320,192,169155,1,8,0:0:0:0:
64,192,169155,1,8,0:0:0:0:
192,192,169248,1,0,0:0:0:0:
448,192,169342,1,0,0:0:0:0:
192,192,169436,1,0,0:0:0:0:
320,192,169530,1,2,0:0:0:0:
448,192,169530,1,2,0:0:0:0:
64,192,169623,1,0,0:0:0:0:
320,192,169717,1,0,0:0:0:0:
192,192,169811,1,0,0:0:0:0:
64,192,169905,1,8,0:0:0:0:
448,192,169905,1,8,0:0:0:0:
320,192,169998,1,0,0:0:0:0:
64,192,170092,1,0,0:0:0:0:
448,192,170186,1,0,0:0:0:0:
192,192,170280,1,2,0:0:0:0:
320,192,170280,1,2,0:0:0:0:
192,192,170373,1,0,0:0:0:0:
320,192,170467,1,0,0:0:0:0:
448,192,170561,1,0,0:0:0:0:
192,192,170655,1,8,0:0:0:0:
64,192,170655,1,8,0:0:0:0:
192,192,170842,1,0,0:0:0:0:
320,192,171030,1,2,0:0:0:0:
448,192,171030,1,2,0:0:0:0:
64,192,171123,1,0,0:0:0:0:
448,192,171217,1,0,0:0:0:0:
64,192,171311,1,0,0:0:0:0:
192,192,171405,1,8,0:0:0:0:
320,192,171405,1,8,0:0:0:0:
448,192,171498,1,0,0:0:0:0:
192,192,171592,1,0,0:0:0:0:
64,192,171686,1,0,0:0:0:0:
320,192,171780,1,2,0:0:0:0:
448,192,171780,1,2,0:0:0:0:
448,192,171873,1,0,0:0:0:0:
192,192,171967,1,0,0:0:0:0:
448,192,172061,1,0,0:0:0:0:
192,192,172155,1,8,0:0:0:0:
64,192,172155,1,8,0:0:0:0:
320,192,172248,1,0,0:0:0:0:
64,192,172342,1,4,0:0:0:0:
192,192,172342,1,0,0:0:0:0:
320,192,172436,1,4,0:0:0:0:
448,192,172436,1,0,0:0:0:0:
192,192,172530,1,2,0:0:0:0:
64,192,172530,1,2,0:0:0:0:
320,192,172530,1,4,0:0:0:0:
448,192,172530,1,4,0:0:0:0:
448,192,172905,1,2,0:0:0:0:
320,192,172905,1,2,0:0:0:0:
192,192,172905,1,4,0:0:0:0:
64,192,172905,1,4,0:0:0:0:
320,192,173092,128,0,173280:0:0:0:0:
64,192,173280,128,0,173655:0:0:0:0:
192,192,173655,128,0,174030:0:0:0:0:
320,192,174030,1,0,0:0:0:0:
448,192,174030,128,0,174436:0:0:0:0:
64,192,174436,128,0,174811:0:0:0:0:
192,192,174592,1,0,0:0:0:0:
320,192,174811,128,0,175186:0:0:0:0:
192,192,174967,1,0,0:0:0:0:
64,192,175186,128,0,175530:0:0:0:0:
192,192,175342,1,0,0:0:0:0:
192,192,175530,1,0,0:0:0:0:
448,192,175530,128,0,175905:0:0:0:0:
320,192,175905,128,0,176311:0:0:0:0:
64,192,175905,1,0,0:0:0:0:
64,192,176311,128,0,176686:0:0:0:0:
320,192,176686,128,0,177030:0:0:0:0:
192,192,177030,1,0,0:0:0:0:
448,192,177030,128,0,177405:0:0:0:0:
320,192,177405,128,0,177811:0:0:0:0:
192,192,177405,1,0,0:0:0:0:
64,192,177592,1,0,0:0:0:0:
64,192,177811,128,0,178155:0:0:0:0:
448,192,178155,1,0,0:0:0:0:
192,192,178155,128,0,178530:0:0:0:0:
64,192,178530,128,0,179092:0:0:0:0:
320,192,178530,1,0,0:0:0:0:
192,192,179139,1,0,0:0:0:0:
64,192,179233,1,0,0:0:0:0:
320,192,179326,128,0,180030:0:0:0:0:
192,192,180030,1,0,0:0:0:0:
448,192,180030,128,0,180405:0:0:0:0:
320,192,180405,128,0,180811:0:0:0:0:
192,192,180405,1,0,0:0:0:0:
448,192,180592,1,0,0:0:0:0:
64,192,180811,128,0,181155:0:0:0:0:
448,192,180967,1,0,0:0:0:0:
448,192,181155,128,0,181530:0:0:0:0:
192,192,181155,1,0,0:0:0:0:
320,192,181530,128,0,181905:0:0:0:0:
64,192,181530,1,0,0:0:0:0:
192,192,181905,128,0,182311:0:0:0:0:
64,192,181905,1,0,0:0:0:0:
64,192,182311,128,0,182686:0:0:0:0:
192,192,182686,128,0,183030:0:0:0:0:
320,192,182842,1,0,0:0:0:0:
64,192,183030,1,0,0:0:0:0:
320,192,183030,128,0,183811:0:0:0:0:
64,192,183405,1,0,0:0:0:0:
448,192,183592,1,0,0:0:0:0:
64,192,183811,128,0,184530:0:0:0:0:
320,192,184155,1,0,0:0:0:0:
192,192,184530,128,0,185311:0:0:0:0:
320,192,184530,1,0,0:0:0:0:
448,192,185311,128,0,186030:0:0:0:0:
192,192,186030,1,0,0:0:0:0:
320,192,186030,128,0,186405:0:0:0:0:
448,192,186405,1,0,0:0:0:0:
64,192,186405,128,0,186780:0:0:0:0:
448,192,186592,1,0,0:0:0:0:
192,192,186780,128,0,187155:0:0:0:0:
320,192,186780,1,0,0:0:0:0:
320,192,187155,1,0,0:0:0:0:
64,192,187155,128,0,187530:0:0:0:0:
448,192,187530,128,0,187905:0:0:0:0:
320,192,187530,1,0,0:0:0:0:
320,192,187905,128,0,188311:0:0:0:0:
192,192,187905,1,0,0:0:0:0:
64,192,188311,128,0,188686:0:0:0:0:
320,192,188686,128,0,189030:0:0:0:0:
64,192,189030,1,0,0:0:0:0:
448,192,189030,128,0,189405:0:0:0:0:
64,192,189405,1,0,0:0:0:0:
320,192,189405,128,0,189780:0:0:0:0:
192,192,189780,1,0,0:0:0:0:
64,192,189780,128,0,190155:0:0:0:0:
192,192,190155,128,0,190530:0:0:0:0:
448,192,190155,1,0,0:0:0:0:
320,192,190530,1,0,0:0:0:0:
64,192,190530,128,0,191092:0:0:0:0:
192,192,191139,1,0,0:0:0:0:
64,192,191233,1,0,0:0:0:0:
320,192,191326,128,0,192030:0:0:0:0:
448,192,192030,128,0,192405:0:0:0:0:
64,192,192030,1,0,0:0:0:0:
64,192,192405,1,0,0:0:0:0:
320,192,192405,128,0,192811:0:0:0:0:
192,192,192592,1,0,0:0:0:0:
64,192,192811,128,0,193155:0:0:0:0:
192,192,192967,1,0,0:0:0:0:
448,192,193155,128,0,193530:0:0:0:0:
320,192,193155,1,0,0:0:0:0:
192,192,193530,1,0,0:0:0:0:
320,192,193530,128,0,193905:0:0:0:0:
192,192,193905,128,0,194311:0:0:0:0:
64,192,193905,1,0,0:0:0:0:
64,192,194311,128,0,194686:0:0:0:0:
192,192,194686,128,0,195030:0:0:0:0:
448,192,194842,1,0,0:0:0:0:
64,192,195030,1,0,0:0:0:0:
320,192,195030,128,0,195811:0:0:0:0:
64,192,195405,1,0,0:0:0:0:
448,192,195592,1,0,0:0:0:0:
64,192,195811,128,0,196530:0:0:0:0:
448,192,195967,1,0,0:0:0:0:
320,192,196155,1,0,0:0:0:0:
192,192,196530,128,0,197311:0:0:0:0:
320,192,196530,1,0,0:0:0:0:
448,192,197311,128,0,198030:0:0:0:0:
320,192,198030,1,8,0:0:0:0:
320,192,198155,1,8,0:0:0:0:
320,192,198280,1,8,0:0:0:0:
192,192,198405,1,8,0:0:0:0:
192,192,198530,1,8,0:0:0:0:
192,192,198655,1,8,0:0:0:0:
64,192,198780,1,8,0:0:0:0:
64,192,199155,1,8,0:0:0:0:
192,192,199530,1,6,0:0:0:0:
64,192,199530,128,2,199717:0:0:0:0:
448,192,199717,128,0,200092:0:0:0:0:
320,192,200186,128,0,200280:0:0:0:0:
64,192,200280,1,0,0:0:0:0:
192,192,201030,128,0,201780:0:0:0:0:
320,192,201780,128,0,201967:0:0:0:0:
64,192,202498,128,0,202686:0:0:0:0:
192,192,202686,128,0,202873:0:0:0:0:
320,192,202873,128,0,203061:0:0:0:0:
448,192,203061,128,0,203248:0:0:0:0:
320,192,203248,1,4,0:0:0:0:
192,192,203248,1,4,0:0:0:0:
192,192,203436,1,4,0:0:0:0:
64,192,203436,1,4,0:0:0:0:
320,192,203655,1,4,0:0:0:0:
192,192,203655,128,2,204780:0:0:0:0:
320,192,204780,1,4,0:0:0:0:
64,192,204780,128,2,205530:0:0:0:0:
320,192,205530,128,2,206280:0:0:0:0:
192,192,205530,1,4,0:0:0:0:
448,192,206092,1,0,0:0:0:0:
192,192,206186,128,0,206280:0:0:0:0:
64,192,206280,1,0,0:0:0:0:
64,192,206467,1,0,0:0:0:0:
320,192,206655,128,0,206748:0:0:0:0:
448,192,206655,128,0,206748:0:0:0:0:
64,192,207686,128,0,207780:0:0:0:0:
192,192,207780,1,4,0:0:0:0:
448,192,207780,128,2,208530:0:0:0:0:
64,192,208530,128,2,209280:0:0:0:0:
320,192,208530,1,4,0:0:0:0:
320,192,209186,128,0,209280:0:0:0:0:
448,192,209280,1,0,0:0:0:0:
64,192,209678,1,0,0:0:0:0:
192,192,209772,1,0,0:0:0:0:
64,192,209865,1,0,0:0:0:0:
320,192,209959,1,0,0:0:0:0:
448,192,210030,128,0,210405:0:0:0:0:
320,192,210405,128,2,210780:0:0:0:0:
64,192,210405,1,4,0:0:0:0:
192,192,210780,1,0,0:0:0:0:
448,192,210967,128,0,211061:0:0:0:0:
192,192,211155,128,0,211248:0:0:0:0:
192,192,211342,128,0,211436:0:0:0:0:
64,192,211506,128,0,211600:0:0:0:0:
320,192,211717,128,0,211811:0:0:0:0:
192,192,211811,128,0,211905:0:0:0:0:
64,192,211905,128,0,211998:0:0:0:0:
64,192,212092,128,0,212186:0:0:0:0:
320,192,212186,128,0,212280:0:0:0:0:
448,192,212280,1,4,0:0:0:0:
192,192,212280,128,2,212655:0:0:0:0:
64,192,215186,128,0,215280:0:0:0:0:
448,192,215280,1,4,0:0:0:0:
192,192,215280,1,0,0:0:0:0:
320,192,215373,1,0,0:0:0:0:
64,192,215467,1,0,0:0:0:0:
192,192,215561,1,0,0:0:0:0:
320,192,215655,1,4,0:0:0:0:
448,192,215655,128,2,216780:0:0:0:0:
192,192,216592,1,0,0:0:0:0:
320,192,216686,128,0,216780:0:0:0:0:
192,192,216780,1,4,0:0:0:0:
64,192,216780,128,2,217530:0:0:0:0:
320,192,216967,1,0,0:0:0:0:
192,192,217155,1,0,0:0:0:0:
320,192,217342,128,0,217530:0:0:0:0:
192,192,217530,1,4,0:0:0:0:
448,192,217530,128,2,218280:0:0:0:0:
64,192,218186,128,0,218280:0:0:0:0:
192,192,218280,1,0,0:0:0:0:
192,192,219686,128,0,219780:0:0:0:0:
64,192,219780,1,4,0:0:0:0:
320,192,219780,128,2,220530:0:0:0:0:
192,192,220530,1,4,0:0:0:0:
64,192,220530,128,2,221280:0:0:0:0:
192,192,221186,128,0,221280:0:0:0:0:
448,192,221280,1,0,0:0:0:0:
64,192,221842,1,0,0:0:0:0:
192,192,221936,1,0,0:0:0:0:
320,192,222030,128,0,222592:0:0:0:0:
448,192,222592,128,0,222780:0:0:0:0:
64,192,222780,128,0,223155:0:0:0:0:
320,192,223155,128,0,223530:0:0:0:0:
64,192,223342,1,0,0:0:0:0:
192,192,223436,1,0,0:0:0:0:
448,192,223530,128,0,223834:0:0:0:0:
192,192,223834,1,0,0:0:0:0:
192,192,224115,1,0,0:0:0:0:
192,192,224490,1,0,0:0:0:0:
192,192,224865,1,0,0:0:0:0:
192,192,225030,128,0,225405:0:0:0:0:
64,192,225405,128,0,225498:0:0:0:0:
192,192,225592,1,0,0:0:0:0:
320,192,225686,1,0,0:0:0:0:
448,192,225780,1,0,0:0:0:0:
64,192,225780,1,14,0:0:0:0:
192,192,225780,1,14,0:0:0:0:
