osu file format v14

[General]
AudioFilename: audio.mp3
AudioLeadIn: 0
PreviewTime: 9818
Countdown: 0
SampleSet: None
StackLeniency: 0.7
Mode: 3
LetterboxInBreaks: 0
SpecialStyle: 0
WidescreenStoryboard: 0

[Editor]
DistanceSpacing: 2.2
BeatDivisor: 4
GridSize: 32
TimelineZoom: 1

[Metadata]
Title:Flamingo (WTN3 Remix)
TitleUnicode:Flamingo (WTN3 Remix)
Artist:Kero Kero Bonito
ArtistUnicode:Kero Kero Bonito
Creator:Todestrieb
Version:Pink Lady
Source:
Tags:future bass electronic disco whitenois3 rohit6 nasya n/a
BeatmapID:1418016
BeatmapSetID:670500

[Difficulty]
HPDrainRate:9
CircleSize:4
OverallDifficulty:8
ApproachRate:5
SliderMultiplier:1.4
SliderTickRate:1

[Events]
//Background and Video events
0,0,"BG.jpg",0,0
//Break Periods
//Storyboard Layer 0 (Background)
//Storyboard Layer 1 (Fail)
//Storyboard Layer 2 (Pass)
//Storyboard Layer 3 (Foreground)
//Storyboard Sound Samples

[TimingPoints]
50,272.727272727273,4,2,0,5,1,0

[HitObjects]
64,192,1140,5,0,0:0:0:0:
192,192,1140,1,0,0:0:0:0:
64,192,1413,1,0,0:0:0:0:
448,192,1413,1,0,0:0:0:0:
192,192,1413,1,0,0:0:0:0:
64,192,1686,1,0,0:0:0:0:
192,192,1686,1,0,0:0:0:0:
448,192,1822,1,0,0:0:0:0:
320,192,1822,1,0,0:0:0:0:
64,192,1959,1,0,0:0:0:0:
192,192,1959,1,0,0:0:0:0:
448,192,2231,1,0,0:0:0:0:
64,192,2231,1,0,0:0:0:0:
192,192,2231,1,0,0:0:0:0:
320,192,2368,1,0,0:0:0:0:
64,192,2504,1,0,0:0:0:0:
192,192,2504,1,0,0:0:0:0:
64,192,2777,1,0,0:0:0:0:
192,192,2777,1,0,0:0:0:0:
320,192,2913,1,0,0:0:0:0:
192,192,3050,1,0,0:0:0:0:
64,192,3050,1,0,0:0:0:0:
64,192,3322,1,0,0:0:0:0:
192,192,3322,1,0,0:0:0:0:
192,192,3595,1,0,0:0:0:0:
448,192,3595,1,0,0:0:0:0:
64,192,3595,1,0,0:0:0:0:
192,192,3868,1,0,0:0:0:0:
64,192,3868,1,0,0:0:0:0:
448,192,4004,1,0,0:0:0:0:
320,192,4004,1,0,0:0:0:0:
64,192,4140,1,0,0:0:0:0:
192,192,4140,1,0,0:0:0:0:
320,192,4413,1,0,0:0:0:0:
192,192,4413,1,0,0:0:0:0:
64,192,4413,1,0,0:0:0:0:
448,192,4413,1,0,0:0:0:0:
320,192,4550,1,0,0:0:0:0:
448,192,4686,1,0,0:0:0:0:
64,192,4686,1,0,0:0:0:0:
192,192,4686,1,0,0:0:0:0:
320,192,4959,1,0,0:0:0:0:
448,192,4959,1,0,0:0:0:0:
64,192,4959,1,0,0:0:0:0:
448,192,5095,1,0,0:0:0:0:
192,192,5231,1,0,0:0:0:0:
320,192,5231,1,0,0:0:0:0:
64,192,5231,1,0,0:0:0:0:
64,192,5368,1,0,0:0:0:0:
448,192,5504,5,0,0:0:0:0:
320,192,5504,1,0,0:0:0:0:
192,192,5504,1,0,0:0:0:0:
320,192,5777,1,0,0:0:0:0:
64,192,5777,1,0,0:0:0:0:
448,192,5777,1,0,0:0:0:0:
320,192,6050,1,0,0:0:0:0:
448,192,6050,1,0,0:0:0:0:
192,192,6186,1,0,0:0:0:0:
64,192,6186,1,0,0:0:0:0:
320,192,6322,1,0,0:0:0:0:
448,192,6322,1,0,0:0:0:0:
320,192,6595,1,0,0:0:0:0:
448,192,6595,1,0,0:0:0:0:
64,192,6595,1,0,0:0:0:0:
192,192,6731,1,0,0:0:0:0:
320,192,6868,1,0,0:0:0:0:
448,192,6868,1,0,0:0:0:0:
320,192,7140,1,0,0:0:0:0:
448,192,7140,1,0,0:0:0:0:
192,192,7277,1,0,0:0:0:0:
448,192,7413,1,0,0:0:0:0:
320,192,7413,1,0,0:0:0:0:
320,192,7686,1,0,0:0:0:0:
448,192,7686,1,0,0:0:0:0:
64,192,7686,1,0,0:0:0:0:
192,192,7822,1,0,0:0:0:0:
64,192,7822,1,0,0:0:0:0:
320,192,7959,1,0,0:0:0:0:
448,192,7959,1,0,0:0:0:0:
192,192,7959,1,0,0:0:0:0:
64,192,7959,1,0,0:0:0:0:
320,192,8095,1,0,0:0:0:0:
448,192,8095,1,0,0:0:0:0:
192,192,8231,1,0,0:0:0:0:
64,192,8231,1,0,0:0:0:0:
448,192,8231,1,0,0:0:0:0:
320,192,8368,1,0,0:0:0:0:
192,192,8368,1,0,0:0:0:0:
64,192,8368,1,0,0:0:0:0:
320,192,8504,1,0,0:0:0:0:
448,192,8504,1,0,0:0:0:0:
192,192,8504,1,0,0:0:0:0:
64,192,8640,1,0,0:0:0:0:
448,192,8640,1,0,0:0:0:0:
64,192,8777,1,0,0:0:0:0:
192,192,8777,1,0,0:0:0:0:
320,192,8777,1,0,0:0:0:0:
448,192,8913,1,0,0:0:0:0:
192,192,9050,1,0,0:0:0:0:
64,192,9050,128,0,9254:0:0:0:0:
320,192,9186,1,0,0:0:0:0:
64,192,9595,1,0,0:0:0:0:
448,192,9868,1,0,0:0:0:0:
320,192,9868,1,0,0:0:0:0:
192,192,9868,1,0,0:0:0:0:
64,192,9868,1,0,0:0:0:0:
448,192,10004,1,0,0:0:0:0:
320,192,10004,1,0,0:0:0:0:
192,192,10140,1,0,0:0:0:0:
64,192,10140,1,0,0:0:0:0:
448,192,10140,1,0,0:0:0:0:
320,192,10277,1,0,0:0:0:0:
64,192,10277,1,0,0:0:0:0:
448,192,10413,1,0,0:0:0:0:
192,192,10413,1,0,0:0:0:0:
320,192,10550,1,0,0:0:0:0:
64,192,10550,1,0,0:0:0:0:
448,192,10550,1,0,0:0:0:0:
192,192,10686,1,0,0:0:0:0:
320,192,10686,1,0,0:0:0:0:
64,192,10822,1,0,0:0:0:0:
448,192,10822,1,0,0:0:0:0:
320,192,10959,1,0,0:0:0:0:
64,192,10959,1,0,0:0:0:0:
192,192,10959,1,0,0:0:0:0:
320,192,11095,1,0,0:0:0:0:
448,192,11231,1,0,0:0:0:0:
192,192,11231,1,0,0:0:0:0:
64,192,11231,1,0,0:0:0:0:
192,192,11368,1,0,0:0:0:0:
320,192,11504,1,0,0:0:0:0:
448,192,11504,1,0,0:0:0:0:
64,192,11504,1,0,0:0:0:0:
448,192,11640,1,0,0:0:0:0:
320,192,11777,1,0,0:0:0:0:
192,192,11777,1,0,0:0:0:0:
64,192,11777,1,0,0:0:0:0:
64,192,11913,1,0,0:0:0:0:
192,192,12050,1,0,0:0:0:0:
320,192,12050,1,0,0:0:0:0:
448,192,12050,1,0,0:0:0:0:
64,192,12050,1,0,0:0:0:0:
320,192,12186,1,0,0:0:0:0:
448,192,12322,1,0,0:0:0:0:
192,192,12322,1,0,0:0:0:0:
64,192,12459,1,0,0:0:0:0:
320,192,12459,1,0,0:0:0:0:
192,192,12595,1,0,0:0:0:0:
448,192,12595,1,0,0:0:0:0:
64,192,12595,1,0,0:0:0:0:
320,192,12731,1,0,0:0:0:0:
448,192,12731,1,0,0:0:0:0:
192,192,12731,1,0,0:0:0:0:
320,192,12868,1,0,0:0:0:0:
64,192,12868,1,0,0:0:0:0:
448,192,12868,1,0,0:0:0:0:
64,192,13004,1,0,0:0:0:0:
192,192,13004,1,0,0:0:0:0:
320,192,13140,1,0,0:0:0:0:
448,192,13140,1,0,0:0:0:0:
192,192,13140,1,0,0:0:0:0:
64,192,13277,1,0,0:0:0:0:
448,192,13277,1,0,0:0:0:0:
320,192,13413,1,0,0:0:0:0:
192,192,13413,1,0,0:0:0:0:
64,192,13413,1,0,0:0:0:0:
448,192,13550,1,0,0:0:0:0:
320,192,13550,1,0,0:0:0:0:
64,192,13686,1,0,0:0:0:0:
192,192,13686,1,0,0:0:0:0:
320,192,13731,1,0,0:0:0:0:
448,192,13777,1,0,0:0:0:0:
192,192,13822,1,0,0:0:0:0:
64,192,13868,1,0,0:0:0:0:
320,192,13913,1,0,0:0:0:0:
192,192,13959,1,0,0:0:0:0:
448,192,14004,1,0,0:0:0:0:
320,192,14050,1,0,0:0:0:0:
64,192,14095,1,0,0:0:0:0:
192,192,14140,1,0,0:0:0:0:
448,192,14186,1,0,0:0:0:0:
320,192,14231,1,0,0:0:0:0:
64,192,14231,1,0,0:0:0:0:
192,192,14368,1,0,0:0:0:0:
64,192,14504,1,0,0:0:0:0:
448,192,14504,1,0,0:0:0:0:
320,192,14640,1,0,0:0:0:0:
192,192,14640,1,0,0:0:0:0:
64,192,14777,1,0,0:0:0:0:
448,192,14777,1,0,0:0:0:0:
320,192,14777,1,0,0:0:0:0:
192,192,14913,1,0,0:0:0:0:
64,192,14913,1,0,0:0:0:0:
320,192,15050,1,0,0:0:0:0:
448,192,15050,1,0,0:0:0:0:
192,192,15050,1,0,0:0:0:0:
64,192,15186,1,0,0:0:0:0:
448,192,15186,1,0,0:0:0:0:
320,192,15322,1,0,0:0:0:0:
192,192,15322,1,0,0:0:0:0:
448,192,15459,1,0,0:0:0:0:
64,192,15459,1,0,0:0:0:0:
320,192,15595,1,0,0:0:0:0:
192,192,15595,1,0,0:0:0:0:
64,192,15595,1,0,0:0:0:0:
448,192,15731,1,0,0:0:0:0:
320,192,15731,1,0,0:0:0:0:
192,192,15868,1,0,0:0:0:0:
64,192,15868,1,0,0:0:0:0:
448,192,15868,1,0,0:0:0:0:
320,192,16004,1,0,0:0:0:0:
192,192,16004,1,0,0:0:0:0:
64,192,16004,1,0,0:0:0:0:
320,192,16140,1,0,0:0:0:0:
448,192,16140,1,0,0:0:0:0:
64,192,16140,1,0,0:0:0:0:
192,192,16277,1,0,0:0:0:0:
320,192,16277,1,0,0:0:0:0:
448,192,16277,1,0,0:0:0:0:
448,192,16413,1,0,0:0:0:0:
192,192,16413,1,0,0:0:0:0:
64,192,16413,1,0,0:0:0:0:
320,192,16413,1,0,0:0:0:0:
64,192,16550,1,0,0:0:0:0:
192,192,16550,1,0,0:0:0:0:
320,192,16686,1,0,0:0:0:0:
448,192,16686,1,0,0:0:0:0:
192,192,16822,1,0,0:0:0:0:
64,192,16822,1,0,0:0:0:0:
320,192,16959,1,0,0:0:0:0:
448,192,16959,1,0,0:0:0:0:
64,192,16959,1,0,0:0:0:0:
192,192,17095,1,0,0:0:0:0:
448,192,17095,1,0,0:0:0:0:
320,192,17231,1,0,0:0:0:0:
192,192,17231,1,0,0:0:0:0:
64,192,17231,1,0,0:0:0:0:
448,192,17368,1,0,0:0:0:0:
320,192,17368,1,0,0:0:0:0:
192,192,17504,1,0,0:0:0:0:
320,192,17504,1,0,0:0:0:0:
448,192,17504,1,0,0:0:0:0:
192,192,17640,1,0,0:0:0:0:
64,192,17640,1,0,0:0:0:0:
448,192,17743,1,0,0:0:0:0:
320,192,17777,1,0,0:0:0:0:
64,192,17777,1,0,0:0:0:0:
192,192,17913,1,0,0:0:0:0:
320,192,17913,1,0,0:0:0:0:
448,192,18050,1,0,0:0:0:0:
64,192,18050,1,0,0:0:0:0:
320,192,18084,1,0,0:0:0:0:
192,192,18118,1,0,0:0:0:0:
64,192,18152,1,0,0:0:0:0:
448,192,18186,1,0,0:0:0:0:
320,192,18220,1,0,0:0:0:0:
192,192,18254,1,0,0:0:0:0:
64,192,18288,1,0,0:0:0:0:
448,192,18322,1,0,0:0:0:0:
320,192,18356,1,0,0:0:0:0:
192,192,18390,1,0,0:0:0:0:
64,192,18425,1,0,0:0:0:0:
448,192,18459,1,0,0:0:0:0:
320,192,18493,1,0,0:0:0:0:
192,192,18527,1,0,0:0:0:0:
64,192,18561,1,0,0:0:0:0:
448,192,18595,1,0,0:0:0:0:
320,192,18595,1,0,0:0:0:0:
192,192,18731,1,0,0:0:0:0:
64,192,18731,1,0,0:0:0:0:
64,192,18868,1,0,0:0:0:0:
448,192,18868,1,0,0:0:0:0:
320,192,18868,1,0,0:0:0:0:
448,192,19004,1,0,0:0:0:0:
192,192,19004,1,0,0:0:0:0:
320,192,19140,1,0,0:0:0:0:
64,192,19140,1,0,0:0:0:0:
64,192,19277,1,0,0:0:0:0:
448,192,19277,1,0,0:0:0:0:
192,192,19277,1,0,0:0:0:0:
192,192,19413,1,0,0:0:0:0:
320,192,19413,1,0,0:0:0:0:
64,192,19550,1,0,0:0:0:0:
448,192,19550,1,0,0:0:0:0:
320,192,19686,1,0,0:0:0:0:
448,192,19686,1,0,0:0:0:0:
192,192,19686,1,0,0:0:0:0:
192,192,19822,1,0,0:0:0:0:
448,192,19959,1,0,0:0:0:0:
320,192,19959,1,0,0:0:0:0:
64,192,19959,1,0,0:0:0:0:
320,192,20095,1,0,0:0:0:0:
448,192,20231,1,0,0:0:0:0:
64,192,20231,1,0,0:0:0:0:
192,192,20231,1,0,0:0:0:0:
64,192,20368,1,0,0:0:0:0:
448,192,20504,1,0,0:0:0:0:
320,192,20504,1,0,0:0:0:0:
192,192,20504,1,0,0:0:0:0:
448,192,20640,1,0,0:0:0:0:
64,192,20777,1,0,0:0:0:0:
448,192,20777,1,0,0:0:0:0:
320,192,20777,1,0,0:0:0:0:
192,192,20777,1,0,0:0:0:0:
192,192,20913,1,0,0:0:0:0:
320,192,21050,1,0,0:0:0:0:
64,192,21050,1,0,0:0:0:0:
192,192,21186,1,0,0:0:0:0:
448,192,21186,1,0,0:0:0:0:
448,192,21322,1,0,0:0:0:0:
64,192,21322,1,0,0:0:0:0:
320,192,21322,1,0,0:0:0:0:
320,192,21459,1,0,0:0:0:0:
64,192,21459,1,0,0:0:0:0:
192,192,21459,1,0,0:0:0:0:
64,192,21595,1,0,0:0:0:0:
448,192,21595,1,0,0:0:0:0:
192,192,21595,1,0,0:0:0:0:
320,192,21731,1,0,0:0:0:0:
448,192,21731,1,0,0:0:0:0:
320,192,21868,1,0,0:0:0:0:
64,192,21868,1,0,0:0:0:0:
192,192,21868,1,0,0:0:0:0:
64,192,22004,1,0,0:0:0:0:
448,192,22004,1,0,0:0:0:0:
448,192,22140,1,0,0:0:0:0:
320,192,22140,1,0,0:0:0:0:
192,192,22140,1,0,0:0:0:0:
192,192,22277,1,0,0:0:0:0:
64,192,22277,1,0,0:0:0:0:
448,192,22413,1,0,0:0:0:0:
320,192,22413,1,0,0:0:0:0:
192,192,22459,1,0,0:0:0:0:
64,192,22504,1,0,0:0:0:0:
320,192,22550,1,0,0:0:0:0:
448,192,22595,1,0,0:0:0:0:
192,192,22640,1,0,0:0:0:0:
320,192,22686,1,0,0:0:0:0:
64,192,22731,1,0,0:0:0:0:
192,192,22777,1,0,0:0:0:0:
448,192,22822,1,0,0:0:0:0:
320,192,22868,1,0,0:0:0:0:
64,192,22913,1,0,0:0:0:0:
448,192,22959,1,0,0:0:0:0:
192,192,22959,1,0,0:0:0:0:
320,192,23095,1,0,0:0:0:0:
64,192,23231,1,0,0:0:0:0:
448,192,23231,1,0,0:0:0:0:
320,192,23368,1,0,0:0:0:0:
192,192,23368,1,0,0:0:0:0:
192,192,23504,1,0,0:0:0:0:
64,192,23504,1,0,0:0:0:0:
448,192,23504,1,0,0:0:0:0:
448,192,23640,1,0,0:0:0:0:
320,192,23640,1,0,0:0:0:0:
320,192,23777,1,0,0:0:0:0:
64,192,23777,1,0,0:0:0:0:
192,192,23777,1,0,0:0:0:0:
64,192,23913,1,0,0:0:0:0:
448,192,23913,1,0,0:0:0:0:
320,192,24050,1,0,0:0:0:0:
192,192,24050,1,0,0:0:0:0:
448,192,24186,1,0,0:0:0:0:
64,192,24186,1,0,0:0:0:0:
448,192,24322,1,0,0:0:0:0:
320,192,24322,1,0,0:0:0:0:
192,192,24322,1,0,0:0:0:0:
192,192,24459,1,0,0:0:0:0:
64,192,24459,1,0,0:0:0:0:
64,192,24595,1,0,0:0:0:0:
448,192,24595,1,0,0:0:0:0:
320,192,24595,1,0,0:0:0:0:
448,192,24731,1,0,0:0:0:0:
320,192,24731,1,0,0:0:0:0:
192,192,24731,1,0,0:0:0:0:
448,192,24868,1,0,0:0:0:0:
64,192,24868,1,0,0:0:0:0:
192,192,24868,1,0,0:0:0:0:
64,192,25004,1,0,0:0:0:0:
192,192,25004,1,0,0:0:0:0:
320,192,25004,1,0,0:0:0:0:
448,192,25140,1,0,0:0:0:0:
192,192,25140,1,0,0:0:0:0:
64,192,25140,1,0,0:0:0:0:
320,192,25140,1,0,0:0:0:0:
320,192,25277,1,0,0:0:0:0:
448,192,25277,1,0,0:0:0:0:
64,192,25413,1,0,0:0:0:0:
192,192,25413,1,0,0:0:0:0:
448,192,25550,1,0,0:0:0:0:
320,192,25550,1,0,0:0:0:0:
192,192,25550,1,0,0:0:0:0:
448,192,25686,1,0,0:0:0:0:
64,192,25686,1,0,0:0:0:0:
320,192,25686,1,0,0:0:0:0:
64,192,25822,1,0,0:0:0:0:
192,192,25822,1,0,0:0:0:0:
448,192,25959,1,0,0:0:0:0:
320,192,25959,1,0,0:0:0:0:
192,192,25959,1,0,0:0:0:0:
64,192,26095,1,0,0:0:0:0:
320,192,26231,1,0,0:0:0:0:
192,192,26231,1,0,0:0:0:0:
64,192,26368,1,0,0:0:0:0:
448,192,26368,1,0,0:0:0:0:
192,192,26504,1,0,0:0:0:0:
448,192,26504,1,0,0:0:0:0:
320,192,26640,1,0,0:0:0:0:
64,192,26777,1,0,0:0:0:0:
448,192,26777,1,0,0:0:0:0:
192,192,26811,1,0,0:0:0:0:
320,192,26845,1,0,0:0:0:0:
448,192,26879,1,0,0:0:0:0:
64,192,26913,1,0,0:0:0:0:
192,192,26947,1,0,0:0:0:0:
320,192,26981,1,0,0:0:0:0:
448,192,27015,1,0,0:0:0:0:
64,192,27050,1,0,0:0:0:0:
192,192,27084,1,0,0:0:0:0:
320,192,27118,1,0,0:0:0:0:
448,192,27152,1,0,0:0:0:0:
64,192,27186,1,0,0:0:0:0:
192,192,27220,1,0,0:0:0:0:
320,192,27254,1,0,0:0:0:0:
448,192,27288,1,0,0:0:0:0:
64,192,27322,1,0,0:0:0:0:
192,192,27322,1,0,0:0:0:0:
448,192,27459,1,0,0:0:0:0:
320,192,27459,1,0,0:0:0:0:
448,192,27595,1,0,0:0:0:0:
192,192,27595,1,0,0:0:0:0:
64,192,27595,1,0,0:0:0:0:
320,192,27731,1,0,0:0:0:0:
192,192,27731,1,0,0:0:0:0:
64,192,27731,1,0,0:0:0:0:
448,192,27868,1,0,0:0:0:0:
320,192,27868,1,0,0:0:0:0:
192,192,27868,1,0,0:0:0:0:
64,192,28004,1,0,0:0:0:0:
448,192,28004,1,0,0:0:0:0:
320,192,28140,1,0,0:0:0:0:
192,192,28140,1,0,0:0:0:0:
64,192,28140,1,0,0:0:0:0:
448,192,28277,1,0,0:0:0:0:
320,192,28277,1,0,0:0:0:0:
192,192,28345,1,0,0:0:0:0:
64,192,28413,1,0,0:0:0:0:
448,192,28413,1,0,0:0:0:0:
320,192,28550,1,0,0:0:0:0:
192,192,28550,1,0,0:0:0:0:
320,192,28686,1,0,0:0:0:0:
448,192,28686,1,0,0:0:0:0:
64,192,28686,1,0,0:0:0:0:
192,192,28822,1,0,0:0:0:0:
64,192,28822,1,0,0:0:0:0:
320,192,28959,1,0,0:0:0:0:
192,192,28959,1,0,0:0:0:0:
448,192,28959,1,0,0:0:0:0:
64,192,29095,1,0,0:0:0:0:
320,192,29095,1,0,0:0:0:0:
448,192,29231,1,0,0:0:0:0:
192,192,29231,1,0,0:0:0:0:
64,192,29231,1,0,0:0:0:0:
320,192,29368,1,0,0:0:0:0:
448,192,29368,1,0,0:0:0:0:
192,192,29504,1,0,0:0:0:0:
64,192,29504,1,0,0:0:0:0:
320,192,29504,1,0,0:0:0:0:
448,192,29504,1,0,0:0:0:0:
192,192,29640,1,0,0:0:0:0:
64,192,29640,1,0,0:0:0:0:
320,192,29777,1,0,0:0:0:0:
448,192,29777,1,0,0:0:0:0:
192,192,29913,1,0,0:0:0:0:
64,192,29913,1,0,0:0:0:0:
320,192,30050,1,0,0:0:0:0:
448,192,30050,1,0,0:0:0:0:
64,192,30050,1,0,0:0:0:0:
192,192,30186,1,0,0:0:0:0:
320,192,30186,1,0,0:0:0:0:
192,192,30322,1,0,0:0:0:0:
64,192,30322,1,0,0:0:0:0:
448,192,30322,1,0,0:0:0:0:
320,192,30459,1,0,0:0:0:0:
64,192,30459,1,0,0:0:0:0:
192,192,30527,1,0,0:0:0:0:
320,192,30595,1,0,0:0:0:0:
448,192,30595,1,0,0:0:0:0:
192,192,30731,1,0,0:0:0:0:
64,192,30731,1,0,0:0:0:0:
320,192,30868,1,0,0:0:0:0:
448,192,30868,1,0,0:0:0:0:
192,192,30868,1,0,0:0:0:0:
64,192,31004,1,0,0:0:0:0:
448,192,31004,1,0,0:0:0:0:
192,192,31140,1,0,0:0:0:0:
64,192,31140,1,0,0:0:0:0:
320,192,31186,1,0,0:0:0:0:
448,192,31231,1,0,0:0:0:0:
192,192,31277,1,0,0:0:0:0:
64,192,31322,1,0,0:0:0:0:
320,192,31368,1,0,0:0:0:0:
192,192,31413,1,0,0:0:0:0:
448,192,31459,1,0,0:0:0:0:
320,192,31504,1,0,0:0:0:0:
64,192,31550,1,0,0:0:0:0:
192,192,31595,1,0,0:0:0:0:
448,192,31640,1,0,0:0:0:0:
320,192,31686,1,0,0:0:0:0:
64,192,31686,1,0,0:0:0:0:
192,192,31822,1,0,0:0:0:0:
448,192,31822,1,0,0:0:0:0:
320,192,31959,1,0,0:0:0:0:
64,192,31959,1,0,0:0:0:0:
448,192,32095,1,0,0:0:0:0:
192,192,32095,1,0,0:0:0:0:
320,192,32095,1,0,0:0:0:0:
192,192,32231,1,0,0:0:0:0:
64,192,32231,1,0,0:0:0:0:
448,192,32231,1,0,0:0:0:0:
320,192,32368,1,0,0:0:0:0:
64,192,32368,1,0,0:0:0:0:
448,192,32504,1,0,0:0:0:0:
320,192,32504,1,0,0:0:0:0:
192,192,32504,1,0,0:0:0:0:
64,192,32640,1,0,0:0:0:0:
448,192,32640,1,0,0:0:0:0:
320,192,32777,1,0,0:0:0:0:
192,192,32777,1,0,0:0:0:0:
64,192,32913,1,0,0:0:0:0:
448,192,32913,1,0,0:0:0:0:
64,192,33050,1,0,0:0:0:0:
192,192,33050,1,0,0:0:0:0:
320,192,33050,1,0,0:0:0:0:
320,192,33186,1,0,0:0:0:0:
448,192,33186,1,0,0:0:0:0:
192,192,33322,1,0,0:0:0:0:
64,192,33322,1,0,0:0:0:0:
448,192,33322,1,0,0:0:0:0:
320,192,33459,1,0,0:0:0:0:
192,192,33459,1,0,0:0:0:0:
64,192,33595,1,0,0:0:0:0:
320,192,33595,1,0,0:0:0:0:
448,192,33595,1,0,0:0:0:0:
192,192,33663,1,0,0:0:0:0:
448,192,33731,1,0,0:0:0:0:
64,192,33731,1,0,0:0:0:0:
320,192,33800,1,0,0:0:0:0:
64,192,33868,1,0,0:0:0:0:
192,192,33868,1,0,0:0:0:0:
448,192,33868,1,0,0:0:0:0:
320,192,34004,1,0,0:0:0:0:
192,192,34004,1,0,0:0:0:0:
64,192,34004,1,0,0:0:0:0:
448,192,34140,1,0,0:0:0:0:
320,192,34140,1,0,0:0:0:0:
192,192,34140,1,0,0:0:0:0:
64,192,34277,1,0,0:0:0:0:
448,192,34277,1,0,0:0:0:0:
320,192,34277,1,0,0:0:0:0:
192,192,34413,1,0,0:0:0:0:
64,192,34413,1,0,0:0:0:0:
448,192,34413,1,0,0:0:0:0:
320,192,34550,1,0,0:0:0:0:
192,192,34550,1,0,0:0:0:0:
64,192,34686,1,0,0:0:0:0:
320,192,34686,1,0,0:0:0:0:
448,192,34686,1,0,0:0:0:0:
192,192,34822,1,0,0:0:0:0:
64,192,34822,1,0,0:0:0:0:
320,192,34959,1,0,0:0:0:0:
448,192,34959,1,0,0:0:0:0:
192,192,35095,1,0,0:0:0:0:
64,192,35095,1,0,0:0:0:0:
448,192,35197,1,0,0:0:0:0:
320,192,35231,1,0,0:0:0:0:
192,192,35231,1,0,0:0:0:0:
448,192,35368,1,0,0:0:0:0:
320,192,35368,1,0,0:0:0:0:
192,192,35436,1,0,0:0:0:0:
64,192,35504,1,0,0:0:0:0:
448,192,35504,1,0,0:0:0:0:
320,192,35538,1,0,0:0:0:0:
192,192,35572,1,0,0:0:0:0:
64,192,35606,1,0,0:0:0:0:
448,192,35640,1,0,0:0:0:0:
320,192,35675,1,0,0:0:0:0:
192,192,35709,1,0,0:0:0:0:
64,192,35743,1,0,0:0:0:0:
448,192,35777,1,0,0:0:0:0:
320,192,35811,1,0,0:0:0:0:
192,192,35845,1,0,0:0:0:0:
64,192,35879,1,0,0:0:0:0:
448,192,35913,1,0,0:0:0:0:
320,192,35947,1,0,0:0:0:0:
192,192,35981,1,0,0:0:0:0:
64,192,36015,1,0,0:0:0:0:
320,192,36050,1,0,0:0:0:0:
448,192,36050,1,0,0:0:0:0:
192,192,36186,1,0,0:0:0:0:
64,192,36186,1,0,0:0:0:0:
448,192,36322,1,0,0:0:0:0:
320,192,36322,1,0,0:0:0:0:
64,192,36322,1,0,0:0:0:0:
448,192,36459,1,0,0:0:0:0:
320,192,36459,1,0,0:0:0:0:
192,192,36459,1,0,0:0:0:0:
320,192,36595,1,0,0:0:0:0:
192,192,36595,1,0,0:0:0:0:
64,192,36595,1,0,0:0:0:0:
64,192,36731,1,0,0:0:0:0:
448,192,36731,1,0,0:0:0:0:
448,192,36868,1,0,0:0:0:0:
320,192,36868,1,0,0:0:0:0:
192,192,36868,1,0,0:0:0:0:
192,192,37004,1,0,0:0:0:0:
64,192,37004,1,0,0:0:0:0:
320,192,37072,1,0,0:0:0:0:
64,192,37140,1,0,0:0:0:0:
448,192,37140,1,0,0:0:0:0:
320,192,37277,1,0,0:0:0:0:
192,192,37277,1,0,0:0:0:0:
448,192,37413,1,0,0:0:0:0:
64,192,37413,1,0,0:0:0:0:
192,192,37413,1,0,0:0:0:0:
448,192,37550,1,0,0:0:0:0:
320,192,37550,1,0,0:0:0:0:
64,192,37686,1,0,0:0:0:0:
320,192,37686,1,0,0:0:0:0:
192,192,37686,1,0,0:0:0:0:
192,192,37822,1,0,0:0:0:0:
448,192,37822,1,0,0:0:0:0:
448,192,37959,1,0,0:0:0:0:
320,192,37959,1,0,0:0:0:0:
64,192,37959,1,0,0:0:0:0:
64,192,38095,1,0,0:0:0:0:
192,192,38095,1,0,0:0:0:0:
192,192,38231,1,0,0:0:0:0:
64,192,38231,1,0,0:0:0:0:
320,192,38231,1,0,0:0:0:0:
448,192,38231,1,0,0:0:0:0:
448,192,38368,1,0,0:0:0:0:
320,192,38368,1,0,0:0:0:0:
64,192,38504,1,0,0:0:0:0:
192,192,38504,1,0,0:0:0:0:
448,192,38640,1,0,0:0:0:0:
320,192,38640,1,0,0:0:0:0:
448,192,38777,1,0,0:0:0:0:
64,192,38777,1,0,0:0:0:0:
192,192,38777,1,0,0:0:0:0:
192,192,38913,1,0,0:0:0:0:
320,192,38913,1,0,0:0:0:0:
64,192,39050,1,0,0:0:0:0:
448,192,39050,1,0,0:0:0:0:
320,192,39050,1,0,0:0:0:0:
448,192,39186,1,0,0:0:0:0:
192,192,39186,1,0,0:0:0:0:
320,192,39254,1,0,0:0:0:0:
64,192,39322,1,0,0:0:0:0:
192,192,39322,1,0,0:0:0:0:
448,192,39459,1,0,0:0:0:0:
320,192,39459,1,0,0:0:0:0:
320,192,39595,1,0,0:0:0:0:
64,192,39595,1,0,0:0:0:0:
192,192,39595,1,0,0:0:0:0:
64,192,39731,1,0,0:0:0:0:
448,192,39731,1,0,0:0:0:0:
448,192,39868,1,0,0:0:0:0:
320,192,39868,1,0,0:0:0:0:
192,192,39913,1,0,0:0:0:0:
64,192,39959,1,0,0:0:0:0:
320,192,40004,1,0,0:0:0:0:
448,192,40050,1,0,0:0:0:0:
192,192,40095,1,0,0:0:0:0:
320,192,40140,1,0,0:0:0:0:
64,192,40186,1,0,0:0:0:0:
192,192,40231,1,0,0:0:0:0:
448,192,40277,1,0,0:0:0:0:
320,192,40322,1,0,0:0:0:0:
64,192,40368,1,0,0:0:0:0:
448,192,40413,1,0,0:0:0:0:
192,192,40413,1,0,0:0:0:0:
64,192,40550,1,0,0:0:0:0:
320,192,40550,1,0,0:0:0:0:
448,192,40686,1,0,0:0:0:0:
192,192,40686,1,0,0:0:0:0:
192,192,40822,1,0,0:0:0:0:
320,192,40822,1,0,0:0:0:0:
64,192,40822,1,0,0:0:0:0:
64,192,40959,1,0,0:0:0:0:
448,192,40959,1,0,0:0:0:0:
320,192,40959,1,0,0:0:0:0:
448,192,41095,1,0,0:0:0:0:
192,192,41095,1,0,0:0:0:0:
320,192,41231,1,0,0:0:0:0:
192,192,41231,1,0,0:0:0:0:
64,192,41231,1,0,0:0:0:0:
64,192,41368,1,0,0:0:0:0:
448,192,41368,1,0,0:0:0:0:
320,192,41504,1,0,0:0:0:0:
192,192,41504,1,0,0:0:0:0:
64,192,41640,1,0,0:0:0:0:
448,192,41640,1,0,0:0:0:0:
192,192,41777,1,0,0:0:0:0:
320,192,41777,1,0,0:0:0:0:
448,192,41777,1,0,0:0:0:0:
64,192,41913,1,0,0:0:0:0:
192,192,41913,1,0,0:0:0:0:
64,192,42050,1,0,0:0:0:0:
448,192,42050,1,0,0:0:0:0:
320,192,42050,1,0,0:0:0:0:
320,192,42186,1,0,0:0:0:0:
192,192,42186,1,0,0:0:0:0:
64,192,42322,1,0,0:0:0:0:
192,192,42322,1,0,0:0:0:0:
448,192,42322,1,0,0:0:0:0:
320,192,42390,1,0,0:0:0:0:
448,192,42459,1,0,0:0:0:0:
64,192,42459,1,0,0:0:0:0:
192,192,42527,1,0,0:0:0:0:
64,192,42595,1,0,0:0:0:0:
320,192,42595,1,0,0:0:0:0:
448,192,42595,1,0,0:0:0:0:
448,192,42731,1,0,0:0:0:0:
320,192,42731,1,0,0:0:0:0:
192,192,42731,1,0,0:0:0:0:
320,192,42868,1,0,0:0:0:0:
192,192,42868,1,0,0:0:0:0:
64,192,42868,1,0,0:0:0:0:
192,192,43004,1,0,0:0:0:0:
64,192,43004,1,0,0:0:0:0:
448,192,43004,1,0,0:0:0:0:
64,192,43140,1,0,0:0:0:0:
448,192,43140,1,0,0:0:0:0:
320,192,43140,1,0,0:0:0:0:
320,192,43277,1,0,0:0:0:0:
192,192,43277,1,0,0:0:0:0:
64,192,43413,1,0,0:0:0:0:
192,192,43413,1,0,0:0:0:0:
448,192,43413,1,0,0:0:0:0:
448,192,43550,1,0,0:0:0:0:
320,192,43550,1,0,0:0:0:0:
64,192,43686,1,0,0:0:0:0:
192,192,43686,1,0,0:0:0:0:
448,192,43822,1,0,0:0:0:0:
320,192,43822,1,0,0:0:0:0:
64,192,43925,1,0,0:0:0:0:
320,192,43959,1,0,0:0:0:0:
192,192,43959,1,0,0:0:0:0:
192,192,44095,1,0,0:0:0:0:
64,192,44095,1,0,0:0:0:0:
320,192,44163,1,0,0:0:0:0:
64,192,44231,1,0,0:0:0:0:
448,192,44231,1,0,0:0:0:0:
192,192,44265,1,0,0:0:0:0:
320,192,44300,1,0,0:0:0:0:
448,192,44334,1,0,0:0:0:0:
64,192,44368,1,0,0:0:0:0:
192,192,44402,1,0,0:0:0:0:
320,192,44436,1,0,0:0:0:0:
448,192,44470,1,0,0:0:0:0:
64,192,44504,1,0,0:0:0:0:
192,192,44538,1,0,0:0:0:0:
320,192,44572,1,0,0:0:0:0:
448,192,44606,1,0,0:0:0:0:
64,192,44640,1,0,0:0:0:0:
192,192,44675,1,0,0:0:0:0:
320,192,44709,1,0,0:0:0:0:
448,192,44743,1,0,0:0:0:0:
192,192,44777,1,0,0:0:0:0:
64,192,44777,1,0,0:0:0:0:
320,192,44845,1,0,0:0:0:0:
448,192,44913,1,0,0:0:0:0:
64,192,44913,1,0,0:0:0:0:
192,192,44981,1,0,0:0:0:0:
320,192,45050,1,0,0:0:0:0:
448,192,45050,1,0,0:0:0:0:
64,192,45186,1,0,0:0:0:0:
192,192,45186,1,0,0:0:0:0:
320,192,45322,1,0,0:0:0:0:
448,192,45322,1,0,0:0:0:0:
64,192,45459,1,0,0:0:0:0:
192,192,45595,1,0,0:0:0:0:
320,192,45595,1,0,0:0:0:0:
448,192,45595,1,0,0:0:0:0:
64,192,45731,1,0,0:0:0:0:
320,192,45868,1,0,0:0:0:0:
192,192,45868,1,0,0:0:0:0:
448,192,46004,1,0,0:0:0:0:
64,192,46140,1,0,0:0:0:0:
192,192,46140,1,0,0:0:0:0:
320,192,46277,1,0,0:0:0:0:
448,192,46413,1,0,0:0:0:0:
192,192,46413,1,0,0:0:0:0:
64,192,46550,1,0,0:0:0:0:
320,192,46686,1,0,0:0:0:0:
448,192,46686,1,0,0:0:0:0:
192,192,46822,1,0,0:0:0:0:
64,192,46959,1,0,0:0:0:0:
320,192,46959,1,0,0:0:0:0:
448,192,46959,1,0,0:0:0:0:
192,192,47095,1,0,0:0:0:0:
64,192,47231,1,0,0:0:0:0:
448,192,47231,1,0,0:0:0:0:
320,192,47368,1,0,0:0:0:0:
192,192,47504,1,0,0:0:0:0:
64,192,47504,1,0,0:0:0:0:
448,192,47640,1,0,0:0:0:0:
320,192,47777,1,0,0:0:0:0:
192,192,47777,1,0,0:0:0:0:
64,192,47777,1,0,0:0:0:0:
320,192,47913,1,0,0:0:0:0:
448,192,47913,1,0,0:0:0:0:
64,192,48050,1,0,0:0:0:0:
192,192,48050,1,0,0:0:0:0:
320,192,48186,1,0,0:0:0:0:
448,192,48322,1,0,0:0:0:0:
64,192,48322,1,0,0:0:0:0:
192,192,48459,1,0,0:0:0:0:
320,192,48595,1,0,0:0:0:0:
448,192,48595,1,0,0:0:0:0:
192,192,48640,1,0,0:0:0:0:
64,192,48686,1,0,0:0:0:0:
320,192,48731,1,0,0:0:0:0:
448,192,48777,1,0,0:0:0:0:
192,192,48822,1,0,0:0:0:0:
320,192,48868,1,0,0:0:0:0:
64,192,48913,1,0,0:0:0:0:
192,192,48959,1,0,0:0:0:0:
448,192,49004,1,0,0:0:0:0:
320,192,49050,1,0,0:0:0:0:
64,192,49095,1,0,0:0:0:0:
448,192,49140,1,0,0:0:0:0:
192,192,49140,1,0,0:0:0:0:
320,192,49277,1,0,0:0:0:0:
192,192,49413,1,0,0:0:0:0:
64,192,49413,1,0,0:0:0:0:
320,192,49550,1,0,0:0:0:0:
448,192,49550,1,0,0:0:0:0:
192,192,49686,1,0,0:0:0:0:
64,192,49686,1,0,0:0:0:0:
448,192,49822,1,0,0:0:0:0:
192,192,49959,1,0,0:0:0:0:
64,192,49959,1,0,0:0:0:0:
320,192,49959,1,0,0:0:0:0:
448,192,50095,1,0,0:0:0:0:
64,192,50231,1,0,0:0:0:0:
320,192,50231,1,0,0:0:0:0:
192,192,50368,1,0,0:0:0:0:
320,192,50504,1,0,0:0:0:0:
448,192,50504,1,0,0:0:0:0:
64,192,50640,1,0,0:0:0:0:
192,192,50777,1,0,0:0:0:0:
320,192,50777,1,0,0:0:0:0:
448,192,50777,1,0,0:0:0:0:
64,192,50913,1,0,0:0:0:0:
192,192,51050,1,0,0:0:0:0:
448,192,51050,1,0,0:0:0:0:
320,192,51186,1,0,0:0:0:0:
192,192,51322,1,0,0:0:0:0:
64,192,51322,1,0,0:0:0:0:
448,192,51322,1,0,0:0:0:0:
320,192,51459,1,0,0:0:0:0:
192,192,51595,1,0,0:0:0:0:
64,192,51595,1,0,0:0:0:0:
448,192,51731,1,0,0:0:0:0:
320,192,51731,1,0,0:0:0:0:
192,192,51868,1,0,0:0:0:0:
64,192,51868,1,0,0:0:0:0:
448,192,52004,1,0,0:0:0:0:
320,192,52140,1,0,0:0:0:0:
192,192,52140,1,0,0:0:0:0:
64,192,52140,1,0,0:0:0:0:
448,192,52277,1,0,0:0:0:0:
320,192,52413,5,0,0:0:0:0:
64,192,52413,1,0,0:0:0:0:
192,192,52550,1,0,0:0:0:0:
448,192,52550,1,0,0:0:0:0:
320,192,52686,1,0,0:0:0:0:
64,192,52686,1,0,0:0:0:0:
192,192,52822,1,0,0:0:0:0:
448,192,52959,1,0,0:0:0:0:
320,192,52993,1,0,0:0:0:0:
192,192,53027,1,0,0:0:0:0:
64,192,53061,1,0,0:0:0:0:
448,192,53095,1,0,0:0:0:0:
320,192,53129,1,0,0:0:0:0:
192,192,53163,1,0,0:0:0:0:
64,192,53197,1,0,0:0:0:0:
448,192,53231,1,0,0:0:0:0:
320,192,53265,1,0,0:0:0:0:
192,192,53300,1,0,0:0:0:0:
64,192,53334,1,0,0:0:0:0:
448,192,53368,1,0,0:0:0:0:
320,192,53402,1,0,0:0:0:0:
192,192,53436,1,0,0:0:0:0:
64,192,53470,1,0,0:0:0:0:
320,192,53504,5,0,0:0:0:0:
448,192,53504,1,0,0:0:0:0:
192,192,53572,1,0,0:0:0:0:
448,192,53640,1,0,0:0:0:0:
64,192,53640,1,0,0:0:0:0:
320,192,53709,1,0,0:0:0:0:
192,192,53777,1,0,0:0:0:0:
64,192,53777,1,0,0:0:0:0:
448,192,53913,1,0,0:0:0:0:
320,192,53913,1,0,0:0:0:0:
192,192,54050,1,0,0:0:0:0:
64,192,54050,1,0,0:0:0:0:
448,192,54050,1,0,0:0:0:0:
192,192,54186,1,0,0:0:0:0:
320,192,54322,1,0,0:0:0:0:
64,192,54322,1,0,0:0:0:0:
448,192,54322,1,0,0:0:0:0:
192,192,54459,1,0,0:0:0:0:
320,192,54595,1,0,0:0:0:0:
448,192,54595,1,0,0:0:0:0:
64,192,54731,1,0,0:0:0:0:
192,192,54868,1,0,0:0:0:0:
320,192,54868,1,0,0:0:0:0:
448,192,55004,1,0,0:0:0:0:
320,192,55140,1,0,0:0:0:0:
192,192,55140,1,0,0:0:0:0:
64,192,55140,1,0,0:0:0:0:
448,192,55277,1,0,0:0:0:0:
64,192,55413,1,0,0:0:0:0:
192,192,55413,1,0,0:0:0:0:
320,192,55550,1,0,0:0:0:0:
448,192,55686,1,0,0:0:0:0:
192,192,55686,1,0,0:0:0:0:
64,192,55686,1,0,0:0:0:0:
320,192,55822,1,0,0:0:0:0:
448,192,55959,1,0,0:0:0:0:
64,192,55959,1,0,0:0:0:0:
192,192,56095,1,0,0:0:0:0:
64,192,56231,1,0,0:0:0:0:
320,192,56231,1,0,0:0:0:0:
448,192,56231,1,0,0:0:0:0:
64,192,56368,1,0,0:0:0:0:
320,192,56504,1,0,0:0:0:0:
448,192,56504,1,0,0:0:0:0:
192,192,56504,1,0,0:0:0:0:
64,192,56640,1,0,0:0:0:0:
448,192,56777,1,0,0:0:0:0:
320,192,56777,1,0,0:0:0:0:
192,192,56913,1,0,0:0:0:0:
64,192,57050,1,0,0:0:0:0:
448,192,57050,1,0,0:0:0:0:
320,192,57186,1,0,0:0:0:0:
192,192,57322,1,0,0:0:0:0:
64,192,57322,1,0,0:0:0:0:
320,192,57368,1,0,0:0:0:0:
448,192,57413,1,0,0:0:0:0:
192,192,57459,1,0,0:0:0:0:
64,192,57504,1,0,0:0:0:0:
320,192,57550,1,0,0:0:0:0:
192,192,57595,1,0,0:0:0:0:
448,192,57640,1,0,0:0:0:0:
320,192,57686,1,0,0:0:0:0:
64,192,57731,1,0,0:0:0:0:
192,192,57777,1,0,0:0:0:0:
448,192,57822,1,0,0:0:0:0:
320,192,57868,1,0,0:0:0:0:
64,192,57868,1,0,0:0:0:0:
192,192,58004,1,0,0:0:0:0:
320,192,58140,1,0,0:0:0:0:
448,192,58140,1,0,0:0:0:0:
192,192,58277,1,0,0:0:0:0:
64,192,58277,1,0,0:0:0:0:
320,192,58413,1,0,0:0:0:0:
448,192,58413,1,0,0:0:0:0:
192,192,58413,1,0,0:0:0:0:
448,192,58550,1,0,0:0:0:0:
320,192,58686,1,0,0:0:0:0:
64,192,58686,1,0,0:0:0:0:
192,192,58686,1,0,0:0:0:0:
448,192,58822,1,0,0:0:0:0:
64,192,58959,1,0,0:0:0:0:
192,192,58959,1,0,0:0:0:0:
320,192,59095,1,0,0:0:0:0:
448,192,59231,1,0,0:0:0:0:
192,192,59231,1,0,0:0:0:0:
64,192,59368,1,0,0:0:0:0:
320,192,59504,1,0,0:0:0:0:
448,192,59504,1,0,0:0:0:0:
192,192,59504,1,0,0:0:0:0:
64,192,59640,1,0,0:0:0:0:
448,192,59777,1,0,0:0:0:0:
320,192,59777,1,0,0:0:0:0:
192,192,59913,1,0,0:0:0:0:
64,192,60050,1,0,0:0:0:0:
448,192,60050,1,0,0:0:0:0:
320,192,60050,1,0,0:0:0:0:
192,192,60186,1,0,0:0:0:0:
64,192,60322,1,0,0:0:0:0:
320,192,60322,1,0,0:0:0:0:
448,192,60459,1,0,0:0:0:0:
64,192,60595,1,0,0:0:0:0:
192,192,60595,1,0,0:0:0:0:
320,192,60595,1,0,0:0:0:0:
448,192,60731,1,0,0:0:0:0:
192,192,60731,1,0,0:0:0:0:
320,192,60800,1,0,0:0:0:0:
192,192,60868,1,0,0:0:0:0:
64,192,60868,1,0,0:0:0:0:
448,192,61004,1,0,0:0:0:0:
320,192,61004,1,0,0:0:0:0:
64,192,61140,1,0,0:0:0:0:
320,192,61140,1,0,0:0:0:0:
448,192,61277,1,0,0:0:0:0:
192,192,61277,1,0,0:0:0:0:
320,192,61413,1,0,0:0:0:0:
64,192,61413,1,0,0:0:0:0:
192,192,61481,1,0,0:0:0:0:
320,192,61550,1,0,0:0:0:0:
448,192,61550,1,0,0:0:0:0:
192,192,61686,1,0,0:0:0:0:
64,192,61686,128,0,61754:0:0:0:0:
448,192,61959,128,0,62027:0:0:0:0:
64,192,62231,1,0,0:0:0:0:
192,192,62231,1,0,0:0:0:0:
320,192,62231,1,0,0:0:0:0:
448,192,62368,1,0,0:0:0:0:
192,192,62368,1,0,0:0:0:0:
320,192,62504,1,0,0:0:0:0:
64,192,62504,1,0,0:0:0:0:
192,192,62640,1,0,0:0:0:0:
320,192,62640,1,0,0:0:0:0:
448,192,62640,1,0,0:0:0:0:
192,192,62777,1,0,0:0:0:0:
64,192,62777,1,0,0:0:0:0:
448,192,62777,1,0,0:0:0:0:
320,192,62913,1,0,0:0:0:0:
64,192,62913,1,0,0:0:0:0:
192,192,63050,1,0,0:0:0:0:
448,192,63050,1,0,0:0:0:0:
320,192,63050,1,0,0:0:0:0:
64,192,63186,1,0,0:0:0:0:
192,192,63186,1,0,0:0:0:0:
320,192,63254,1,0,0:0:0:0:
64,192,63322,1,0,0:0:0:0:
448,192,63322,1,0,0:0:0:0:
192,192,63459,1,0,0:0:0:0:
320,192,63459,1,0,0:0:0:0:
192,192,63595,1,0,0:0:0:0:
64,192,63595,1,0,0:0:0:0:
448,192,63595,1,0,0:0:0:0:
448,192,63731,1,0,0:0:0:0:
320,192,63731,1,0,0:0:0:0:
64,192,63868,1,0,0:0:0:0:
192,192,63868,1,0,0:0:0:0:
320,192,63868,1,0,0:0:0:0:
448,192,64004,1,0,0:0:0:0:
192,192,64004,1,0,0:0:0:0:
320,192,64140,1,0,0:0:0:0:
448,192,64140,1,0,0:0:0:0:
64,192,64140,1,0,0:0:0:0:
192,192,64277,1,0,0:0:0:0:
64,192,64277,1,0,0:0:0:0:
320,192,64413,1,0,0:0:0:0:
448,192,64413,1,0,0:0:0:0:
192,192,64413,1,0,0:0:0:0:
64,192,64550,1,0,0:0:0:0:
320,192,64550,1,0,0:0:0:0:
192,192,64686,1,0,0:0:0:0:
448,192,64686,1,0,0:0:0:0:
320,192,64822,1,0,0:0:0:0:
64,192,64822,1,0,0:0:0:0:
192,192,64959,1,0,0:0:0:0:
64,192,64959,1,0,0:0:0:0:
448,192,64959,1,0,0:0:0:0:
320,192,65095,1,0,0:0:0:0:
448,192,65095,1,0,0:0:0:0:
64,192,65231,1,0,0:0:0:0:
192,192,65231,1,0,0:0:0:0:
320,192,65231,1,0,0:0:0:0:
448,192,65368,1,0,0:0:0:0:
192,192,65368,1,0,0:0:0:0:
320,192,65436,1,0,0:0:0:0:
192,192,65504,1,0,0:0:0:0:
64,192,65504,1,0,0:0:0:0:
320,192,65640,1,0,0:0:0:0:
64,192,65640,1,0,0:0:0:0:
320,192,65777,1,0,0:0:0:0:
192,192,65777,1,0,0:0:0:0:
448,192,65777,1,0,0:0:0:0:
192,192,65913,1,0,0:0:0:0:
64,192,65913,1,0,0:0:0:0:
320,192,66050,1,0,0:0:0:0:
448,192,66050,1,0,0:0:0:0:
192,192,66095,1,0,0:0:0:0:
64,192,66140,1,0,0:0:0:0:
320,192,66186,1,0,0:0:0:0:
448,192,66231,1,0,0:0:0:0:
192,192,66277,1,0,0:0:0:0:
320,192,66322,1,0,0:0:0:0:
64,192,66368,1,0,0:0:0:0:
192,192,66413,1,0,0:0:0:0:
448,192,66459,1,0,0:0:0:0:
320,192,66504,1,0,0:0:0:0:
64,192,66550,1,0,0:0:0:0:
448,192,66595,1,0,0:0:0:0:
192,192,66595,1,0,0:0:0:0:
320,192,66731,1,0,0:0:0:0:
64,192,66731,1,0,0:0:0:0:
192,192,66868,1,0,0:0:0:0:
448,192,66868,1,0,0:0:0:0:
64,192,67004,1,0,0:0:0:0:
448,192,67004,1,0,0:0:0:0:
320,192,67004,1,0,0:0:0:0:
192,192,67140,1,0,0:0:0:0:
64,192,67140,1,0,0:0:0:0:
320,192,67140,1,0,0:0:0:0:
448,192,67277,1,0,0:0:0:0:
192,192,67277,1,0,0:0:0:0:
320,192,67413,1,0,0:0:0:0:
64,192,67413,1,0,0:0:0:0:
448,192,67413,1,0,0:0:0:0:
192,192,67550,1,0,0:0:0:0:
64,192,67550,1,0,0:0:0:0:
320,192,67686,1,0,0:0:0:0:
448,192,67686,1,0,0:0:0:0:
192,192,67822,1,0,0:0:0:0:
64,192,67822,1,0,0:0:0:0:
320,192,67959,1,0,0:0:0:0:
448,192,67959,1,0,0:0:0:0:
192,192,67959,1,0,0:0:0:0:
64,192,68095,1,0,0:0:0:0:
320,192,68095,1,0,0:0:0:0:
192,192,68231,1,0,0:0:0:0:
448,192,68231,1,0,0:0:0:0:
64,192,68231,1,0,0:0:0:0:
320,192,68368,1,0,0:0:0:0:
192,192,68368,1,0,0:0:0:0:
320,192,68504,1,0,0:0:0:0:
448,192,68504,1,0,0:0:0:0:
64,192,68504,1,0,0:0:0:0:
192,192,68640,1,0,0:0:0:0:
64,192,68640,1,0,0:0:0:0:
320,192,68709,1,0,0:0:0:0:
448,192,68777,1,0,0:0:0:0:
192,192,68777,1,0,0:0:0:0:
64,192,68777,1,0,0:0:0:0:
320,192,68913,1,0,0:0:0:0:
192,192,68913,1,0,0:0:0:0:
64,192,69050,1,0,0:0:0:0:
448,192,69050,1,0,0:0:0:0:
192,192,69186,1,0,0:0:0:0:
320,192,69186,1,0,0:0:0:0:
320,192,69322,1,0,0:0:0:0:
448,192,69322,1,0,0:0:0:0:
64,192,69322,1,0,0:0:0:0:
192,192,69459,1,0,0:0:0:0:
64,192,69459,1,0,0:0:0:0:
320,192,69595,1,0,0:0:0:0:
448,192,69595,1,0,0:0:0:0:
192,192,69595,1,0,0:0:0:0:
64,192,69731,1,0,0:0:0:0:
320,192,69731,1,0,0:0:0:0:
448,192,69868,1,0,0:0:0:0:
192,192,69868,1,0,0:0:0:0:
320,192,70004,1,0,0:0:0:0:
64,192,70004,1,0,0:0:0:0:
448,192,70072,1,0,0:0:0:0:
192,192,70140,1,0,0:0:0:0:
64,192,70140,1,0,0:0:0:0:
320,192,70277,1,0,0:0:0:0:
448,192,70277,1,0,0:0:0:0:
64,192,70413,5,0,0:0:0:0:
192,192,70447,1,0,0:0:0:0:
320,192,70481,1,0,0:0:0:0:
448,192,70515,1,0,0:0:0:0:
64,192,70550,1,0,0:0:0:0:
192,192,70584,1,0,0:0:0:0:
320,192,70618,1,0,0:0:0:0:
448,192,70652,1,0,0:0:0:0:
64,192,70686,1,0,0:0:0:0:
192,192,70720,1,0,0:0:0:0:
320,192,70754,1,0,0:0:0:0:
448,192,70788,1,0,0:0:0:0:
64,192,70822,1,0,0:0:0:0:
192,192,70856,1,0,0:0:0:0:
320,192,70890,1,0,0:0:0:0:
448,192,70925,1,0,0:0:0:0:
192,192,70959,5,0,0:0:0:0:
64,192,70959,1,0,0:0:0:0:
320,192,71027,1,0,0:0:0:0:
448,192,71095,1,0,0:0:0:0:
64,192,71095,1,0,0:0:0:0:
192,192,71163,1,0,0:0:0:0:
320,192,71231,1,0,0:0:0:0:
448,192,71231,1,0,0:0:0:0:
64,192,71368,1,0,0:0:0:0:
192,192,71368,1,0,0:0:0:0:
320,192,71368,1,0,0:0:0:0:
448,192,71504,1,0,0:0:0:0:
192,192,71504,1,0,0:0:0:0:
64,192,71504,1,0,0:0:0:0:
320,192,71640,1,0,0:0:0:0:
448,192,71640,1,0,0:0:0:0:
192,192,71777,1,0,0:0:0:0:
64,192,71777,1,0,0:0:0:0:
320,192,71777,1,0,0:0:0:0:
448,192,71913,1,0,0:0:0:0:
64,192,71913,1,0,0:0:0:0:
192,192,71981,1,0,0:0:0:0:
320,192,72050,1,0,0:0:0:0:
448,192,72050,1,0,0:0:0:0:
192,192,72186,1,0,0:0:0:0:
64,192,72186,1,0,0:0:0:0:
320,192,72322,1,0,0:0:0:0:
448,192,72322,1,0,0:0:0:0:
64,192,72322,1,0,0:0:0:0:
192,192,72459,1,0,0:0:0:0:
320,192,72459,1,0,0:0:0:0:
192,192,72595,1,0,0:0:0:0:
64,192,72595,1,0,0:0:0:0:
448,192,72595,1,0,0:0:0:0:
320,192,72731,1,0,0:0:0:0:
448,192,72731,1,0,0:0:0:0:
320,192,72868,1,0,0:0:0:0:
192,192,72868,1,0,0:0:0:0:
64,192,72868,1,0,0:0:0:0:
64,192,73004,1,0,0:0:0:0:
448,192,73004,1,0,0:0:0:0:
192,192,73140,1,0,0:0:0:0:
448,192,73140,1,0,0:0:0:0:
320,192,73140,1,0,0:0:0:0:
64,192,73277,1,0,0:0:0:0:
192,192,73277,1,0,0:0:0:0:
320,192,73413,1,0,0:0:0:0:
448,192,73413,1,0,0:0:0:0:
192,192,73550,1,0,0:0:0:0:
64,192,73550,1,0,0:0:0:0:
320,192,73686,1,0,0:0:0:0:
448,192,73686,1,0,0:0:0:0:
192,192,73686,1,0,0:0:0:0:
64,192,73822,1,0,0:0:0:0:
320,192,73822,1,0,0:0:0:0:
192,192,73959,1,0,0:0:0:0:
64,192,73959,1,0,0:0:0:0:
448,192,73959,1,0,0:0:0:0:
320,192,74095,1,0,0:0:0:0:
448,192,74095,1,0,0:0:0:0:
192,192,74163,1,0,0:0:0:0:
64,192,74231,1,0,0:0:0:0:
320,192,74231,1,0,0:0:0:0:
448,192,74368,1,0,0:0:0:0:
192,192,74368,1,0,0:0:0:0:
320,192,74504,1,0,0:0:0:0:
192,192,74504,1,0,0:0:0:0:
64,192,74504,1,0,0:0:0:0:
320,192,74640,1,0,0:0:0:0:
448,192,74640,1,0,0:0:0:0:
64,192,74777,5,0,0:0:0:0:
192,192,74777,1,0,0:0:0:0:
320,192,74822,1,0,0:0:0:0:
448,192,74868,1,0,0:0:0:0:
192,192,74913,1,0,0:0:0:0:
64,192,74959,1,0,0:0:0:0:
320,192,75004,1,0,0:0:0:0:
192,192,75050,1,0,0:0:0:0:
448,192,75095,1,0,0:0:0:0:
320,192,75140,1,0,0:0:0:0:
64,192,75186,1,0,0:0:0:0:
192,192,75231,1,0,0:0:0:0:
448,192,75277,1,0,0:0:0:0:
320,192,75322,1,0,0:0:0:0:
64,192,75322,1,0,0:0:0:0:
192,192,75459,1,0,0:0:0:0:
448,192,75459,1,0,0:0:0:0:
320,192,75595,1,0,0:0:0:0:
64,192,75595,1,0,0:0:0:0:
192,192,75731,1,0,0:0:0:0:
320,192,75731,1,0,0:0:0:0:
448,192,75731,1,0,0:0:0:0:
64,192,75868,1,0,0:0:0:0:
192,192,75868,1,0,0:0:0:0:
448,192,75868,1,0,0:0:0:0:
320,192,76004,1,0,0:0:0:0:
64,192,76004,1,0,0:0:0:0:
192,192,76140,1,0,0:0:0:0:
320,192,76140,1,0,0:0:0:0:
448,192,76140,1,0,0:0:0:0:
64,192,76277,1,0,0:0:0:0:
448,192,76277,1,0,0:0:0:0:
320,192,76413,1,0,0:0:0:0:
192,192,76413,1,0,0:0:0:0:
64,192,76550,1,0,0:0:0:0:
448,192,76550,1,0,0:0:0:0:
192,192,76686,1,0,0:0:0:0:
64,192,76686,1,0,0:0:0:0:
320,192,76686,1,0,0:0:0:0:
448,192,76822,1,0,0:0:0:0:
320,192,76822,1,0,0:0:0:0:
192,192,76959,1,0,0:0:0:0:
64,192,76959,1,0,0:0:0:0:
448,192,76959,1,0,0:0:0:0:
320,192,77095,1,0,0:0:0:0:
64,192,77095,1,0,0:0:0:0:
192,192,77231,1,0,0:0:0:0:
320,192,77231,1,0,0:0:0:0:
64,192,77368,1,0,0:0:0:0:
448,192,77368,1,0,0:0:0:0:
192,192,77436,1,0,0:0:0:0:
320,192,77504,1,0,0:0:0:0:
448,192,77504,1,0,0:0:0:0:
64,192,77504,1,0,0:0:0:0:
192,192,77640,1,0,0:0:0:0:
320,192,77640,1,0,0:0:0:0:
448,192,77640,1,0,0:0:0:0:
64,192,77777,1,0,0:0:0:0:
192,192,77777,1,0,0:0:0:0:
320,192,77913,1,0,0:0:0:0:
448,192,77913,1,0,0:0:0:0:
64,192,77913,1,0,0:0:0:0:
192,192,78050,1,0,0:0:0:0:
64,192,78050,1,0,0:0:0:0:
448,192,78050,1,0,0:0:0:0:
192,192,78186,1,0,0:0:0:0:
320,192,78186,1,0,0:0:0:0:
64,192,78322,1,0,0:0:0:0:
320,192,78322,1,0,0:0:0:0:
448,192,78322,1,0,0:0:0:0:
192,192,78459,1,0,0:0:0:0:
448,192,78459,1,0,0:0:0:0:
320,192,78459,1,0,0:0:0:0:
192,192,78595,1,0,0:0:0:0:
64,192,78595,1,0,0:0:0:0:
64,192,78697,1,0,0:0:0:0:
320,192,78731,1,0,0:0:0:0:
448,192,78731,1,0,0:0:0:0:
192,192,78868,1,0,0:0:0:0:
64,192,78868,1,0,0:0:0:0:
320,192,78868,1,0,0:0:0:0:
448,192,79004,1,0,0:0:0:0:
192,192,79004,1,0,0:0:0:0:
320,192,79140,128,0,79618:0:0:0:0:
64,192,79140,1,0,0:0:0:0:
320,192,79686,5,0,0:0:0:0:
448,192,79686,1,0,0:0:0:0:
64,192,79686,1,0,0:0:0:0:
192,192,79686,1,0,0:0:0:0:
192,192,79822,1,0,0:0:0:0:
64,192,79822,1,0,0:0:0:0:
64,192,79959,1,0,0:0:0:0:
448,192,79959,1,0,0:0:0:0:
320,192,79959,1,0,0:0:0:0:
448,192,80095,1,0,0:0:0:0:
192,192,80095,1,0,0:0:0:0:
320,192,80231,1,0,0:0:0:0:
64,192,80231,1,0,0:0:0:0:
64,192,80368,1,0,0:0:0:0:
448,192,80368,1,0,0:0:0:0:
192,192,80368,1,0,0:0:0:0:
192,192,80504,1,0,0:0:0:0:
320,192,80504,1,0,0:0:0:0:
64,192,80640,1,0,0:0:0:0:
448,192,80640,1,0,0:0:0:0:
320,192,80777,1,0,0:0:0:0:
448,192,80777,1,0,0:0:0:0:
192,192,80777,1,0,0:0:0:0:
192,192,80913,1,0,0:0:0:0:
448,192,81050,1,0,0:0:0:0:
320,192,81050,1,0,0:0:0:0:
64,192,81050,1,0,0:0:0:0:
320,192,81186,1,0,0:0:0:0:
448,192,81322,1,0,0:0:0:0:
64,192,81322,1,0,0:0:0:0:
192,192,81322,1,0,0:0:0:0:
64,192,81459,1,0,0:0:0:0:
448,192,81595,1,0,0:0:0:0:
320,192,81595,1,0,0:0:0:0:
192,192,81595,1,0,0:0:0:0:
448,192,81731,1,0,0:0:0:0:
64,192,81868,1,0,0:0:0:0:
448,192,81868,1,0,0:0:0:0:
320,192,81868,1,0,0:0:0:0:
192,192,81868,1,0,0:0:0:0:
192,192,82004,1,0,0:0:0:0:
320,192,82140,1,0,0:0:0:0:
64,192,82140,1,0,0:0:0:0:
192,192,82277,1,0,0:0:0:0:
448,192,82277,1,0,0:0:0:0:
448,192,82413,1,0,0:0:0:0:
64,192,82413,1,0,0:0:0:0:
320,192,82413,1,0,0:0:0:0:
320,192,82550,1,0,0:0:0:0:
64,192,82550,1,0,0:0:0:0:
192,192,82550,1,0,0:0:0:0:
64,192,82686,1,0,0:0:0:0:
448,192,82686,1,0,0:0:0:0:
192,192,82686,1,0,0:0:0:0:
320,192,82822,1,0,0:0:0:0:
448,192,82822,1,0,0:0:0:0:
320,192,82959,1,0,0:0:0:0:
64,192,82959,1,0,0:0:0:0:
192,192,82959,1,0,0:0:0:0:
64,192,83095,1,0,0:0:0:0:
448,192,83095,1,0,0:0:0:0:
448,192,83231,1,0,0:0:0:0:
320,192,83231,1,0,0:0:0:0:
192,192,83231,1,0,0:0:0:0:
192,192,83368,1,0,0:0:0:0:
64,192,83368,1,0,0:0:0:0:
320,192,83504,1,0,0:0:0:0:
448,192,83504,1,0,0:0:0:0:
192,192,83550,1,0,0:0:0:0:
64,192,83595,1,0,0:0:0:0:
320,192,83640,1,0,0:0:0:0:
448,192,83686,1,0,0:0:0:0:
192,192,83731,1,0,0:0:0:0:
320,192,83777,1,0,0:0:0:0:
64,192,83822,1,0,0:0:0:0:
192,192,83868,1,0,0:0:0:0:
448,192,83913,1,0,0:0:0:0:
320,192,83959,1,0,0:0:0:0:
64,192,84004,1,0,0:0:0:0:
448,192,84050,1,0,0:0:0:0:
192,192,84050,1,0,0:0:0:0:
320,192,84186,1,0,0:0:0:0:
64,192,84322,1,0,0:0:0:0:
448,192,84322,1,0,0:0:0:0:
320,192,84459,1,0,0:0:0:0:
192,192,84459,1,0,0:0:0:0:
192,192,84595,1,0,0:0:0:0:
64,192,84595,1,0,0:0:0:0:
448,192,84595,1,0,0:0:0:0:
448,192,84731,1,0,0:0:0:0:
320,192,84731,1,0,0:0:0:0:
320,192,84868,1,0,0:0:0:0:
64,192,84868,1,0,0:0:0:0:
192,192,84868,1,0,0:0:0:0:
64,192,85004,1,0,0:0:0:0:
448,192,85004,1,0,0:0:0:0:
320,192,85140,1,0,0:0:0:0:
192,192,85140,1,0,0:0:0:0:
448,192,85277,1,0,0:0:0:0:
64,192,85277,1,0,0:0:0:0:
448,192,85413,1,0,0:0:0:0:
320,192,85413,1,0,0:0:0:0:
192,192,85413,1,0,0:0:0:0:
192,192,85550,1,0,0:0:0:0:
64,192,85550,1,0,0:0:0:0:
64,192,85686,1,0,0:0:0:0:
448,192,85686,1,0,0:0:0:0:
320,192,85686,1,0,0:0:0:0:
448,192,85822,1,0,0:0:0:0:
320,192,85822,1,0,0:0:0:0:
192,192,85822,1,0,0:0:0:0:
448,192,85959,1,0,0:0:0:0:
64,192,85959,1,0,0:0:0:0:
192,192,85959,1,0,0:0:0:0:
64,192,86095,1,0,0:0:0:0:
192,192,86095,1,0,0:0:0:0:
320,192,86095,1,0,0:0:0:0:
448,192,86231,1,0,0:0:0:0:
192,192,86231,1,0,0:0:0:0:
64,192,86231,1,0,0:0:0:0:
320,192,86231,1,0,0:0:0:0:
320,192,86368,1,0,0:0:0:0:
448,192,86368,1,0,0:0:0:0:
64,192,86504,1,0,0:0:0:0:
192,192,86504,1,0,0:0:0:0:
448,192,86640,1,0,0:0:0:0:
320,192,86640,1,0,0:0:0:0:
448,192,86777,1,0,0:0:0:0:
64,192,86777,1,0,0:0:0:0:
192,192,86777,1,0,0:0:0:0:
64,192,86913,1,0,0:0:0:0:
320,192,86913,1,0,0:0:0:0:
448,192,87050,1,0,0:0:0:0:
320,192,87050,1,0,0:0:0:0:
192,192,87050,1,0,0:0:0:0:
192,192,87186,1,0,0:0:0:0:
64,192,87186,1,0,0:0:0:0:
64,192,87322,1,0,0:0:0:0:
192,192,87322,1,0,0:0:0:0:
320,192,87322,1,0,0:0:0:0:
448,192,87459,1,0,0:0:0:0:
320,192,87459,1,0,0:0:0:0:
64,192,87561,1,0,0:0:0:0:
448,192,87595,1,0,0:0:0:0:
192,192,87595,1,0,0:0:0:0:
192,192,87731,1,0,0:0:0:0:
320,192,87731,1,0,0:0:0:0:
448,192,87868,1,0,0:0:0:0:
64,192,87868,1,0,0:0:0:0:
192,192,87902,1,0,0:0:0:0:
320,192,87936,1,0,0:0:0:0:
448,192,87970,1,0,0:0:0:0:
64,192,88004,1,0,0:0:0:0:
192,192,88038,1,0,0:0:0:0:
320,192,88072,1,0,0:0:0:0:
448,192,88106,1,0,0:0:0:0:
64,192,88140,1,0,0:0:0:0:
192,192,88175,1,0,0:0:0:0:
320,192,88209,1,0,0:0:0:0:
448,192,88243,1,0,0:0:0:0:
64,192,88277,1,0,0:0:0:0:
192,192,88311,1,0,0:0:0:0:
320,192,88345,1,0,0:0:0:0:
448,192,88379,1,0,0:0:0:0:
192,192,88413,1,0,0:0:0:0:
64,192,88413,1,0,0:0:0:0:
448,192,88550,1,0,0:0:0:0:
320,192,88550,1,0,0:0:0:0:
192,192,88686,1,0,0:0:0:0:
64,192,88686,1,0,0:0:0:0:
448,192,88686,1,0,0:0:0:0:
320,192,88822,1,0,0:0:0:0:
64,192,88822,1,0,0:0:0:0:
448,192,88959,1,0,0:0:0:0:
192,192,88959,1,0,0:0:0:0:
320,192,89095,1,0,0:0:0:0:
64,192,89095,1,0,0:0:0:0:
448,192,89095,1,0,0:0:0:0:
192,192,89231,1,0,0:0:0:0:
320,192,89231,1,0,0:0:0:0:
64,192,89368,1,0,0:0:0:0:
448,192,89368,1,0,0:0:0:0:
320,192,89504,1,0,0:0:0:0:
64,192,89504,1,0,0:0:0:0:
192,192,89504,1,0,0:0:0:0:
320,192,89640,1,0,0:0:0:0:
448,192,89777,1,0,0:0:0:0:
192,192,89777,1,0,0:0:0:0:
64,192,89777,1,0,0:0:0:0:
192,192,89913,1,0,0:0:0:0:
320,192,90050,1,0,0:0:0:0:
448,192,90050,1,0,0:0:0:0:
64,192,90050,1,0,0:0:0:0:
448,192,90186,1,0,0:0:0:0:
320,192,90322,1,0,0:0:0:0:
192,192,90322,1,0,0:0:0:0:
64,192,90322,1,0,0:0:0:0:
64,192,90459,1,0,0:0:0:0:
192,192,90595,1,0,0:0:0:0:
320,192,90595,1,0,0:0:0:0:
448,192,90595,1,0,0:0:0:0:
64,192,90595,1,0,0:0:0:0:
320,192,90731,1,0,0:0:0:0:
448,192,90868,1,0,0:0:0:0:
192,192,90868,1,0,0:0:0:0:
64,192,91004,1,0,0:0:0:0:
320,192,91004,1,0,0:0:0:0:
192,192,91140,1,0,0:0:0:0:
448,192,91140,1,0,0:0:0:0:
64,192,91140,1,0,0:0:0:0:
320,192,91277,1,0,0:0:0:0:
448,192,91277,1,0,0:0:0:0:
192,192,91277,1,0,0:0:0:0:
320,192,91413,1,0,0:0:0:0:
64,192,91413,1,0,0:0:0:0:
448,192,91413,1,0,0:0:0:0:
64,192,91550,1,0,0:0:0:0:
192,192,91550,1,0,0:0:0:0:
320,192,91686,1,0,0:0:0:0:
448,192,91686,1,0,0:0:0:0:
192,192,91686,1,0,0:0:0:0:
64,192,91822,1,0,0:0:0:0:
448,192,91822,1,0,0:0:0:0:
320,192,91959,1,0,0:0:0:0:
192,192,91959,1,0,0:0:0:0:
64,192,91959,1,0,0:0:0:0:
448,192,92095,1,0,0:0:0:0:
320,192,92095,1,0,0:0:0:0:
192,192,92231,1,0,0:0:0:0:
64,192,92231,1,0,0:0:0:0:
320,192,92277,1,0,0:0:0:0:
448,192,92322,1,0,0:0:0:0:
192,192,92368,1,0,0:0:0:0:
64,192,92413,1,0,0:0:0:0:
320,192,92459,1,0,0:0:0:0:
192,192,92504,1,0,0:0:0:0:
448,192,92550,1,0,0:0:0:0:
320,192,92595,1,0,0:0:0:0:
64,192,92640,1,0,0:0:0:0:
192,192,92686,1,0,0:0:0:0:
448,192,92731,1,0,0:0:0:0:
320,192,92777,1,0,0:0:0:0:
64,192,92777,1,0,0:0:0:0:
192,192,92913,1,0,0:0:0:0:
64,192,93050,1,0,0:0:0:0:
448,192,93050,1,0,0:0:0:0:
320,192,93186,1,0,0:0:0:0:
192,192,93186,1,0,0:0:0:0:
64,192,93322,1,0,0:0:0:0:
448,192,93322,1,0,0:0:0:0:
320,192,93322,1,0,0:0:0:0:
192,192,93459,1,0,0:0:0:0:
64,192,93459,1,0,0:0:0:0:
320,192,93595,1,0,0:0:0:0:
448,192,93595,1,0,0:0:0:0:
192,192,93595,1,0,0:0:0:0:
64,192,93731,1,0,0:0:0:0:
448,192,93731,1,0,0:0:0:0:
320,192,93868,1,0,0:0:0:0:
192,192,93868,1,0,0:0:0:0:
448,192,94004,1,0,0:0:0:0:
64,192,94004,1,0,0:0:0:0:
320,192,94140,1,0,0:0:0:0:
192,192,94140,1,0,0:0:0:0:
64,192,94140,1,0,0:0:0:0:
448,192,94277,1,0,0:0:0:0:
320,192,94277,1,0,0:0:0:0:
192,192,94413,1,0,0:0:0:0:
64,192,94413,1,0,0:0:0:0:
448,192,94413,1,0,0:0:0:0:
320,192,94550,1,0,0:0:0:0:
192,192,94550,1,0,0:0:0:0:
64,192,94550,1,0,0:0:0:0:
320,192,94686,1,0,0:0:0:0:
448,192,94686,1,0,0:0:0:0:
64,192,94686,1,0,0:0:0:0:
192,192,94822,1,0,0:0:0:0:
320,192,94822,1,0,0:0:0:0:
448,192,94822,1,0,0:0:0:0:
448,192,94959,1,0,0:0:0:0:
192,192,94959,1,0,0:0:0:0:
64,192,94959,1,0,0:0:0:0:
320,192,94959,1,0,0:0:0:0:
64,192,95095,1,0,0:0:0:0:
192,192,95095,1,0,0:0:0:0:
320,192,95231,1,0,0:0:0:0:
448,192,95231,1,0,0:0:0:0:
320,192,95368,1,0,0:0:0:0:
192,192,95368,1,0,0:0:0:0:
64,192,95368,1,0,0:0:0:0:
192,192,95504,1,0,0:0:0:0:
448,192,95504,1,0,0:0:0:0:
64,192,95504,1,0,0:0:0:0:
320,192,95640,1,0,0:0:0:0:
448,192,95640,1,0,0:0:0:0:
320,192,95777,1,0,0:0:0:0:
192,192,95777,1,0,0:0:0:0:
64,192,95777,1,0,0:0:0:0:
448,192,95913,1,0,0:0:0:0:
320,192,96050,1,0,0:0:0:0:
192,192,96050,1,0,0:0:0:0:
64,192,96186,1,0,0:0:0:0:
448,192,96186,1,0,0:0:0:0:
64,192,96322,1,0,0:0:0:0:
320,192,96322,1,0,0:0:0:0:
192,192,96459,1,0,0:0:0:0:
64,192,96595,1,0,0:0:0:0:
448,192,96595,1,0,0:0:0:0:
320,192,96629,1,0,0:0:0:0:
192,192,96663,1,0,0:0:0:0:
64,192,96697,1,0,0:0:0:0:
448,192,96731,1,0,0:0:0:0:
320,192,96765,1,0,0:0:0:0:
192,192,96800,1,0,0:0:0:0:
64,192,96834,1,0,0:0:0:0:
448,192,96868,1,0,0:0:0:0:
320,192,96902,1,0,0:0:0:0:
192,192,96936,1,0,0:0:0:0:
64,192,96970,1,0,0:0:0:0:
448,192,97004,1,0,0:0:0:0:
320,192,97038,1,0,0:0:0:0:
192,192,97072,1,0,0:0:0:0:
64,192,97106,1,0,0:0:0:0:
320,192,97140,1,0,0:0:0:0:
448,192,97140,1,0,0:0:0:0:
192,192,97277,1,0,0:0:0:0:
64,192,97277,1,0,0:0:0:0:
448,192,97413,1,0,0:0:0:0:
320,192,97413,1,0,0:0:0:0:
64,192,97413,1,0,0:0:0:0:
448,192,97550,1,0,0:0:0:0:
320,192,97550,1,0,0:0:0:0:
192,192,97550,1,0,0:0:0:0:
320,192,97686,1,0,0:0:0:0:
192,192,97686,1,0,0:0:0:0:
64,192,97686,1,0,0:0:0:0:
64,192,97822,1,0,0:0:0:0:
448,192,97822,1,0,0:0:0:0:
448,192,97959,1,0,0:0:0:0:
320,192,97959,1,0,0:0:0:0:
192,192,97959,1,0,0:0:0:0:
192,192,98095,1,0,0:0:0:0:
64,192,98095,1,0,0:0:0:0:
320,192,98163,1,0,0:0:0:0:
64,192,98231,1,0,0:0:0:0:
448,192,98231,1,0,0:0:0:0:
320,192,98368,1,0,0:0:0:0:
192,192,98368,1,0,0:0:0:0:
448,192,98504,1,0,0:0:0:0:
64,192,98504,1,0,0:0:0:0:
192,192,98504,1,0,0:0:0:0:
448,192,98640,1,0,0:0:0:0:
320,192,98640,1,0,0:0:0:0:
64,192,98777,1,0,0:0:0:0:
320,192,98777,1,0,0:0:0:0:
192,192,98777,1,0,0:0:0:0:
192,192,98913,1,0,0:0:0:0:
448,192,98913,1,0,0:0:0:0:
448,192,99050,1,0,0:0:0:0:
320,192,99050,1,0,0:0:0:0:
64,192,99050,1,0,0:0:0:0:
64,192,99186,1,0,0:0:0:0:
192,192,99186,1,0,0:0:0:0:
192,192,99322,1,0,0:0:0:0:
64,192,99322,1,0,0:0:0:0:
320,192,99322,1,0,0:0:0:0:
448,192,99322,1,0,0:0:0:0:
448,192,99459,1,0,0:0:0:0:
320,192,99459,1,0,0:0:0:0:
64,192,99595,1,0,0:0:0:0:
192,192,99595,1,0,0:0:0:0:
448,192,99731,1,0,0:0:0:0:
320,192,99731,1,0,0:0:0:0:
448,192,99868,1,0,0:0:0:0:
64,192,99868,1,0,0:0:0:0:
192,192,99868,1,0,0:0:0:0:
192,192,100004,1,0,0:0:0:0:
320,192,100004,1,0,0:0:0:0:
64,192,100140,1,0,0:0:0:0:
448,192,100140,1,0,0:0:0:0:
320,192,100140,1,0,0:0:0:0:
448,192,100277,1,0,0:0:0:0:
192,192,100277,1,0,0:0:0:0:
320,192,100345,1,0,0:0:0:0:
64,192,100413,1,0,0:0:0:0:
192,192,100413,1,0,0:0:0:0:
448,192,100550,1,0,0:0:0:0:
320,192,100550,1,0,0:0:0:0:
320,192,100686,1,0,0:0:0:0:
64,192,100686,1,0,0:0:0:0:
192,192,100686,1,0,0:0:0:0:
64,192,100822,1,0,0:0:0:0:
448,192,100822,1,0,0:0:0:0:
448,192,100959,1,0,0:0:0:0:
320,192,100959,1,0,0:0:0:0:
192,192,101004,1,0,0:0:0:0:
64,192,101050,1,0,0:0:0:0:
320,192,101095,1,0,0:0:0:0:
448,192,101140,1,0,0:0:0:0:
192,192,101186,1,0,0:0:0:0:
320,192,101231,1,0,0:0:0:0:
64,192,101277,1,0,0:0:0:0:
192,192,101322,1,0,0:0:0:0:
448,192,101368,1,0,0:0:0:0:
320,192,101413,1,0,0:0:0:0:
64,192,101459,1,0,0:0:0:0:
448,192,101504,1,0,0:0:0:0:
192,192,101504,1,0,0:0:0:0:
64,192,101640,1,0,0:0:0:0:
320,192,101640,1,0,0:0:0:0:
448,192,101777,1,0,0:0:0:0:
192,192,101777,1,0,0:0:0:0:
192,192,101913,1,0,0:0:0:0:
320,192,101913,1,0,0:0:0:0:
64,192,101913,1,0,0:0:0:0:
64,192,102050,1,0,0:0:0:0:
448,192,102050,1,0,0:0:0:0:
320,192,102050,1,0,0:0:0:0:
448,192,102186,1,0,0:0:0:0:
192,192,102186,1,0,0:0:0:0:
320,192,102322,1,0,0:0:0:0:
192,192,102322,1,0,0:0:0:0:
64,192,102322,1,0,0:0:0:0:
64,192,102459,1,0,0:0:0:0:
448,192,102459,1,0,0:0:0:0:
320,192,102595,1,0,0:0:0:0:
192,192,102595,1,0,0:0:0:0:
64,192,102731,1,0,0:0:0:0:
448,192,102731,1,0,0:0:0:0:
192,192,102868,1,0,0:0:0:0:
320,192,102868,1,0,0:0:0:0:
448,192,102868,1,0,0:0:0:0:
64,192,103004,1,0,0:0:0:0:
192,192,103004,1,0,0:0:0:0:
64,192,103140,1,0,0:0:0:0:
448,192,103140,1,0,0:0:0:0:
320,192,103140,1,0,0:0:0:0:
320,192,103277,1,0,0:0:0:0:
192,192,103277,1,0,0:0:0:0:
64,192,103413,1,0,0:0:0:0:
192,192,103413,1,0,0:0:0:0:
448,192,103413,1,0,0:0:0:0:
320,192,103481,1,0,0:0:0:0:
448,192,103550,1,0,0:0:0:0:
64,192,103550,1,0,0:0:0:0:
192,192,103618,1,0,0:0:0:0:
64,192,103686,1,0,0:0:0:0:
320,192,103686,1,0,0:0:0:0:
448,192,103686,1,0,0:0:0:0:
448,192,103822,1,0,0:0:0:0:
320,192,103822,1,0,0:0:0:0:
192,192,103822,1,0,0:0:0:0:
320,192,103959,1,0,0:0:0:0:
192,192,103959,1,0,0:0:0:0:
64,192,103959,1,0,0:0:0:0:
192,192,104095,1,0,0:0:0:0:
64,192,104095,1,0,0:0:0:0:
448,192,104095,1,0,0:0:0:0:
64,192,104231,1,0,0:0:0:0:
448,192,104231,1,0,0:0:0:0:
320,192,104231,1,0,0:0:0:0:
320,192,104368,1,0,0:0:0:0:
192,192,104368,1,0,0:0:0:0:
64,192,104504,1,0,0:0:0:0:
192,192,104504,1,0,0:0:0:0:
448,192,104504,1,0,0:0:0:0:
448,192,104640,1,0,0:0:0:0:
320,192,104640,1,0,0:0:0:0:
64,192,104777,1,0,0:0:0:0:
192,192,104777,1,0,0:0:0:0:
448,192,104913,1,0,0:0:0:0:
320,192,104913,1,0,0:0:0:0:
64,192,105015,1,0,0:0:0:0:
320,192,105050,1,0,0:0:0:0:
192,192,105050,1,0,0:0:0:0:
192,192,105186,1,0,0:0:0:0:
64,192,105186,1,0,0:0:0:0:
320,192,105254,1,0,0:0:0:0:
64,192,105322,1,0,0:0:0:0:
448,192,105322,1,0,0:0:0:0:
192,192,105356,1,0,0:0:0:0:
320,192,105390,1,0,0:0:0:0:
448,192,105425,1,0,0:0:0:0:
64,192,105459,1,0,0:0:0:0:
192,192,105493,1,0,0:0:0:0:
320,192,105527,1,0,0:0:0:0:
448,192,105561,1,0,0:0:0:0:
64,192,105595,1,0,0:0:0:0:
192,192,105629,1,0,0:0:0:0:
320,192,105663,1,0,0:0:0:0:
448,192,105697,1,0,0:0:0:0:
64,192,105731,1,0,0:0:0:0:
192,192,105765,1,0,0:0:0:0:
320,192,105800,1,0,0:0:0:0:
448,192,105834,1,0,0:0:0:0:
64,192,105868,1,0,0:0:0:0:
192,192,105868,1,0,0:0:0:0:
448,192,106004,1,0,0:0:0:0:
320,192,106004,1,0,0:0:0:0:
448,192,106140,1,0,0:0:0:0:
192,192,106140,1,0,0:0:0:0:
64,192,106140,1,0,0:0:0:0:
320,192,106277,1,0,0:0:0:0:
192,192,106277,1,0,0:0:0:0:
64,192,106277,1,0,0:0:0:0:
448,192,106413,1,0,0:0:0:0:
320,192,106413,1,0,0:0:0:0:
192,192,106413,1,0,0:0:0:0:
64,192,106550,1,0,0:0:0:0:
448,192,106550,1,0,0:0:0:0:
320,192,106686,1,0,0:0:0:0:
192,192,106686,1,0,0:0:0:0:
64,192,106686,1,0,0:0:0:0:
448,192,106822,1,0,0:0:0:0:
320,192,106822,1,0,0:0:0:0:
192,192,106890,1,0,0:0:0:0:
64,192,106959,1,0,0:0:0:0:
448,192,106959,1,0,0:0:0:0:
320,192,107095,1,0,0:0:0:0:
192,192,107095,1,0,0:0:0:0:
320,192,107231,1,0,0:0:0:0:
448,192,107231,1,0,0:0:0:0:
64,192,107231,1,0,0:0:0:0:
192,192,107368,1,0,0:0:0:0:
64,192,107368,1,0,0:0:0:0:
320,192,107504,1,0,0:0:0:0:
192,192,107504,1,0,0:0:0:0:
448,192,107504,1,0,0:0:0:0:
64,192,107640,1,0,0:0:0:0:
320,192,107640,1,0,0:0:0:0:
448,192,107777,1,0,0:0:0:0:
192,192,107777,1,0,0:0:0:0:
64,192,107777,1,0,0:0:0:0:
320,192,107913,1,0,0:0:0:0:
448,192,107913,1,0,0:0:0:0:
192,192,108050,1,0,0:0:0:0:
64,192,108050,1,0,0:0:0:0:
320,192,108050,1,0,0:0:0:0:
448,192,108050,1,0,0:0:0:0:
192,192,108186,1,0,0:0:0:0:
64,192,108186,1,0,0:0:0:0:
320,192,108322,1,0,0:0:0:0:
448,192,108322,1,0,0:0:0:0:
192,192,108459,1,0,0:0:0:0:
64,192,108459,1,0,0:0:0:0:
320,192,108595,1,0,0:0:0:0:
448,192,108595,1,0,0:0:0:0:
64,192,108595,1,0,0:0:0:0:
192,192,108731,1,0,0:0:0:0:
320,192,108731,1,0,0:0:0:0:
192,192,108868,1,0,0:0:0:0:
64,192,108868,1,0,0:0:0:0:
448,192,108868,1,0,0:0:0:0:
320,192,109004,1,0,0:0:0:0:
64,192,109004,1,0,0:0:0:0:
192,192,109072,1,0,0:0:0:0:
320,192,109140,1,0,0:0:0:0:
448,192,109140,1,0,0:0:0:0:
192,192,109277,1,0,0:0:0:0:
64,192,109277,1,0,0:0:0:0:
320,192,109413,1,0,0:0:0:0:
448,192,109413,1,0,0:0:0:0:
192,192,109413,1,0,0:0:0:0:
64,192,109550,1,0,0:0:0:0:
448,192,109550,1,0,0:0:0:0:
192,192,109686,1,0,0:0:0:0:
64,192,109686,1,0,0:0:0:0:
320,192,109731,1,0,0:0:0:0:
448,192,109777,1,0,0:0:0:0:
192,192,109822,1,0,0:0:0:0:
64,192,109868,1,0,0:0:0:0:
320,192,109913,1,0,0:0:0:0:
192,192,109959,1,0,0:0:0:0:
448,192,110004,1,0,0:0:0:0:
320,192,110050,1,0,0:0:0:0:
64,192,110095,1,0,0:0:0:0:
192,192,110140,1,0,0:0:0:0:
448,192,110186,1,0,0:0:0:0:
320,192,110231,1,0,0:0:0:0:
64,192,110231,1,0,0:0:0:0:
192,192,110368,1,0,0:0:0:0:
448,192,110368,1,0,0:0:0:0:
320,192,110504,1,0,0:0:0:0:
64,192,110504,1,0,0:0:0:0:
448,192,110640,1,0,0:0:0:0:
192,192,110640,1,0,0:0:0:0:
320,192,110640,1,0,0:0:0:0:
192,192,110777,1,0,0:0:0:0:
64,192,110777,1,0,0:0:0:0:
448,192,110777,1,0,0:0:0:0:
320,192,110913,1,0,0:0:0:0:
64,192,110913,1,0,0:0:0:0:
448,192,111050,1,0,0:0:0:0:
320,192,111050,1,0,0:0:0:0:
192,192,111050,1,0,0:0:0:0:
64,192,111186,1,0,0:0:0:0:
448,192,111186,1,0,0:0:0:0:
320,192,111322,1,0,0:0:0:0:
192,192,111322,1,0,0:0:0:0:
64,192,111459,1,0,0:0:0:0:
448,192,111459,1,0,0:0:0:0:
64,192,111595,1,0,0:0:0:0:
192,192,111595,1,0,0:0:0:0:
320,192,111595,1,0,0:0:0:0:
320,192,111731,1,0,0:0:0:0:
448,192,111731,1,0,0:0:0:0:
192,192,111868,1,0,0:0:0:0:
64,192,111868,1,0,0:0:0:0:
448,192,111868,1,0,0:0:0:0:
320,192,112004,1,0,0:0:0:0:
192,192,112004,1,0,0:0:0:0:
64,192,112140,1,0,0:0:0:0:
320,192,112140,1,0,0:0:0:0:
448,192,112140,1,0,0:0:0:0:
192,192,112209,1,0,0:0:0:0:
448,192,112277,1,0,0:0:0:0:
64,192,112277,1,0,0:0:0:0:
320,192,112345,1,0,0:0:0:0:
64,192,112413,1,0,0:0:0:0:
192,192,112413,1,0,0:0:0:0:
448,192,112413,1,0,0:0:0:0:
320,192,112550,1,0,0:0:0:0:
192,192,112550,1,0,0:0:0:0:
64,192,112550,1,0,0:0:0:0:
448,192,112686,1,0,0:0:0:0:
320,192,112686,1,0,0:0:0:0:
192,192,112686,1,0,0:0:0:0:
64,192,112822,1,0,0:0:0:0:
448,192,112822,1,0,0:0:0:0:
320,192,112822,1,0,0:0:0:0:
192,192,112959,1,0,0:0:0:0:
64,192,112959,1,0,0:0:0:0:
448,192,112959,1,0,0:0:0:0:
320,192,113095,1,0,0:0:0:0:
192,192,113095,1,0,0:0:0:0:
64,192,113231,1,0,0:0:0:0:
320,192,113231,1,0,0:0:0:0:
448,192,113231,1,0,0:0:0:0:
192,192,113368,1,0,0:0:0:0:
64,192,113368,1,0,0:0:0:0:
320,192,113504,1,0,0:0:0:0:
448,192,113504,1,0,0:0:0:0:
192,192,113640,1,0,0:0:0:0:
64,192,113640,1,0,0:0:0:0:
448,192,113743,1,0,0:0:0:0:
320,192,113777,1,0,0:0:0:0:
192,192,113777,1,0,0:0:0:0:
448,192,113913,1,0,0:0:0:0:
320,192,113913,1,0,0:0:0:0:
192,192,113981,1,0,0:0:0:0:
64,192,114050,1,0,0:0:0:0:
448,192,114050,1,0,0:0:0:0:
