osu file format v14

[General]
AudioFilename: Kero Kero Bonito - Flamingo (WTN3 Remix).mp3
AudioLeadIn: 0
PreviewTime: 97087
Countdown: 0
SampleSet: Soft
StackLeniency: 0.4
Mode: 0
LetterboxInBreaks: 1
EpilepsyWarning: 1
WidescreenStoryboard: 1

[Editor]
Bookmarks: 1087,9814,27268,44723,62177,79632,97087,114541,123268,131996,149450,166905,184359
DistanceSpacing: 1.2
BeatDivisor: 16
GridSize: 16
TimelineZoom: 3.799998

[Metadata]
Title:Flamingo (WTN3 Remix)
TitleUnicode:Flamingo (WTN3 Remix)
Artist:Kero Kero Bonito
ArtistUnicode:Kero Kero Bonito
Creator:Nerova Riuz GX
Version:Rohit's Extra
Source:
Tags:future bass electronic disco whitenois3 rohit6 nasya n/a
BeatmapID:1316638
BeatmapSetID:409214

[Difficulty]
HPDrainRate:5
CircleSize:3.5
OverallDifficulty:8
ApproachRate:9
SliderMultiplier:2.8
SliderTickRate:1

[Events]
//Background and Video events
0,0,"123.png",0,0
//Break Periods
2,114741,122668
//Storyboard Layer 0 (Background)
//Storyboard Layer 1 (Fail)
//Storyboard Layer 2 (Pass)
//Storyboard Layer 3 (Foreground)
//Storyboard Sound Samples

[TimingPoints]
1087,545.454545454546,4,2,2,70,1,0
27268,-100,4,2,2,90,0,1
44723,-100,4,2,2,70,0,0
47655,-100,4,2,2,35,0,0
47723,-100,4,2,2,70,0,0
56109,-100,4,2,2,35,0,0
56177,-100,4,2,2,70,0,0
63746,-100,4,2,2,35,0,0
63814,-100,4,2,2,70,0,0
65927,-100,4,2,2,35,0,0
65996,-100,4,2,2,70,0,0
73564,-100,4,2,2,35,0,0
73632,-100,4,2,2,70,0,0
97087,-100,4,2,2,90,0,1
113996,-100,4,2,2,70,0,0
149450,-100,4,2,2,90,0,1
166905,-100,4,2,2,70,0,0

[Colours]
Combo1 : 244,209,11
Combo2 : 255,128,255
Combo3 : 155,225,11
Combo4 : 73,206,235

[HitObjects]
42,54,1087,5,0,0:0:0:0:
41,54,1359,2,0,P|107:70|128:133,1,140
55,176,1768,2,0,L|194:186,1,140,0|0,0:0|0:0,0:0:0:0:
256,243,2177,5,0,0:0:0:0:
256,243,2450,1,0,0:0:0:0:
256,243,2723,1,0,0:0:0:0:
256,243,2996,1,0,0:0:0:0:
319,188,3268,5,0,0:0:0:0:
319,188,3541,2,0,B|362:185|362:185|411:210|411:210|452:207,1,140
507,272,3950,2,0,B|477:208|477:208|503:143,1,140,0|0,0:0|0:0,0:0:0:0:
480,62,4359,5,0,0:0:0:0:
424,125,4632,1,0,0:0:0:0:
340,116,4905,1,0,0:0:0:0:
302,41,5177,1,0,0:0:0:0:
256,111,5450,5,0,0:0:0:0:
256,111,5723,2,0,L|256:251,1,140,0|0,0:0|0:0,0:0:0:0:
318,306,6132,2,0,P|256:280|192:304,1,140,0|0,0:0|0:0,0:0:0:0:
256,361,6541,5,0,0:0:0:0:
256,361,6814,1,0,0:0:0:0:
256,361,7087,1,0,0:0:0:0:
256,361,7359,1,0,0:0:0:0:
193,305,7632,6,0,L|123:314,1,70,8|0,0:3|0:3,0:0:0:0:
319,305,7905,2,0,L|388:314,1,70,8|0,0:3|0:3,0:0:0:0:
202,236,8177,6,0,L|192:305,1,70,8|0,0:3|0:3,0:3:0:0:
319,305,8450,2,0,L|310:236,1,70,8|0,0:3|0:3,0:3:0:0:
256,154,8723,5,8,0:3:0:0:
256,154,8996,2,0,B|286:117|281:80|258:47|258:47|243:65,1,140,2|2,0:0|0:0,0:0:0:0:
244,66,9814,5,6,0:0:0:0:
170,119,9950,1,2,0:0:0:0:
256,154,10087,1,2,0:0:0:0:
244,66,10223,2,0,P|218:41|185:31,1,70,2|8,0:0|0:0,0:0:0:0:
255,154,10496,2,0,P|289:143|314:120,1,70,2|4,0:0|0:0,0:0:0:0:
170,119,10768,1,2,0:0:0:0:
92,169,10905,6,0,P|58:158|32:135,1,70,2|0,0:0|0:0,0:0:0:0:
178,208,11177,2,0,L|183:277,1,70,6|0,0:0|0:0,0:0:0:0:
170,119,11450,2,0,L|164:49,1,70,10|0,0:0|0:0,0:0:0:0:
256,154,11723,1,6,0:0:0:0:
36,328,11996,1,6,0:0:0:0:
36,328,12405,5,2,0:0:0:0:
113,281,12541,1,10,0:0:0:0:
206,326,12677,1,2,0:0:0:0:
302,254,12814,1,6,0:0:0:0:
419,316,12950,1,2,0:0:0:0:
419,316,13223,5,2,0:0:0:0:
407,188,13359,2,0,L|418:118,1,70,6|0,0:0|0:0,0:0:0:0:
433,37,13632,2,0,L|456:33,5,23.3333333333333,8|0|0|0|0|0,0:0|0:0|0:0|0:0|0:0|0:0,0:0:0:0:
329,61,13905,2,0,L|352:64,5,23.3333333333333,0|0|0|0|0|0,0:0|0:0|0:0|0:0|0:0|0:0,0:0:0:0:
256,19,14177,6,0,P|221:23|192:42,1,70,6|0,0:0|0:0,0:0:0:0:
256,195,14450,1,2,0:0:0:0:
256,102,14587,2,0,P|226:120|191:125,2,70,2|8|0,0:0|0:0|0:0,0:0:0:0:
110,151,14996,6,0,P|105:117|115:84,1,70,6|0,0:0|0:0,0:0:0:0:
205,274,15268,2,0,P|173:261|150:236,1,70,2|0,0:0|0:0,0:0:0:0:
359,260,15541,2,0,P|332:280|298:288,1,70,6|0,0:0|0:0,0:0:0:0:
417,114,15814,5,10,0:1:0:0:
360,260,15950,1,2,0:1:0:0:
206,275,16087,1,2,0:1:0:0:
111,152,16223,1,2,0:1:0:0:
245,193,16359,6,0,L|314:185,1,70,6|0,0:0|0:0,0:0:0:0:
405,176,16632,1,2,0:0:0:0:
292,335,16768,2,0,L|361:327,1,70,6|8,0:0|0:0,0:0:0:0:
452,318,17041,1,2,0:0:0:0:
481,232,17177,1,6,0:0:0:0:
452,318,17314,1,2,0:0:0:0:
404,176,17450,6,0,P|431:153|464:141,1,70,2|0,0:0|0:0,0:0:0:0:
452,318,17723,2,0,L|382:325,1,70,6|0,0:0|0:0,0:0:0:0:
333,247,17996,2,0,L|334:229,12,17.5,8|0|0|0|0|0|0|0|0|0|0|0|4,0:0|0:0|0:0|0:0|0:0|0:0|0:0|0:0|0:0|0:0|0:0|0:0|0:0,0:0:0:0:
202,333,18541,5,6,0:0:0:0:
248,255,18677,1,2,0:0:0:0:
292,335,18814,1,2,0:0:0:0:
202,333,18950,2,0,L|132:340,1,70,2|8,0:0|0:0,0:0:0:0:
138,166,19223,2,0,L|207:173,1,70,2|4,0:0|0:0,0:0:0:0:
248,255,19496,1,2,0:0:0:0:
264,26,19632,6,0,P|233:9|198:4,1,70,2|0,0:0|0:0,0:0:0:0:
325,154,19905,2,0,P|360:148|390:131,1,70,2|0,0:0|0:0,0:0:0:0:
201,87,20178,2,0,P|175:111|160:142,1,70,10|0,0:0|0:0,0:0:0:0:
340,68,20450,2,0,P|347:33|340:0,1,70,2|0,0:0|0:0,0:0:0:0:
239,166,20723,1,6,0:0:0:0:
239,166,21132,5,2,0:0:0:0:
341,68,21268,1,10,0:0:0:0:
201,88,21404,1,2,0:0:0:0:
326,154,21541,1,6,0:0:0:0:
264,26,21677,1,2,0:0:0:0:
264,26,21950,5,2,0:0:0:0:
290,234,22087,2,0,P|324:242|358:236,1,70,6|0,0:0|0:0,0:0:0:0:
409,156,22359,2,0,L|413:133,5,23.3333333333333,8|0|0|0|0|0,0:0|0:0|0:0|0:0|0:0|0:0,0:0:0:0:
442,244,22632,2,0,L|445:267,5,23.3333333333333
498,173,22905,6,0,L|509:104,2,70,6|0|0,0:0|0:0|0:0,0:0:0:0:
442,244,23314,1,2,0:0:0:0:
439,51,23450,2,0,P|405:47|372:58,1,70,10|0,0:0|0:0,0:0:0:0:
204,288,23723,6,0,L|215:357,1,70,6|0,0:0|0:0,0:0:0:0:
311,168,23996,2,0,L|299:236,1,70,2|0,0:0|0:0,0:0:0:0:
164,76,24268,2,0,L|175:145,1,70,6|0,0:0|0:0,0:0:0:0:
342,15,24541,5,10,0:1:0:0:
164,76,24677,1,2,0:1:0:0:
311,168,24814,1,6,0:1:0:0:
204,288,24950,1,2,0:1:0:0:
293,354,25087,6,0,L|362:365,2,70,6|0|0,0:0|0:0|0:0,0:0:0:0:
205,380,25496,1,6,0:0:0:0:
139,192,25632,5,10,0:0:0:0:
373,192,25905,1,6,0:0:0:0:
256,28,26177,6,0,L|256:98,1,70,2|4,0:0|0:0,0:0:0:0:
288,193,26450,2,0,B|255:202|255:202|221:193,1,70,2|0,0:0|0:0,0:0:0:0:
139,192,26723,6,0,L|121:194,14,17.5,8|0|0|0|0|0|0|0|0|0|0|0|0|0|0,0:0|0:0|0:0|0:0|0:0|0:0|0:0|0:0|0:0|0:0|0:0|0:0|0:0|0:0|0:0,0:0:0:0:
108,160,27268,6,0,L|97:229,1,70,6|0,0:0|0:0,0:0:0:0:
128,315,27541,1,2,0:0:0:0:
259,238,27677,2,0,L|190:248,2,70,6|8|2,0:0|0:0|0:0,0:0:0:0:
419,325,28087,1,6,0:0:0:0:
339,283,28223,1,2,0:0:0:0:
339,283,28291,1,2,0:0:0:0:
339,282,28359,6,0,P|351:250|347:216,1,70,2|0,0:0|0:0,0:0:0:0:
296,78,28632,2,0,P|283:110|288:144,1,70,6|0,0:0|0:0,0:0:0:0:
488,269,28905,1,10,0:0:0:0:
419,325,29041,1,2,0:0:0:0:
339,283,29177,1,6,0:0:0:0:
254,316,29314,1,2,0:0:0:0:
72,170,29450,6,0,B|109:162|138:183|138:183|166:201|205:195,1,140,6|2,0:0|0:0,0:0:0:0:
292,166,29859,1,2,0:0:0:0:
188,34,29996,2,0,P|179:68|183:103,1,70,10|0,0:0|0:0,0:0:0:0:
374,208,30268,1,6,0:0:0:0:
386,120,30405,1,2,0:0:0:0:
386,120,30473,1,2,0:0:0:0:
386,120,30541,5,2,0:0:0:0:
428,283,30677,1,2,0:0:0:0:
292,166,30814,1,6,0:0:0:0:
465,185,30950,1,2,0:0:0:0:
309,271,31087,2,0,L|285:271,9,23.3333333333333,8|0|0|0|0|0|0|0|0|4,0:0|0:0|0:0|0:0|0:0|0:0|0:0|0:0|0:0|0:0,0:0:0:0:
425,43,31632,6,0,P|394:27|359:24,2,70,6|0|2,0:0|0:0|0:0,0:0:0:0:
370,116,32041,1,6,0:0:0:0:
196,37,32177,2,0,P|227:21|262:18,1,70,10|0,0:0|0:0,0:0:0:0:
252,110,32450,1,6,0:0:0:0:
206,189,32587,1,2,0:0:0:0:
150,114,32723,6,0,P|115:113|83:126,1,70,2|0,0:0|0:0,0:0:0:0:
297,161,32996,2,0,P|279:130|252:109,1,70,6|0,0:0|0:0,0:0:0:0:
294,319,33268,2,0,P|311:288|316:253,1,70,10|0,0:0|0:0,0:0:0:0:
153,369,33541,1,6,0:0:0:0:
150,114,33677,1,2,0:0:0:0:
150,114,33746,1,2,0:0:0:0:
150,114,33814,5,6,0:1:0:0:
297,161,33950,1,2,0:1:0:0:
295,319,34087,1,2,0:1:0:0:
153,369,34223,1,2,0:1:0:0:
398,233,34359,2,0,L|467:222,1,70,10|0,0:0|0:0,0:0:0:0:
245,77,34632,2,0,P|220:102|204:133,1,70,6|0,0:0|0:0,0:0:0:0:
293,317,34905,6,0,L|283:248,1,70,2|0,0:0|0:0,0:0:0:0:
103,120,35177,1,6,0:0:0:0:
146,221,35314,1,2,0:0:0:0:
315,160,35450,2,0,L|332:156,14,17.5,8|0|0|0|0|0|0|0|0|0|0|0|0|0|0,0:0|0:0|0:0|0:0|0:0|0:0|0:0|0:0|0:0|0:0|0:0|0:0|0:0|0:0|0:0,0:0:0:0:
369,122,35996,6,0,L|358:191,2,70,6|0|2,0:0|0:0|0:0,0:0:0:0:
289,5,36405,1,6,0:0:0:0:
341,79,36541,2,0,L|410:89,1,70,10|0,0:0|0:0,0:0:0:0:
274,139,36814,1,6,0:0:0:0:
222,64,36950,1,2,0:0:0:0:
222,64,37018,1,2,0:0:0:0:
222,64,37087,6,0,B|188:54|188:54|157:71,1,70,2|0,0:0|0:0,0:0:0:0:
168,232,37359,2,0,B|201:241|201:241|233:225,1,70,6|0,0:0|0:0,0:0:0:0:
455,125,37632,1,10,0:0:0:0:
362,130,37768,1,2,0:0:0:0:
413,206,37905,1,6,0:0:0:0:
405,46,38041,1,2,0:0:0:0:
183,148,38177,6,0,B|131:157|131:157|104:182|104:182|54:190,1,140,6|2,0:0|0:0,0:0:0:0:
60,98,38587,1,2,0:0:0:0:
180,239,38723,2,0,L|169:308,1,70,10|0,0:0|0:0,0:0:0:0:
274,139,38996,1,6,0:0:0:0:
183,148,39132,1,2,0:0:0:0:
183,148,39200,1,2,0:0:0:0:
183,148,39268,5,2,0:0:0:0:
362,130,39405,1,2,0:0:0:0:
264,49,39541,1,6,0:0:0:0:
281,231,39677,1,2,0:0:0:0:
455,125,39814,2,0,L|478:122,9,23.3333333333333,8|0|0|0|0|0|0|0|0|4,0:0|0:0|0:0|0:0|0:0|0:0|0:0|0:0|0:0|0:0,0:0:0:0:
274,138,40359,6,0,P|207:122|174:63,1,140,6|2,0:0|0:0,0:0:0:0:
264,49,40768,1,6,0:0:0:0:
380,179,40905,2,0,L|369:248,1,70,10|0,0:0|0:0,0:0:0:0:
511,358,41177,1,6,0:0:0:0:
506,265,41314,1,2,0:0:0:0:
347,343,41450,6,0,P|314:329|290:304,1,70,2|0,0:0|0:0,0:0:0:0:
431,218,41723,2,0,P|403:239|369:247,1,70,6|0,0:0|0:0,0:0:0:0:
367,85,41996,2,0,P|372:120|362:153,1,70,10|0,0:0|0:0,0:0:0:0:
206,261,42268,1,6,0:0:0:0:
222,71,42405,1,2,0:0:0:0:
222,71,42473,1,2,0:0:0:0:
222,71,42541,5,6,0:1:0:0:
368,86,42677,1,2,0:1:0:0:
431,219,42814,1,2,0:1:0:0:
347,343,42950,1,2,0:1:0:0:
322,189,43087,2,0,L|389:206,1,70,10|0,0:0|0:0,0:0:0:0:
206,261,43359,2,0,P|189:230|187:195,1,70,6|0,0:0|0:0,0:0:0:0:
274,21,43632,6,0,L|256:88,1,70,2|0,0:0|0:0,0:0:0:0:
52,205,43905,1,6,0:0:0:0:
114,116,44041,1,2,0:0:0:0:
274,209,44177,2,0,L|290:204,14,17.5,8|0|0|0|0|0|0|0|0|0|0|0|0|0|0,0:0|0:0|0:0|0:0|0:0|0:0|0:0|0:0|0:0|0:0|0:0|0:0|0:0|0:0|0:0,0:0:0:0:
232,201,44723,6,0,B|191:196|162:221|180:226|152:252|105:248,1,140,6|2,0:0|0:0,0:0:0:0:
106,249,45268,2,0,B|134:185|134:185|106:120,1,140,2|2,0:0|0:0,0:0:0:0:
68,45,45677,1,2,0:0:0:0:
152,50,45814,5,2,0:0:0:0:
152,50,46087,2,0,B|201:51|201:51|237:31|237:31|286:33,1,140,2|2,0:0|0:0,0:0:0:0:
286,33,46905,6,0,P|278:102|283:171,1,140,2|2,0:0|0:0,0:0:0:0:
315,250,47314,1,2,0:0:0:0:
368,185,47450,2,0,P|420:183|472:190,1,93.3333333333334,2|0,0:0|0:0,0:0:0:0:
472,190,47723,1,2,0:0:0:0:
398,263,47859,1,2,0:0:0:0:
284,172,47996,5,2,0:0:0:0:
284,172,48132,2,0,B|243:167|214:192|232:197|204:223|158:219,1,140,2|2,0:0|0:0,0:0:0:0:
31,116,48541,2,0,L|21:94,5,23.3333333333333,0|0|0|0|0|0,0:0|0:0|0:0|0:0|0:0|0:0,0:0:0:0:
98,47,48814,2,0,L|99:23,5,23.3333333333333,0|0|0|0|0|0,0:0|0:0|0:0|0:0|0:0|0:0,0:0:0:0:
157,124,49087,5,2,0:0:0:0:
157,124,49223,2,0,L|184:59,2,70,2|0|2,0:0|0:0|0:0,0:0:0:0:
158,219,49632,1,0,0:0:0:0:
19,212,50177,6,0,B|48:256|48:256|37:342,2,140,2|2|2,0:0|0:0|0:0,0:0:0:0:
19,212,51405,1,2,0:0:0:0:
84,264,51541,2,0,P|153:265|221:247,1,140,2|2,0:0|0:0,0:0:0:0:
267,176,51950,1,2,0:0:0:0:
343,141,52087,2,0,P|378:139|412:148,1,70,2|2,0:0|0:0,0:0:0:0:
476,202,52359,5,2,0:0:0:0:
408,252,52496,1,2,0:0:0:0:
325,239,52632,1,2,0:0:0:0:
267,176,52768,1,2,0:0:0:0:
184,194,52905,2,0,L|166:197,14,17.5,0|0|0|0|0|0|0|0|0|0|0|0|0|0|0,0:0|0:0|0:0|0:0|0:0|0:0|0:0|0:0|0:0|0:0|0:0|0:0|0:0|0:0|0:0,0:0:0:0:
207,228,53450,6,0,L|138:215,2,70,2|0|2,0:0|0:0|0:0,0:0:0:0:
289,246,53859,1,2,0:0:0:0:
102,297,53996,2,0,P|71:280|55:250,1,70,10|2,0:0|0:0,0:0:0:0:
223,317,54268,2,0,P|256:310|280:285,1,70,2|2,0:0|0:0,0:0:0:0:
154,364,54541,5,2,0:0:0:0:
256,154,54814,1,2,0:0:0:0:
358,364,55087,1,10,0:0:0:0:
358,363,55632,6,0,P|388:347|422:337,1,70,2|0,0:0|0:0,0:0:0:0:
507,262,55905,2,0,P|462:237|411:223,1,93.3333333333334,2|0,0:0|0:0,0:0:0:0:
395,184,56177,2,0,P|393:218|385:252,1,70,10|2,0:0|0:0,0:0:0:0:
313,209,56450,1,2,0:0:0:0:
60,201,56723,6,0,P|121:166|189:149,1,140,2|2,0:0|0:0,0:0:0:0:
190,150,57268,2,0,L|196:127,5,23.3333333333333,8|0|0|0|0|0,0:0|0:0|0:0|0:0|0:0|0:0,0:0:0:0:
115,75,57541,2,0,L|108:52,6,23.3333333333333
322,150,57950,5,2,0:0:0:0:
322,150,58087,2,0,P|327:219|351:285,2,140,2|10|2,0:0|0:0|0:0,0:0:0:0:
322,149,58905,6,0,P|309:182|287:209,1,70,2|2,0:0|0:0,0:0:0:0:
215,314,59177,1,2,0:0:0:0:
215,314,59450,2,0,P|280:289|350:284,1,140,10|2,0:0|0:0,0:0:0:0:
350,284,60132,6,0,B|354:238|354:238|368:219|368:219|356:198|356:198|358:152,1,140,2|2,0:3|0:3,0:3:0:0:
365,67,60541,1,10,0:3:0:0:
289,103,60677,2,0,L|254:105,2,23.3333333333333,2|2|2,0:3|0:3|0:3,0:3:0:0:
365,67,60950,1,2,0:3:0:0:
434,115,61087,1,2,0:3:0:0:
358,152,61223,1,2,0:3:0:0:
427,198,61359,2,0,L|461:200,2,23.3333333333333,2|2|2,0:3|0:3|0:3,0:3:0:0:
352,237,61632,1,2,0:3:0:0:
352,237,62177,6,0,P|317:231|282:232,1,70,6|2,0:0|0:0,0:0:0:0:
169,299,62450,2,0,P|203:303|238:304,1,70,2|6,0:0|0:0,0:0:0:0:
269,198,62723,2,0,P|256:267|259:337,2,140,10|6|0,0:0|0:0|0:0,0:0:0:0:
296,119,63405,5,2,0:0:0:0:
213,136,63541,2,0,P|169:163|121:184,1,93.3333333333334,6|0,0:0|0:0,0:0:0:0:
121,183,63814,1,10,0:0:0:0:
134,91,63950,2,0,P|99:97|64:96,1,70,2|4,0:0|0:0,0:0:0:0:
239,53,64223,1,2,0:0:0:0:
269,199,64359,5,6,0:0:0:0:
214,136,64496,1,2,0:0:0:0:
295,119,64632,2,0,P|364:106|434:109,2,140,2|10|4,0:0|0:0|0:0,0:0:0:0:
295,118,65450,6,0,P|324:139|348:164,1,70,2|2,0:0|0:0,0:0:0:0:
400,230,65723,2,0,P|406:178|424:129,1,93.3333333333334,6|0,0:0|0:0,0:0:0:0:
435,109,65996,2,0,L|457:115,5,23.3333333333333,8|0|0|0|0|0,0:0|0:0|0:0|0:0|0:0|0:0,0:0:0:0:
357,53,66268,2,0,L|379:46,5,23.3333333333333,0|0|0|4|0|0,0:0|0:0|0:0|0:0|0:0|0:0,0:0:0:0:
295,119,66541,6,0,P|262:127|227:131,1,70,6|2,0:0|0:0,0:0:0:0:
153,92,66814,1,2,0:0:0:0:
154,175,66950,1,6,0:0:0:0:
78,133,67087,2,0,P|45:124|10:120,1,70,10|2,0:0|0:0,0:0:0:0:
35,270,67359,2,0,P|61:245|82:217,1,70,6|2,0:0|0:0,0:0:0:0:
153,92,67632,5,2,0:0:0:0:
154,175,67768,1,2,0:0:0:0:
226,132,67905,1,6,0:0:0:0:
227,215,68041,1,2,0:0:0:0:
300,97,68177,2,0,B|338:84|372:108|361:115|386:136|430:126,1,140,10|6,0:0|0:0,0:0:0:0:
512,101,68587,1,2,0:0:0:0:
349,170,68723,6,0,P|335:239|339:309,2,140,6|2|10,0:0|0:0|0:0,0:0:0:0:
383,55,69405,1,2,0:0:0:0:
300,96,69541,2,0,P|270:116|238:129,1,70,6|0,0:0|0:0,0:0:0:0:
78,91,69814,5,2,0:0:0:0:
77,90,69950,2,0,P|107:110|139:123,1,70,2|0,0:0|0:0,0:0:0:0:
193,58,70223,1,2,0:0:0:0:
184,197,70359,2,0,L|182:214,14,17.5,8|0|0|0|0|0|0|0|0|0|0|0|0|0|0,0:0|0:0|0:0|0:0|0:0|0:0|0:0|0:0|0:0|0:0|0:0|0:0|0:0|0:0|0:0,0:0:0:0:
211,229,70905,6,0,B|157:228|157:228|127:247|127:247|76:245,1,140,6|2,0:0|0:0,0:0:0:0:
33,162,71314,2,0,L|103:165,1,70,6|8,0:0|0:0,0:0:0:0:
170,113,71587,1,2,0:0:0:0:
235,61,71723,2,0,L|304:63,1,70,6|2,0:0|0:0,0:0:0:0:
362,125,71996,5,2,0:0:0:0:
427,72,72132,1,2,0:0:0:0:
362,125,72268,2,0,B|334:157|334:157|346:253,2,140,6|10|4,0:0|0:0|0:0,0:0:0:0:
362,125,73087,6,0,L|370:194,1,70,6|2,0:0|0:0,0:0:0:0:
329,321,73359,2,0,B|377:297|377:297|427:309,1,93.3333333333334,2|0,0:0|0:0,0:0:0:0:
454,317,73632,2,0,L|452:247,1,70,10|2,0:0|0:0,0:0:0:0:
295,264,73905,2,0,L|303:333,1,70,6|2,0:0|0:0,0:0:0:0:
151,350,74177,5,2,0:0:0:0:
130,172,74450,1,6,0:0:0:0:
151,350,74723,2,0,L|148:326,5,23.3333333333333,8|0|0|0|0|0,0:0|0:0|0:0|0:0|0:0|0:0,0:0:0:0:
200,256,74996,2,0,L|197:232,5,23.3333333333333,0|0|0|4|0|0,0:0|0:0|0:0|0:0|0:0|0:0,0:0:0:0:
130,172,75268,5,6,0:0:0:0:
130,171,75405,2,0,P|95:170|61:161,2,70,2|2|6,0:0|0:0|0:0,0:0:0:0:
228,149,75814,1,10,0:0:0:0:
228,149,75950,1,2,0:0:0:0:
227,149,76359,6,0,P|262:140|296:140,1,70,2|0,0:0|0:0,0:0:0:0:
430,205,76632,2,0,P|395:197|361:196,1,70,6|0,0:0|0:0,0:0:0:0:
248,270,76905,2,0,P|283:261|317:261,1,70,10|0,0:0|0:0,0:0:0:0:
415,344,77177,2,0,P|380:336|346:335,1,70,6|0,0:0|0:0,0:0:0:0:
105,356,77450,6,0,P|112:321|113:286,1,70,6|0,0:3|0:3,0:3:0:0:
171,156,77723,1,2,0:3:0:0:
170,155,77859,2,0,P|178:190|178:225,1,70,6|0,0:3|0:3,0:3:0:0:
248,340,78132,1,2,0:3:0:0:
247,340,78268,2,0,P|254:305|255:270,1,70,6|0,0:3|0:3,0:3:0:0:
327,172,78541,6,0,P|334:207|335:242,1,70,2|4,0:3|0:3,0:3:0:0:
408,331,78814,2,0,P|415:296|416:261,1,70,2|0,0:3|0:3,0:3:0:0:
377,84,79087,2,2,P|461:53|457:141,1,210,10|0,0:1|0:3,0:1:0:0:
332,370,79632,6,0,L|192:356,1,140,6|0,0:0|0:0,0:0:0:0:
109,364,80041,1,4,0:0:0:0:
132,145,80177,2,0,L|145:284,1,140,10|4,0:0|0:0,0:0:0:0:
109,364,80587,1,0,0:0:0:0:
234,276,80723,6,0,L|303:269,1,70,2|0,0:0|0:0,0:0:0:0:
440,345,80996,2,0,L|370:338,1,70,6|0,0:0|0:0,0:0:0:0:
321,175,81268,2,0,L|390:168,1,70,10|0,0:0|0:0,0:0:0:0:
487,262,81541,2,0,L|480:192,1,70,4|0,0:0|0:0,0:0:0:0:
328,39,81814,5,4,0:0:0:0:
328,39,82087,2,0,B|284:92|284:92|213:98,1,140,2|10,0:0|0:0,0:0:0:0:
128,102,82496,1,0,0:0:0:0:
170,247,82632,6,0,B|184:215|184:215|175:181,1,70,6|0,0:0|0:0,0:0:0:0:
43,73,82905,2,0,B|34:107|34:107|48:138,1,70,2|0,0:0|0:0,0:0:0:0:
170,247,83177,2,0,B|201:232|201:232|235:241,1,70,6|0,0:0|0:0,0:0:0:0:
393,312,83450,2,0,L|391:335,11,23.3333333333333,8|0|0|0|0|0|4|0|0|0|0|0,0:0|0:0|0:0|0:0|0:0|0:0|0:0|0:0|0:0|0:0|0:0|0:0,0:0:0:0:
370,282,83996,6,0,L|364:351,2,70,6|0|0,0:0|0:0|0:0,0:0:0:0:
376,197,84405,1,0,0:0:0:0:
283,319,84541,2,0,L|213:324,1,70,8|0,0:0|0:0,0:0:0:0:
23,166,84814,6,0,P|53:184|72:213,1,70,6|0,0:0|0:0,0:0:0:0:
132,336,85087,2,0,P|132:301|147:269,1,70,2|0,0:0|0:0,0:0:0:0:
223,159,85359,2,0,P|192:176|157:178,1,70,6|0,0:0|0:0,0:0:0:0:
24,167,85632,5,10,0:1:0:0:
132,336,85768,1,2,0:1:0:0:
223,160,85905,1,6,0:1:0:0:
379,251,86041,1,2,0:1:0:0:
486,161,86177,1,6,0:1:0:0:
486,161,86314,2,0,L|493:91,2,70,2|2|2,0:0|0:0|0:0,0:0:0:0:
480,293,86723,6,0,L|487:362,1,70,10|0,0:0|0:0,0:0:0:0:
382,212,86996,2,0,L|389:142,1,70,6|0,0:0|0:0,0:0:0:0:
265,269,87268,2,0,L|272:338,1,70,2|0,0:0|0:0,0:0:0:0:
109,175,87541,6,0,L|179:183,1,70,6|0,0:0|0:0,0:0:0:0:
70,319,87814,2,0,L|52:320,14,17.5,8|0|0|0|0|0|0|0|0|0|0|0|4|0|0,0:0|0:0|0:0|0:0|0:0|0:0|0:0|0:0|0:0|0:0|0:0|0:0|0:0|0:0|0:0,0:0:0:0:
93,285,88359,6,0,L|23:291,2,70,6|0|0,0:0|0:0|0:0,0:0:0:0:
176,275,88768,1,0,0:0:0:0:
143,65,88905,2,0,L|128:204,1,140,10|4,0:0|0:0,0:0:0:0:
176,275,89314,1,0,0:0:0:0:
285,203,89450,6,0,L|215:195,1,70,2|0,0:0|0:0,0:0:0:0:
310,319,89723,2,0,P|342:303|365:277,1,70,6|0,0:0|0:0,0:0:0:0:
376,145,89996,2,0,P|363:112|338:87,1,70,10|0,0:0|0:0,0:0:0:0:
439,217,90268,2,0,L|509:225,1,70,4|0,0:0|0:0,0:0:0:0:
216,195,90541,5,4,0:0:0:0:
215,194,90814,2,0,P|250:190|280:173,1,70,2|0,0:0|0:0,0:0:0:0:
70,164,91087,2,0,P|35:168|5:185,1,70,10|0,0:0|0:0,0:0:0:0:
155,103,91359,2,0,P|151:69|134:39,1,70,6|0,0:0|0:0,0:0:0:0:
124,249,91632,2,0,P|128:283|145:313,1,70,2|0,0:0|0:0,0:0:0:0:
154,104,91905,2,0,P|185:86|219:82,1,70,6|0,0:0|0:0,0:0:0:0:
373,121,92177,2,0,L|370:144,11,23.3333333333333,8|0|0|0|0|0|0|0|0|0|0|0,0:0|0:0|0:0|0:0|0:0|0:0|0:0|0:0|0:0|0:0|0:0|0:0,0:0:0:0:
343,91,92723,6,0,L|336:160,2,70,6|0|0,0:0|0:0|0:0,0:0:0:0:
413,43,93132,1,0,0:0:0:0:
390,234,93268,2,0,P|358:250|323:252,1,70,8|0,0:0|0:0,0:0:0:0:
52,185,93541,6,0,L|18:246,1,70,6|0,0:0|0:0,0:0:0:0:
189,313,93814,2,0,L|208:380,1,70,2|0,0:0|0:0,0:0:0:0:
257,138,94087,2,0,L|318:171,1,70,6|0,0:0|0:0,0:0:0:0:
52,185,94359,5,10,0:1:0:0:
189,313,94496,1,2,0:1:0:0:
257,138,94632,1,6,0:1:0:0:
400,201,94768,1,2,0:1:0:0:
461,83,94905,6,0,L|470:13,2,70,6|0|0,0:0|0:0|0:0,0:0:0:0:
408,251,95314,2,0,L|417:320,2,70,6|8|0,0:0|0:0|0:0,0:0:0:0:
354,106,95723,2,0,L|363:36,1,70,6|0,0:0|0:0,0:0:0:0:
145,176,95996,6,0,P|125:205|118:239,1,70,2|4,0:0|0:0,0:0:0:0:
298,213,96268,2,0,P|282:182|255:159,1,70,2|0,0:0|0:0,0:0:0:0:
222,315,96541,2,0,L|225:338,11,23.3333333333333,8|0|0|0|0|0|0|0|0|0|0|0,0:0|0:0|0:0|0:0|0:0|0:0|0:0|0:0|0:0|0:0|0:0|0:0,0:0:0:0:
253,298,97087,6,0,L|183:309,2,70,6|0|2,0:0|0:0|0:0,0:0:0:0:
339,283,97496,1,6,0:0:0:0:
387,138,97632,2,0,L|456:128,1,70,10|0,0:0|0:0,0:0:0:0:
297,149,97906,1,6,0:0:0:0:
339,283,98042,1,2,0:0:0:0:
339,283,98110,1,2,0:0:0:0:
339,282,98177,6,0,P|351:250|347:216,1,70,2|0,0:0|0:0,0:0:0:0:
214,103,98451,2,0,P|201:135|206:169,1,70,6|0,0:0|0:0,0:0:0:0:
386,137,98723,2,0,P|355:124|320:128,1,70,10|0,0:1|0:0,0:0:0:0:
196,349,98996,2,0,P|228:359|263:357,1,70,6|0,0:1|0:0,0:0:0:0:
10,255,99268,5,4,0:0:0:0:
10,255,99541,2,0,B|47:263|76:242|76:242|104:224|143:230,1,140,2|10,0:0|0:0,0:0:0:0:
231,256,99950,1,2,0:0:0:0:
163,317,100087,1,6,0:0:0:0:
209,170,100224,1,2,0:0:0:0:
209,170,100292,1,2,0:0:0:0:
208,170,100359,6,0,P|219:136|214:102,1,70,2|0,0:0|0:0,0:0:0:0:
29,97,100632,2,0,P|18:131|23:165,1,70,6|0,0:0|0:0,0:0:0:0:
186,292,100905,2,0,L|209:292,11,23.3333333333333,8|0|0|0|0|0|0|0|0|4|0|0,0:0|0:0|0:0|0:0|0:0|0:0|0:0|0:0|0:0|0:0|0:0|0:0,0:0:0:0:
163,317,101450,6,0,L|232:318,2,70,6|0|2,0:0|0:0|0:0,0:0:0:0:
93,168,101859,2,0,L|23:165,2,70,6|8|2,0:0|0:0|0:0,0:0:0:0:
206,39,102269,1,6,0:0:0:0:
285,84,102406,1,2,0:0:0:0:
141,229,102542,6,0,P|106:228|74:241,1,70,2|0,0:0|0:0,0:0:0:0:
339,285,102814,2,0,P|355:255|361:221,1,70,6|0,0:0|0:0,0:0:0:0:
208,129,103087,2,0,P|235:150|252:180,1,70,10|0,0:0|0:0,0:0:0:0:
264,384,103360,1,6,0:0:0:0:
141,229,103496,1,2,0:0:0:0:
141,229,103565,1,2,0:0:0:0:
141,229,103633,5,6,0:1:0:0:
340,286,103769,1,2,0:1:0:0:
208,129,103906,1,2,0:1:0:0:
264,384,104042,1,2,0:1:0:0:
340,286,104178,2,0,L|409:275,1,70,10|0,0:0|0:0,0:0:0:0:
280,199,104451,2,0,P|255:224|239:255,1,70,6|0,0:0|0:0,0:0:0:0:
512,297,104723,6,0,B|516:262|516:262|503:230,1,70,2|0,0:0|0:0,0:0:0:0:
357,113,104996,2,0,B|344:81|344:81|348:46,1,70,6|0,0:0|0:0,0:0:0:0:
372,249,105268,2,0,L|374:266,14,17.5,8|0|0|0|0|0|0|0|0|0|0|0|0|0|0,0:0|0:0|0:0|0:0|0:0|0:0|0:0|0:0|0:0|0:0|0:0|0:0|0:0|0:0|0:0,0:0:0:0:
340,286,105814,6,0,L|409:275,2,70,6|0|2,0:0|0:0|0:0,0:0:0:0:
169,244,106224,1,6,0:0:0:0:
236,184,106360,2,0,L|305:194,1,70,10|0,0:0|0:0,0:0:0:0:
184,110,106632,1,6,0:0:0:0:
117,169,106769,1,2,0:0:0:0:
117,169,106837,1,2,0:0:0:0:
117,169,106905,6,0,B|83:176|83:176|52:159,1,70,2|0,0:0|0:0,0:0:0:0:
161,25,107177,2,0,B|194:17|194:17|225:34,1,70,6|0,0:0|0:0,0:0:0:0:
413,169,107450,2,0,L|425:237,1,70,10|0,0:1|0:0,0:0:0:0:
225,219,107723,2,0,L|185:276,1,70,6|0,0:1|0:0,0:0:0:0:
370,35,107996,5,4,0:0:0:0:
370,35,108268,2,0,B|320:43|320:43|293:68|293:68|241:77,1,140,2|10,0:0|0:0,0:0:0:0:
151,92,108677,1,2,0:0:0:0:
207,164,108815,1,6,0:0:0:0:
188,8,108950,1,2,0:0:0:0:
188,8,109019,1,2,0:0:0:0:
188,8,109087,6,0,P|154:0|119:5,1,70,2|0,0:0|0:0,0:0:0:0:
113,177,109359,2,0,P|148:185|182:179,1,70,6|0,0:0|0:0,0:0:0:0:
320,96,109632,2,0,L|343:98,11,23.3333333333333,8|0|0|0|0|0|0|0|0|4|0|0,0:0|0:0|0:0|0:0|0:0|0:0|0:0|0:0|0:0|0:0|0:0|0:0,0:0:0:0:
296,130,110177,6,0,L|365:122,2,70,6|0|2,0:0|0:0|0:0,0:0:0:0:
210,255,110587,1,6,0:0:0:0:
299,271,110723,2,0,L|368:277,1,70,10|0,0:0|0:0,0:0:0:0:
206,135,110996,1,6,0:0:0:0:
138,196,111133,1,2,0:0:0:0:
0,82,111268,6,0,P|25:58|58:49,1,70,2|0,0:0|0:0,0:0:0:0:
205,134,111541,2,0,P|180:111|147:101,1,70,6|0,0:0|0:0,0:0:0:0:
45,230,111814,2,0,P|70:206|103:197,1,70,10|0,0:0|0:0,0:0:0:0:
216,252,112087,1,6,0:0:0:0:
0,83,112223,1,2,0:0:0:0:
0,83,112291,1,2,0:0:0:0:
0,83,112359,5,6,0:1:0:0:
206,135,112496,1,2,0:1:0:0:
45,231,112632,1,2,0:1:0:0:
216,252,112769,1,2,0:1:0:0:
136,364,112905,2,0,B|119:333|119:333|126:299,1,70,10|0,0:0|0:0,0:0:0:0:
206,135,113177,2,0,B|223:166|223:166|215:199,1,70,6|0,0:0|0:0,0:0:0:0:
136,363,113451,6,0,P|162:341|195:329,1,70,2|0,0:0|0:0,0:0:0:0:
408,320,113723,1,6,0:0:0:0:
431,218,113860,1,2,0:0:0:0:
431,218,113927,1,2,0:0:0:0:
432,218,113996,6,2,B|348:204|296:268|333:279|273:348|195:329,1,280,10|0,0:1|0:0,0:1:0:0:
43,48,123268,5,0,0:0:0:0:
101,107,123540,1,0,0:0:0:0:
174,149,123813,1,0,0:0:0:0:
256,169,124086,1,0,0:0:0:0:
338,149,124359,1,0,0:0:0:0:
411,107,124632,1,0,0:0:0:0:
469,47,124905,2,0,L|475:24,5,23.3333333333333,0|0|0|0|0|0,0:0|0:0|0:0|0:0|0:0|0:0,0:0:0:0:
510,160,125177,2,0,L|503:137,5,23.3333333333333,0|0|0|0|0|0,0:0|0:0|0:0|0:0|0:0|0:0,0:0:0:0:
469,250,125450,5,0,0:0:0:0:
411,191,125722,1,0,0:0:0:0:
338,149,125995,1,0,0:0:0:0:
256,129,126268,1,0,0:0:0:0:
174,149,126541,1,0,0:0:0:0:
101,191,126814,1,0,0:0:0:0:
43,251,127087,2,0,L|45:320,2,70,0|0|0,0:0|0:0|0:0,0:0:0:0:
4,149,127496,1,0,0:0:0:0:
43,48,127632,5,0,0:0:0:0:
101,107,127904,1,0,0:0:0:0:
174,149,128177,1,0,0:0:0:0:
256,169,128450,5,0,0:0:0:0:
338,149,128723,1,0,0:0:0:0:
411,107,128996,1,0,0:0:0:0:
469,47,129269,2,0,L|475:24,5,23.3333333333333,0|0|0|0|0|0,0:0|0:0|0:0|0:0|0:0|0:0,0:0:0:0:
510,160,129541,2,0,L|503:137,5,23.3333333333333,0|0|0|0|0|0,0:0|0:0|0:0|0:0|0:0|0:0,0:0:0:0:
469,250,129814,6,0,L|400:265,1,70,8|0,0:3|0:3,0:3:0:0:
210,206,130087,2,0,P|191:178|184:144,1,70,8|0,0:3|0:3,0:3:0:0:
327,143,130359,2,0,P|319:178|300:207,1,70,8|0,0:3|0:3,0:3:0:0:
111,265,130632,2,0,L|43:250,1,70,8|0,0:3|0:3,0:3:0:0:
256,49,130905,5,8,0:3:0:0:
197,12,131996,6,2,P|222:37|255:48,1,70,6|0,0:1|0:1,0:1:0:0:
299,181,132268,2,2,P|327:118|378:71,1,140,2|8,0:1|0:1,0:1:0:0:
379,72,132814,1,6,0:1:0:0:
415,146,132950,2,2,P|390:171|379:204,1,70,2|0,0:1|0:1,0:1:0:0:
438,313,133223,1,2,0:1:0:0:
355,305,133359,2,2,P|340:238|299:181,1,140,6|8,0:1|0:1,0:1:0:0:
150,214,133768,5,2,0:1:0:0:
231,234,133905,1,6,0:1:0:0:
150,214,134041,1,2,0:1:0:0:
76,252,134177,2,2,P|51:277|40:310,1,70,6|0,0:1|0:1,0:1:0:0:
207,350,134450,2,2,P|182:325|171:292,1,70,2|0,0:1|0:1,0:1:0:0:
246,96,134723,2,2,P|233:129|209:154,1,70,10|0,0:1|0:1,0:1:0:0:
6,198,134996,1,6,0:1:0:0:
51,127,135132,6,0,L|47:92,2,23.3333333333333,0|0|0,0:1|0:1|0:1,0:1:0:0:
117,178,135405,1,0,0:1:0:0:
185,226,135541,2,0,L|177:295,1,70,4|0,0:1|0:1,0:1:0:0:
252,333,135814,2,0,L|249:356,9,23.3333333333333,0|0|0|0|0|0|0|0|0|4,0:1|0:1|0:1|0:1|0:1|0:1|0:1|0:1|0:1|0:1,0:1:0:0:
267,219,136359,2,0,L|274:149,2,70,4|0|0,0:1|0:1|0:1,0:1:0:0:
324,280,136768,1,4,0:1:0:0:
344,94,136905,5,10,0:1:0:0:
265,65,137041,1,2,0:1:0:0:
344,94,137177,1,6,0:1:0:0:
265,65,137314,1,2,0:1:0:0:
194,112,137450,2,2,P|160:118|127:109,1,70,2|0,0:1|0:1,0:1:0:0:
274,149,137723,2,2,P|253:178|223:195,1,70,6|0,0:1|0:1,0:1:0:0:
355,120,137996,2,2,P|361:155|352:188,1,70,10|0,0:1|0:1,0:1:0:0:
393,40,138268,2,2,P|422:60|439:91,1,70,6|0,0:1|0:1,0:1:0:0:
195,112,138541,5,6,0:0:0:0:
274,150,138677,1,2,0:0:0:0:
356,121,138814,1,2,0:0:0:0:
394,41,138950,1,2,0:0:0:0:
442,110,139087,5,10,0:1:0:0:
442,110,139223,1,2,0:1:0:0:
413,187,139359,2,0,P|383:207|366:237,1,70,6|0,0:1|0:1,0:1:0:0:
490,312,139632,2,2,P|462:293|445:263,1,70,2|0,0:1|0:1,0:1:0:0:
441,109,139905,2,2,P|408:102|374:111,1,70,6|0,0:1|0:1,0:1:0:0:
253,236,140177,2,0,L|256:253,14,17.5,8|0|0|0|0|0|0|0|0|0|0|0|0|0|0,0:1|0:1|0:1|0:1|0:1|0:1|0:1|0:1|0:1|0:1|0:1|0:1|0:1|0:1|0:1,0:1:0:0:
260,276,140723,6,2,P|228:265|203:241,1,70,6|0,0:1|0:1,0:1:0:0:
63,256,140995,2,2,P|114:209|141:146,1,140,2|8,0:1|0:1,0:1:0:0:
142,146,141541,1,6,0:1:0:0:
127,67,141677,2,2,P|95:77|71:102,1,70,2|0,0:1|0:1,0:1:0:0:
208,92,141950,1,2,0:1:0:0:
226,173,142087,2,2,P|241:105|282:48,1,140,6|8,0:1|0:1,0:1:0:0:
309,187,142495,5,2,0:1:0:0:
259,255,142632,1,6,0:1:0:0:
309,187,142768,1,2,0:1:0:0:
340,264,142905,2,2,P|371:246|390:217,1,70,6|0,0:1|0:1,0:1:0:0:
282,106,143177,2,2,P|252:121|233:150,1,70,2|0,0:1|0:1,0:1:0:0:
305,339,143450,2,2,P|339:349|373:341,1,70,10|0,0:1|0:1,0:1:0:0:
459,179,143723,1,6,0:1:0:0:
402,116,143859,6,0,L|405:81,2,23.3333333333333,0|0|0,0:1|0:1|0:1,0:1:0:0:
336,167,144132,1,0,0:1:0:0:
268,215,144268,2,0,L|276:284,1,70,4|0,0:1|0:1,0:1:0:0:
201,322,144541,2,0,L|203:345,9,23.3333333333333,0|0|0|0|0|0|0|0|0|4,0:1|0:1|0:1|0:1|0:1|0:1|0:1|0:1|0:1|0:1,0:1:0:0:
186,208,145086,2,0,L|179:138,2,70,4|0|0,0:1|0:1|0:1,0:1:0:0:
129,269,145495,1,4,0:1:0:0:
105,89,145632,5,10,0:1:0:0:
179,51,145768,1,2,0:1:0:0:
105,89,145905,1,6,0:1:0:0:
109,5,146041,1,2,0:1:0:0:
104,88,146177,2,2,P|70:82|37:91,1,70,2|0,0:1|0:1,0:1:0:0:
257,91,146450,2,2,P|291:97|324:88,1,70,6|0,0:1|0:1,0:1:0:0:
138,170,146723,2,2,P|104:176|71:167,1,70,10|0,0:1|0:1,0:1:0:0:
218,9,146996,2,2,P|252:3|285:12,1,70,6|0,0:1|0:1,0:1:0:0:
105,89,147268,5,6,0:0:0:0:
257,91,147404,1,2,0:0:0:0:
139,170,147541,1,2,0:0:0:0:
218,10,147677,1,2,0:0:0:0:
105,89,147814,5,10,0:1:0:0:
139,170,147950,1,2,0:1:0:0:
257,91,148087,1,6,0:1:0:0:
218,10,148223,1,2,0:1:0:0:
138,170,148359,2,2,P|104:176|71:167,1,70,2|0,0:1|0:1,0:1:0:0:
265,229,148632,2,2,P|287:255|296:288,1,70,6|0,0:1|0:1,0:1:0:0:
128,340,148905,2,0,L|131:323,14,17.5,8|0|0|0|0|0|0|0|0|0|0|0|0|0|0,0:1|0:1|0:1|0:1|0:1|0:1|0:1|0:1|0:1|0:1|0:1|0:1|0:1|0:1|0:1,0:1:0:0:
99,303,149450,6,0,L|167:315,2,70,6|0|2,0:0|0:0|0:0,0:0:0:0:
13,285,149859,1,6,0:0:0:0:
123,164,149996,2,0,L|191:177,1,70,10|0,0:0|0:0,0:0:0:0:
231,251,150269,1,6,0:0:0:0:
41,201,150405,1,2,0:0:0:0:
41,201,150473,1,2,0:0:0:0:
41,201,150541,6,0,P|32:167|37:132,1,70,2|0,0:0|0:0,0:0:0:0:
98,11,150814,2,0,P|107:45|102:80,1,70,6|0,0:0|0:0,0:0:0:0:
162,254,151087,2,0,P|197:258|231:250,1,70,10|0,0:1|0:0,0:0:0:0:
256,119,151359,2,0,P|289:109|323:114,1,70,6|0,0:1|0:0,0:0:0:0:
502,255,151631,5,4,0:0:0:0:
502,254,151904,2,0,P|433:263|371:232,1,140,2|10,0:0|0:0,0:0:0:0:
402,154,152313,1,2,0:0:0:0:
325,116,152450,1,6,0:0:0:0:
296,195,152587,1,2,0:0:0:0:
296,195,152655,1,2,0:0:0:0:
296,194,152722,6,0,P|285:228|290:262,1,70,2|0,0:0|0:0,0:0:0:0:
150,366,152996,2,0,P|161:332|156:298,1,70,6|0,0:0|0:0,0:0:0:0:
55,190,153268,2,0,L|31:190,11,23.3333333333333,8|0|0|0|0|0|0|0|0|4|0|0,0:0|0:0|0:0|0:0|0:0|0:0|0:0|0:0|0:0|0:0|0:0|0:0,0:0:0:0:
81,209,153814,6,0,L|11:210,2,70,6|0|2,0:0|0:0|0:0,0:0:0:0:
158,361,154223,1,6,0:0:0:0:
186,282,154359,2,0,P|151:276|118:286,1,70,10|0,0:0|0:0,0:0:0:0:
243,348,154632,1,6,0:0:0:0:
269,267,154769,1,2,0:0:0:0:
393,339,154905,6,0,P|428:340|460:327,1,70,2|0,0:0|0:0,0:0:0:0:
269,266,155177,2,0,P|234:267|202:254,1,70,6|0,0:0|0:0,0:0:0:0:
374,197,155450,2,0,P|409:198|441:185,1,70,10|0,0:0|0:0,0:0:0:0:
303,98,155723,1,6,0:0:0:0:
269,267,155859,1,2,0:0:0:0:
269,267,155927,1,2,0:0:0:0:
269,267,155996,5,6,0:1:0:0:
375,198,156132,1,2,0:1:0:0:
394,340,156268,1,2,0:1:0:0:
303,98,156405,1,2,0:1:0:0:
222,170,156541,2,0,P|187:169|155:182,1,70,10|0,0:0|0:0,0:0:0:0:
45,273,156814,2,0,P|80:272|112:285,1,70,6|0,0:0|0:0,0:0:0:0:
252,364,157087,6,0,B|239:330|239:330|253:299,1,70,2|0,0:0|0:0,0:0:0:0:
375,198,157359,2,0,B|389:167|389:167|376:133,1,70,6|0,0:0|0:0,0:0:0:0:
396,322,157631,2,0,L|393:339,14,17.5,8|0|0|0|0|0|0|0|0|0|0|0|0|0|0,0:0|0:0|0:0|0:0|0:0|0:0|0:0|0:0|0:0|0:0|0:0|0:0|0:0|0:0|0:0,0:0:0:0:
364,293,158177,6,0,L|433:303,2,70,6|0|2,0:0|0:0|0:0,0:0:0:0:
304,353,158587,1,6,0:0:0:0:
251,190,158723,2,0,L|181:200,1,70,10|0,0:0|0:0,0:0:0:0:
142,274,158995,1,6,0:0:0:0:
53,182,159132,1,2,0:0:0:0:
53,182,159200,1,2,0:0:0:0:
53,182,159268,6,0,B|40:149|40:149|51:116,1,70,2|0,0:0|0:0,0:0:0:0:
201,38,159541,2,0,B|235:43|235:43|258:69,1,70,6|0,0:0|0:0,0:0:0:0:
141,273,159814,2,0,P|136:238|143:204,1,70,10|0,0:1|0:0,0:0:0:0:
290,193,160087,2,0,P|264:171|232:158,1,70,6|0,0:1|0:0,0:0:0:0:
97,30,160359,5,4,0:0:0:0:
96,29,160632,2,0,P|145:78|214:85,1,140,2|10,0:0|0:0,0:0:0:0:
298,84,161040,1,2,0:0:0:0:
256,158,161178,1,6,0:0:0:0:
249,11,161314,1,2,0:0:0:0:
249,11,161382,1,2,0:0:0:0:
248,11,161450,6,0,P|281:0|316:0,1,70,2|0,0:0|0:0,0:0:0:0:
405,177,161723,2,0,P|371:177|338:165,1,70,6|0,0:0|0:0,0:0:0:0:
177,98,161996,2,0,L|153:100,11,23.3333333333333,8|0|0|0|0|0|0|0|0|4|0|0,0:0|0:0|0:0|0:0|0:0|0:0|0:0|0:0|0:0|0:0|0:0|0:0,0:0:0:0:
199,119,162541,6,0,L|129:111,2,70,6|0|2,0:0|0:0|0:0,0:0:0:0:
249,187,162950,1,6,0:0:0:0:
371,115,163086,2,0,L|302:122,1,70,10|0,0:0|0:0,0:0:0:0:
243,275,163359,1,2,0:0:0:0:
319,238,163496,1,2,0:0:0:0:
174,224,163631,6,0,P|141:215|116:191,1,70,2|0,0:0|0:0,0:0:0:0:
254,104,163905,2,0,P|262:71|286:46,1,70,6|0,0:0|0:0,0:0:0:0:
318,237,164177,2,0,P|352:247|377:271,1,70,10|0,0:0|0:0,0:0:0:0:
240,360,164450,1,6,0:0:0:0:
175,225,164586,1,2,0:0:0:0:
175,225,164654,1,2,0:0:0:0:
175,225,164722,5,6,0:1:0:0:
254,105,164859,1,2,0:1:0:0:
319,238,164995,1,2,0:1:0:0:
240,360,165132,1,2,0:1:0:0:
212,249,165268,2,0,B|248:244|248:244|280:255,1,70,10|0,0:0|0:0,0:0:0:0:
405,150,165541,2,0,B|369:155|369:155|337:144,1,70,6|0,0:0|0:0,0:0:0:0:
195,27,165814,6,0,P|173:53|161:86,1,70,2|0,0:0|0:0,0:0:0:0:
212,250,166086,1,6,0:0:0:0:
95,183,166223,1,2,0:0:0:0:
95,183,166290,1,2,0:0:0:0:
95,183,166359,2,0,L|96:200,14,17.5,8|0|0|0|0|0|0|0|0|0|0|0|0|0|0,0:0|0:0|0:0|0:0|0:0|0:0|0:0|0:0|0:0|0:0|0:0|0:0|0:0|0:0|0:0,0:0:0:0:
58,206,166905,6,2,P|93:204|124:219,1,70,6|2,0:1|0:0,0:1:0:0:
194,336,167177,2,2,P|229:338|260:323,1,70,2|2,0:1|0:0,0:1:0:0:
301,209,167450,2,2,P|336:209|363:230,1,70,2|2,0:1|0:0,0:1:0:0:
410,313,167723,1,2,0:1:0:0:
478,244,167859,2,0,L|512:249,2,23.3333333333333,2|0|0,0:1|0:0|0:0,0:0:0:0:
429,165,168132,2,0,L|434:130,2,23.3333333333333,2|0|0,0:1|0:0|0:0,0:0:0:0:
364,231,168405,1,2,0:1:0:0:
258,128,168541,2,0,L|255:110,4,17.5,0|0|0|0|0,0:0|0:0|0:0|0:0|0:0,0:0:0:0:
258,128,168814,6,2,L|269:58,1,70,2|0,0:1|0:0,0:1:0:0:
258,215,169087,6,0,B|217:220|188:195|206:190|178:164|132:168,1,140,6|2,0:0|0:0,0:0:0:0:
62,215,169496,1,2,0:0:0:0:
126,322,169632,2,0,L|138:253,1,70,10|0,0:0|0:0,0:0:0:0:
54,127,169905,1,6,0:0:0:0:
127,87,170041,1,2,0:0:0:0:
127,87,170109,1,2,0:0:0:0:
126,87,170177,6,0,P|161:84|195:92,1,70,2|0,0:0|0:0,0:0:0:0:
331,154,170450,2,0,P|296:151|262:159,1,70,6|0,0:0|0:0,0:0:0:0:
202,258,170723,2,0,L|205:281,11,23.3333333333333,8|0|0|0|0|0|0|0|0|4|0|0,0:0|0:0|0:0|0:0|0:0|0:0|0:0|0:0|0:0|0:0|0:0|0:0,0:0:0:0:
196,229,171268,6,0,L|184:298,2,70,6|0|2,0:0|0:0|0:0,0:0:0:0:
303,233,171677,1,6,0:0:0:0:
342,307,171814,2,0,P|307:314|272:311,1,70,10|0,0:0|0:0,0:0:0:0:
262,158,172087,2,0,P|295:151|330:153,1,70,6|0,0:0|0:0,0:0:0:0:
440,305,172359,6,0,L|448:339,2,23.3333333333333,2|0|0,0:0|0:0|0:0,0:0:0:0:
417,223,172632,1,6,0:0:0:0:
478,166,172768,1,2,0:0:0:0:
368,80,172905,2,0,P|335:73|300:74,1,70,10|0,0:0|0:0,0:0:0:0:
176,160,173177,2,0,L|184:194,2,23.3333333333333,6|0|0,0:0|0:0|0:0,0:0:0:0:
29,60,173450,5,6,0:1:0:0:
156,71,173587,1,2,0:1:0:0:
98,1,173723,1,2,0:1:0:0:
87,129,173859,1,2,0:1:0:0:
275,85,173996,6,0,L|344:91,1,70,10|0,0:0|0:0,0:0:0:0:
489,184,174268,2,0,L|419:177,1,70,6|0,0:0|0:0,0:0:0:0:
257,227,174541,2,0,L|327:234,1,70,2|0,0:0|0:0,0:0:0:0:
474,363,174814,2,0,L|480:293,1,70,6|0,0:0|0:0,0:0:0:0:
269,349,175087,2,0,L|286:350,14,17.5,8|0|0|0|0|0|0|0|0|0|0|0|0|0|0,0:0|0:0|0:0|0:0|0:0|0:0|0:0|0:0|0:0|0:0|0:0|0:0|0:0|0:0|0:0,0:0:0:0:
243,361,175632,6,0,L|312:367,2,70,6|0|2,0:0|0:0|0:0,0:0:0:0:
159,348,176041,1,6,0:0:0:0:
225,199,176177,2,0,L|231:268,1,70,10|0,0:0|0:0,0:0:0:0:
147,260,176450,1,6,0:0:0:0:
139,175,176587,1,2,0:0:0:0:
139,175,176655,1,2,0:0:0:0:
138,175,176723,6,0,P|157:145|184:123,1,70,2|0,0:0|0:0,0:0:0:0:
313,212,176996,2,0,P|307:178|291:147,1,70,6|0,0:0|0:0,0:0:0:0:
146,260,177268,2,0,P|216:263|280:290,1,140,10|6,0:0|0:0,0:0:0:0:
352,335,177677,1,2,0:0:0:0:
438,139,177814,6,0,P|411:203|408:272,1,140,6|2,0:0|0:0,0:0:0:0:
436,352,178223,1,2,0:0:0:0:
279,289,178359,2,0,P|245:290|213:304,1,70,10|0,0:0|0:0,0:0:0:0:
133,333,178632,1,6,0:0:0:0:
60,292,178768,1,2,0:0:0:0:
60,292,178837,1,2,0:0:0:0:
60,292,178905,6,0,L|65:222,1,70,2|0,0:0|0:0,0:0:0:0:
142,99,179177,2,0,L|148:169,1,70,6|0,0:0|0:0,0:0:0:0:
213,305,179450,2,0,L|214:281,9,23.3333333333333,8|0|0|0|0|0|0|0|0|4,0:0|0:0|0:0|0:0|0:0|0:0|0:0|0:0|0:0|0:0,0:0:0:0:
371,323,179996,6,0,P|398:345|429:359,2,70,6|0|2,0:0|0:0|0:0,0:0:0:0:
312,262,180405,1,6,0:0:0:0:
444,207,180541,2,0,P|437:242|440:277,1,70,10|0,0:0|0:0,0:0:0:0:
377,157,180814,2,0,P|406:136|439:124,1,70,6|0,0:0|0:0,0:0:0:0:
312,262,181087,6,0,L|277:256,2,23.3333333333333,2|0|0,0:0|0:0|0:0,0:0:0:0:
371,323,181359,1,6,0:0:0:0:
288,342,181496,1,2,0:0:0:0:
194,235,181632,2,0,L|124:245,1,70,10|0,0:0|0:0,0:0:0:0:
86,381,181905,2,0,L|51:375,2,23.3333333333333,6|0|0,0:0|0:0|0:0,0:0:0:0:
252,304,182177,5,6,0:1:0:0:
125,293,182314,1,2,0:1:0:0:
183,363,182450,1,2,0:1:0:0:
194,235,182586,1,2,0:1:0:0:
40,237,182723,6,0,P|30:271|31:306,1,70,10|0,0:0|0:0,0:0:0:0:
194,235,182996,2,0,P|169:209|139:192,1,70,6|0,0:0|0:0,0:0:0:0:
127,384,183268,2,0,P|161:375|191:357,1,70,2|0,0:0|0:0,0:0:0:0:
275,126,183541,2,0,P|305:106|339:98,1,70,6|0,0:0|0:0,0:0:0:0:
474,267,183814,2,0,L|472:284,14,17.5,8|0|0|0|0|0|0|0|0|0|0|0|0|0|0,0:0|0:0|0:0|0:0|0:0|0:0|0:0|0:0|0:0|0:0|0:0|0:0|0:0|0:0|0:0,0:0:0:0:
448,233,184359,6,0,L|455:302,1,70,6|0,0:0|0:0,0:0:0:0:
365,363,184632,2,0,L|372:293,1,70,2|4,0:0|0:0,0:0:0:0:
270,125,184905,1,10,0:0:0:0:
281,208,185041,2,0,L|288:277,1,70,2|4,0:0|0:0,0:0:0:0:
234,341,185314,1,2,0:0:0:0:
135,253,185450,2,0,L|205:262,1,70,2|0,0:0|0:0,0:0:0:0:
350,199,185723,2,0,L|281:208,1,70,6|0,0:0|0:0,0:0:0:0:
204,25,185996,6,0,B|224:66|224:66|206:158,1,140,10|6,0:0|0:0,0:0:0:0:
191,241,186405,1,2,0:0:0:0:
72,131,186541,2,0,B|131:139|131:139|150:152|150:152|207:158,1,140,6|0,0:0|0:0,0:0:0:0:
346,32,186950,5,2,0:0:0:0:
302,104,187087,1,10,0:0:0:0:
385,110,187223,1,2,0:0:0:0:
302,104,187359,1,6,0:0:0:0:
385,110,187496,1,2,0:0:0:0:
340,180,187632,2,0,L|331:249,1,70,2|0,0:0|0:0,0:0:0:0:
425,341,187905,2,0,L|416:271,1,70,6|0,0:0|0:0,0:0:0:0:
244,272,188177,2,0,L|220:274,9,23.3333333333333,8|0|0|0|0|0|0|0|0|0,0:0|0:0|0:0|0:0|0:0|0:0|0:0|0:0|0:0|0:0,0:0:0:0:
66,347,188723,6,0,B|35:284|35:284|61:219,1,140,6|2,0:0|0:0,0:0:0:0:
94,141,189132,1,6,0:0:0:0:
129,280,189268,2,0,L|198:276,1,70,10|0,0:0|0:0,0:0:0:0:
320,356,189541,2,0,L|250:353,1,70,6|0,0:0|0:0,0:0:0:0:
186,185,189814,2,0,L|255:181,1,70,2|0,0:0|0:3,0:0:0:0:
360,266,190087,2,0,L|362:196,1,70,6|0,0:0|0:0,0:0:0:0:
452,88,190359,2,0,B|393:96|393:96|374:109|374:109|316:115,1,140,10|6,0:0|0:0,0:0:0:0:
238,83,190768,1,2,0:0:0:0:
116,215,190905,5,6,0:1:0:0:
51,160,191041,1,2,0:1:0:0:
106,96,191177,1,2,0:1:0:0:
170,150,191314,1,2,0:1:0:0:
81,293,191450,5,10,0:0:0:0:
163,286,191587,2,0,L|232:279,1,70,2|4,0:0|0:0,0:0:0:0:
459,352,191859,1,2,0:0:0:0:
377,345,191996,2,0,L|307:338,1,70,2|0,0:0|0:0,0:0:0:0:
287,136,192268,2,0,L|292:205,1,70,6|0,0:0|0:0,0:0:0:0:
128,358,192541,2,0,L|127:376,14,17.5,8|0|0|0|0|0|0|0|0|0|0|0|0|0|0,0:0|0:0|0:0|0:0|0:0|0:0|0:0|0:0|0:0|0:0|0:0|0:0|0:0|0:0|0:0,0:0:0:0:
134,316,193087,6,0,L|203:307,1,70,6|0,0:0|0:0,0:0:0:0:
343,256,193360,2,0,L|273:247,1,70,2|4,0:0|0:0,0:0:0:0:
57,211,193633,1,10,0:0:0:0:
140,200,193769,2,0,L|209:191,1,70,2|4,0:0|0:0,0:0:0:0:
266,129,194041,1,2,0:0:0:0:
178,30,194178,2,0,L|186:99,1,70,2|0,0:0|0:0,0:0:0:0:
343,256,194451,2,0,L|273:247,1,70,6|0,0:0|0:0,0:0:0:0:
0,314,194724,6,0,B|41:294|41:294|133:311,1,140,10|6,0:0|0:0,0:0:0:0:
216,322,195132,1,2,0:0:0:0:
117,226,195268,2,0,B|176:240|176:240|200:234|200:234|253:245,1,140,6|0,0:0|0:0,0:0:0:0:
359,350,195678,5,2,0:0:0:0:
414,286,195815,1,10,0:0:0:0:
334,266,195951,1,2,0:0:0:0:
414,286,196087,1,6,0:0:0:0:
334,266,196224,1,2,0:0:0:0:
393,207,196360,2,0,L|401:137,1,70,2|0,0:0|0:0,0:0:0:0:
312,35,196633,2,0,L|320:104,1,70,6|0,0:0|0:0,0:0:0:0:
257,244,196905,2,0,L|233:246,9,23.3333333333333,8|0|0|0|0|0|0|0|0|4,0:0|0:0|0:0|0:0|0:0|0:0|0:0|0:0|0:0|0:0,0:0:0:0:
405,338,197450,6,0,B|340:311|340:311|280:346,1,140,6|2,0:0|0:0,0:0:0:0:
204,384,197859,1,6,0:0:0:0:
211,227,197996,2,0,L|213:296,1,70,10|0,0:0|0:0,0:0:0:0:
38,364,198268,2,0,L|35:294,1,70,6|0,0:0|0:0,0:0:0:0:
204,384,198541,2,0,L|134:380,1,70,2|0,0:0|0:0,0:0:0:0:
41,205,198814,2,0,L|110:207,1,70,6|0,0:0|0:0,0:0:0:0:
349,269,199087,2,0,B|290:277|290:277|271:290|271:290|213:296,1,140,10|6,0:0|0:0,0:0:0:0:
129,295,199496,1,2,0:0:0:0:
256,104,199633,5,6,0:0:0:0:
297,298,199768,1,2,0:3:0:0:
256,370,199904,1,2,0:3:0:0:
214,297,200041,1,2,0:3:0:0:
310,148,200177,6,0,L|319:79,1,70,8|0,0:3|0:0,0:0:0:0:
192,78,200450,2,0,L|202:148,1,70,8|0,0:3|0:0,0:0:0:0:
388,69,200722,6,0,L|319:79,1,70,8|0,0:3|0:0,0:0:0:0:
123,69,200996,2,0,L|193:79,1,70,8|0,0:3|0:0,0:0:0:0:
