osu file format v14

[General]
AudioFilename: Kero Kero Bonito - Flamingo (WTN3 Remix).mp3
AudioLeadIn: 0
PreviewTime: 97087
Countdown: 0
SampleSet: Normal
StackLeniency: 0.8
Mode: 0
LetterboxInBreaks: 1
EpilepsyWarning: 1
WidescreenStoryboard: 1

[Editor]
Bookmarks: 1087,9814,27268,44723,62177,79632,97087,114541,123268,131996,134723,149450,166905,184359
DistanceSpacing: 1.4
BeatDivisor: 4
GridSize: 16
TimelineZoom: 1.8

[Metadata]
Title:Flamingo (WTN3 Remix)
TitleUnicode:Flamingo (WTN3 Remix)
Artist:Kero Kero Bonito
ArtistUnicode:Kero Kero Bonito
Creator:Nerova Riuz GX
Version:Hard
Source:
Tags:future bass electronic disco whitenois3 rohit6 nasya n/a
BeatmapID:1043901
BeatmapSetID:409214

[Difficulty]
HPDrainRate:4
CircleSize:4
OverallDifficulty:6
ApproachRate:7.5
SliderMultiplier:2.4
SliderTickRate:1

[Events]
//Background and Video events
0,0,"123.png",0,0
//Break Periods
2,44922,52080
2,114195,122443
//Storyboard Layer 0 (Background)
//Storyboard Layer 1 (Fail)
//Storyboard Layer 2 (Pass)
//Storyboard Layer 3 (Foreground)
//Storyboard Sound Samples

[TimingPoints]
1087,545.454545454546,4,1,1,80,1,0
27268,-100,4,1,1,80,0,1
44723,-100,4,1,1,80,0,0
97087,-100,4,1,1,80,0,1
114541,-100,4,1,1,80,0,0
149450,-100,4,1,1,80,0,1
166905,-100,4,1,1,80,0,0

[Colours]
Combo1 : 244,209,11
Combo2 : 255,128,255
Combo3 : 155,225,11
Combo4 : 73,206,235

[HitObjects]
337,108,1087,5,0,0:0:0:0:
337,108,1359,2,0,B|393:130|393:130|510:105,2,180,0|0|0,0:0|0:0|0:0,0:0:0:0:
209,175,2450,1,0,0:0:0:0:
208,175,2723,2,0,P|190:231|205:288,2,120,0|0|0,0:0|0:0|0:0,0:0:0:0:
337,108,3541,6,0,B|277:113|277:113|220:91|220:91|161:99,2,180,0|0|0,0:0|0:0|0:0,0:0:0:0:
476,148,4632,1,0,0:0:0:0:
476,148,4905,1,0,0:0:0:0:
387,34,5177,1,0,0:0:0:0:
387,34,5450,1,0,0:0:0:0:
392,179,5723,6,0,B|384:216|399:243|399:243|377:273|377:273|399:308|392:346,2,180,0|0|0,0:0|0:0|0:0,0:0:0:0:
472,59,6814,2,0,L|352:51,1,120,0|0,0:0|0:0,0:0:0:0:
285,154,7359,2,0,L|165:162,1,120,0|0,0:0|0:0,0:0:0:0:
91,187,7768,1,0,0:0:0:0:
63,260,7905,6,0,L|67:319,3,60,0|0|0|0,0:0|0:0|0:0|0:0,0:0:0:0:
150,283,8450,2,0,L|154:342,3,60,0|0|0|0,0:0|0:0|0:0|0:0,0:0:0:0:
232,246,8996,6,0,L|240:365,2,120,0|0|0,0:0|0:0|0:0,0:0:0:0:
189,100,9814,6,0,L|197:40,2,60,4|0|0,0:0|0:0|0:0,0:0:0:0:
231,166,10223,1,0,0:0:0:0:
297,124,10359,2,0,P|355:117|411:139,1,120,8|4,0:0|0:0,0:0:0:0:
483,305,10905,6,0,P|428:325|369:319,2,120,0|6|10,0:0|0:0|0:0,0:0:0:0:
342,230,11723,1,0,0:0:0:0:
237,348,11996,6,0,L|241:228,1,120,6|0,0:0|0:0,0:0:0:0:
187,170,12405,1,0,0:0:0:0:
139,108,12541,2,0,L|134:48,2,60,8|0|4,0:0|0:0|0:0,0:0:0:0:
65,140,12950,6,0,P|30:187|23:246,1,120,0|0,0:0|0:0,0:0:0:0:
65,312,13359,1,4,0:0:0:0:
230,236,13632,6,0,P|317:233|374:298,1,180,8|0,0:0|0:0,0:0:0:0:
330,363,14177,6,0,L|210:349,2,120,4|0|8,0:0|0:0|0:0,0:0:0:0:
483,318,14996,2,0,L|490:258,1,60,6|0,0:0|0:0,0:0:0:0:
439,199,15268,2,0,L|446:139,1,60,2|0,0:0|0:0,0:0:0:0:
502,84,15541,2,0,L|509:24,1,60,6|0,0:0|0:0,0:0:0:0:
371,113,15814,6,0,P|341:120|311:120,2,60,10|0|4,0:0|0:0|0:0,0:0:0:0:
365,35,16223,1,0,0:0:0:0:
287,24,16359,6,0,L|167:33,1,120,4|0,0:0|0:0,0:0:0:0:
98,69,16768,1,4,0:0:0:0:
53,133,16905,2,0,P|68:159|79:187,1,60,8|0,0:0|0:0,0:0:0:0:
157,194,17177,2,0,P|148:223|136:251,1,60,4|0,0:0|0:0,0:0:0:0:
90,313,17450,6,0,P|144:290|202:300,2,120,0|4|8,0:0|0:0|0:0,0:0:0:0:
331,346,18405,5,4,0:0:0:0:
331,346,18541,2,0,L|326:226,1,120,4|0,0:0|0:0,0:0:0:0:
377,167,18950,1,0,0:0:0:0:
455,167,19087,2,0,P|434:113|381:87,1,120,8|4,0:0|0:0,0:0:0:0:
304,97,19496,1,0,0:0:0:0:
244,148,19632,6,0,P|187:161|134:136,2,120,0|6|10,0:0|0:0|0:0,0:0:0:0:
117,40,20450,1,4,0:0:0:0:
33,184,20723,6,0,L|36:303,1,120,6|0,0:0|0:0,0:0:0:0:
96,354,21132,1,0,0:0:0:0:
168,326,21268,2,0,P|193:344|212:367,2,60,8|0|4,0:0|0:0|0:0,0:0:0:0:
171,248,21677,6,0,L|290:246,1,120,0|0,0:0|0:0,0:0:0:0:
369,244,22087,1,4,0:0:0:0:
494,115,22359,6,0,L|314:117,1,180,8|0,0:0|0:0,0:0:0:0:
238,94,22905,6,0,P|273:48|331:40,2,120,4|0|8,0:0|0:0|0:0,0:0:0:0:
112,229,23723,2,0,P|84:238|55:244,1,60,6|0,0:0|0:0,0:0:0:0:
168,279,23996,2,0,P|148:301|126:320,1,60,2|0,0:0|0:0,0:0:0:0:
246,293,24268,2,0,P|239:323|229:351,1,60,6|0,0:0|0:0,0:0:0:0:
300,238,24541,6,0,L|307:178,2,60,10|0|4,0:0|0:0|0:0,0:0:0:0:
363,283,24950,1,0,0:0:0:0:
433,248,25087,6,0,P|470:203|473:144,1,120,4|0,0:0|0:0,0:0:0:0:
443,71,25496,1,4,0:0:0:0:
365,66,25632,2,0,L|245:60,1,120,8|4,0:0|0:0,0:0:0:0:
92,177,26177,5,0,0:0:0:0:
92,177,26450,1,0,0:0:0:0:
91,177,26723,6,0,P|126:243|167:180,1,180,8|0,0:0|0:0,0:0:0:0:
135,109,27268,6,0,L|254:103,1,120,4|0,0:0|0:0,0:0:0:0:
333,99,27677,1,4,0:0:0:0:
411,93,27814,2,0,P|410:63|415:33,2,60,8|0|4,0:0|0:0|0:0,0:0:0:0:
460,153,28223,1,0,0:0:0:0:
436,226,28359,6,0,P|453:251|477:269,1,60,0|0,0:0|0:0,0:0:0:0:
426,340,28632,2,0,P|452:353|482:357,1,60,4|0,0:0|0:0,0:0:0:0:
357,282,28905,2,0,L|237:290,1,120,8|4,0:0|0:0,0:0:0:0:
59,363,29450,6,0,L|62:243,1,120,4|0,0:0|0:0,0:0:0:0:
30,171,29859,1,0,0:0:0:0:
68,103,29996,2,0,P|98:97|128:99,1,60,8|0,0:0|0:0,0:0:0:0:
191,164,30268,6,0,B|238:166|238:166|258:154|258:154|307:157,1,120,4|0,0:0|0:0,0:0:0:0:
390,174,30677,1,0,0:0:0:0:
464,133,30814,2,0,P|470:104|468:74,1,60,4|0,0:0|0:0,0:0:0:0:
395,186,31087,6,0,B|390:212|363:233|363:233|401:241|432:277|425:324,1,180,8|4,0:0|0:0,0:0:0:0:
348,310,31632,6,0,L|228:300,1,120,4|0,0:0|0:0,0:0:0:0:
150,309,32041,1,4,0:0:0:0:
74,329,32177,2,0,P|48:313|28:291,1,60,8|0,0:0|0:0,0:0:0:0:
107,235,32450,2,0,P|93:209|86:180,1,60,4|0,0:0|0:0,0:0:0:0:
174,139,32723,6,0,L|184:19,2,120,2|6|10,0:0|0:0|0:0,0:0:0:0:
310,256,33541,2,0,L|315:315,1,60,4|0,0:0|0:0,0:0:0:0:
393,318,33814,6,0,L|387:377,2,60,4|0|0,0:0|0:0|0:0,0:0:0:0:
465,287,34223,1,0,0:0:0:0:
465,208,34359,2,0,P|426:165|424:106,1,120,8|4,0:0|0:0,0:0:0:0:
370,49,34768,1,0,0:0:0:0:
292,58,34905,6,0,P|288:116|249:160,2,120,0|4|8,0:0|0:0|0:0,0:0:0:0:
40,247,35996,6,0,P|92:220|149:233,1,120,4|0,0:0|0:0,0:0:0:0:
228,235,36405,1,4,0:0:0:0:
286,285,36541,2,0,L|287:344,1,60,8|0,0:0|0:0,0:0:0:0:
360,260,36814,2,0,P|385:207|372:150,1,120,4|0,0:0|0:0,0:0:0:0:
311,101,37223,5,0,0:0:0:0:
233,83,37359,2,0,P|218:56|215:27,1,60,4|0,0:0|0:0,0:0:0:0:
159,108,37632,2,0,P|130:99|106:81,1,60,8|0,0:0|0:0,0:0:0:0:
121,177,37905,2,0,P|95:191|66:195,1,60,4|0,0:0|0:0,0:0:0:0:
14,284,38177,6,0,L|133:278,1,120,4|0,0:0|0:0,0:0:0:0:
212,275,38587,1,0,0:0:0:0:
268,222,38723,2,0,P|245:276|261:332,1,120,8|4,0:0|0:0,0:0:0:0:
335,360,39132,1,0,0:0:0:0:
402,320,39268,6,0,L|461:327,2,60,0|0|4,0:0|0:0|0:0,0:0:0:0:
395,163,39814,6,0,B|391:101|433:53|433:53|401:78|378:76,1,180,8|4,0:0|0:0,0:0:0:0:
317,124,40359,6,0,L|197:113,1,120,4|0,0:0|0:0,0:0:0:0:
129,73,40768,1,4,0:0:0:0:
70,125,40905,2,0,P|108:170|121:228,1,120,8|4,0:0|0:0,0:0:0:0:
149,301,41314,1,0,0:0:0:0:
213,344,41450,6,0,L|93:354,2,120,2|6|10,0:0|0:0|0:0,0:0:0:0:
291,204,42268,2,0,L|350:209,1,60,4|0,0:0|0:0,0:0:0:0:
411,256,42541,6,0,P|441:254|470:244,1,60,4|0,0:0|0:0,0:0:0:0:
462,145,42814,2,0,P|483:165|510:178,1,60,0|0,0:0|0:0,0:0:0:0:
412,84,43087,2,0,L|292:88,1,120,8|4,0:0|0:0,0:0:0:0:
217,64,43496,1,0,0:0:0:0:
175,129,43632,2,0,L|179:248,1,120,0|4,0:0|0:0,0:0:0:0:
336,344,44177,6,0,P|411:283|317:262,1,240,8|4,0:0|0:0,0:0:0:0:
232,48,52905,6,0,B|224:80|241:109|241:109|215:155|215:155|239:178|238:212,1,180,0|0,0:0|0:0,0:0:0:0:
229,288,53450,6,0,P|288:282|343:302,1,120,0|0,0:0|0:0,0:0:0:0:
404,351,53859,1,0,0:0:0:0:
460,296,53996,2,0,P|454:237|474:182,1,120,8|0,0:0|0:0,0:0:0:0:
445,109,54405,1,0,0:0:0:0:
368,120,54541,6,0,L|381:0,2,120,0|0|8,0:0|0:0|0:0,0:0:0:0:
289,226,55359,1,0,0:0:0:0:
289,226,55632,6,0,P|300:284|278:339,2,120,0|0|8,0:0|0:0|0:0,0:0:0:0:
228,175,56314,1,0,0:0:0:0:
150,180,56450,2,0,L|90:183,1,60,0|0,0:0|0:0,0:0:0:0:
65,109,56723,6,0,L|184:102,1,120,0|0,0:0|0:0,0:0:0:0:
344,48,57268,6,0,B|310:50|310:50|287:37|287:37|261:41|261:41|230:27,2,120,8|0|0,0:0|0:0|0:0,0:0:0:0:
421,36,57950,5,0,0:0:0:0:
443,111,58087,2,0,L|446:170,1,60,0|0,0:0|0:0,0:0:0:0:
482,239,58359,2,0,P|438:277|427:335,1,120,8|0,0:0|0:0,0:0:0:0:
285,311,58905,6,0,L|289:370,2,60,0|0|0,0:0|0:0|0:0,0:0:0:0:
243,244,59314,1,0,0:0:0:0:
176,286,59450,2,0,P|117:288|67:257,1,120,8|0,0:0|0:0,0:0:0:0:
43,113,59996,5,0,0:0:0:0:
120,112,60132,2,0,L|239:110,1,120,0|0,0:0|0:0,0:0:0:0:
324,51,60541,2,0,P|316:79|317:109,1,60,8|0,0:0|0:0,0:0:0:0:
411,112,60814,2,0,P|389:132|376:158,1,60,0|0,0:0|0:0,0:0:0:0:
455,207,61087,6,0,P|426:212|401:228,2,60,0|0|0,0:0|0:0|0:0,0:0:0:0:
491,277,61496,1,0,0:0:0:0:
439,335,61632,2,0,L|319:324,1,120,0|0,0:0|0:0,0:0:0:0:
200,239,62177,6,0,L|140:244,2,60,4|0|0,0:0|0:0|0:0,0:0:0:0:
266,196,62587,1,4,0:0:0:0:
268,116,62723,2,0,P|232:70|176:48,1,120,8|4,0:0|0:0,0:0:0:0:
57,167,63268,6,0,L|62:226,1,60,0|0,0:0|0:0,0:0:0:0:
41,302,63541,2,0,P|99:308|143:347,1,120,4|8,0:0|0:0,0:0:0:0:
217,320,63950,1,0,0:0:0:0:
289,348,64087,2,0,L|348:346,1,60,4|0,0:0|0:0,0:0:0:0:
399,287,64359,6,0,L|458:288,2,60,4|0|0,0:0|0:0|0:0,0:0:0:0:
292,184,64905,2,0,L|302:64,1,120,8|4,0:0|0:0,0:0:0:0:
350,2,65314,1,0,0:0:0:0:
413,47,65450,6,0,L|472:57,2,60,0|0|4,0:0|0:0|0:0,0:0:0:0:
237,17,65996,2,0,L|177:22,1,60,8|0,0:0|0:0,0:0:0:0:
105,51,66268,2,0,L|45:45,1,60,0|4,0:0|0:0,0:0:0:0:
154,111,66541,6,0,P|154:170|133:226,1,120,4|0,0:0|0:0,0:0:0:0:
106,299,66950,1,4,0:0:0:0:
50,352,67087,2,0,P|107:337|164:352,1,120,8|4,0:0|0:0,0:0:0:0:
232,313,67496,1,0,0:0:0:0:
304,341,67632,6,0,P|361:356|418:341,2,120,0|4|8,0:0|0:0|0:0,0:0:0:0:
355,205,68450,2,0,L|414:208,1,60,4|0,0:0|0:0,0:0:0:0:
435,133,68723,6,0,L|315:125,1,120,4|0,0:0|0:0,0:0:0:0:
237,138,69132,1,0,0:0:0:0:
190,75,69268,2,0,L|192:15,2,60,8|0|4,0:0|0:0|0:0,0:0:0:0:
99,230,69814,5,0,0:0:0:0:
75,155,69950,2,0,P|30:191|23:250,1,120,0|0,0:0|0:0,0:0:0:0:
78,305,70359,6,0,B|110:306|139:320|139:320|164:306|190:300|190:300|216:313|249:313,1,180,8|0,0:0|0:0,0:0:0:0:
312,356,70905,6,0,P|281:307|295:250,1,120,4|0,0:0|0:0,0:0:0:0:
369,225,71314,1,4,0:0:0:0:
442,251,71450,2,0,L|453:131,1,120,8|0,0:0|0:0,0:0:0:0:
305,28,71996,6,0,L|310:87,1,60,0|0,0:0|0:0,0:0:0:0:
286,160,72268,2,0,P|229:148|172:165,2,120,4|8|4,0:0|0:0|0:0,0:0:0:0:
336,223,72950,1,0,0:0:0:0:
371,293,73087,6,0,L|430:286,2,60,4|0|0,0:0|0:0|0:0,0:0:0:0:
192,362,73632,2,0,P|177:337|170:308,1,60,8|0,0:0|0:0,0:0:0:0:
81,305,73905,2,0,P|86:276|102:251,1,60,4|0,0:0|0:0,0:0:0:0:
96,162,74177,6,0,P|155:161|212:178,1,120,0|4,0:0|0:0,0:0:0:0:
331,297,74723,2,0,L|326:237,1,60,8|0,0:0|0:0,0:0:0:0:
376,176,74996,2,0,L|380:116,1,60,0|4,0:0|0:0,0:0:0:0:
334,52,75268,6,0,P|281:77|221:73,1,120,4|0,0:0|0:0,0:0:0:0:
157,117,75677,1,4,0:0:0:0:
90,157,75814,2,0,P|149:154|202:180,1,120,8|0,0:0|0:0,0:0:0:0:
164,367,76359,6,0,P|132:318|129:258,2,120,0|4|8,0:0|0:0|0:0,0:0:0:0:
294,279,77177,1,4,0:0:0:0:
294,279,77450,6,0,L|235:284,1,60,4|0,0:0|0:0,0:0:0:0:
251,207,77723,2,0,L|196:181,1,60,0|4,0:0|0:0,0:0:0:0:
249,122,77996,2,0,L|215:72,2,60,0|0|4,0:0|0:0|0:0,0:0:0:0:
325,137,78405,1,0,0:0:0:0:
400,117,78541,5,0,0:0:0:0:
400,117,78814,1,0,0:0:0:0:
400,117,79087,1,8,0:0:0:0:
165,9,79632,6,0,L|158:128,1,120,4|0,0:0|0:0,0:0:0:0:
199,195,80041,1,4,0:0:0:0:
142,249,80177,2,0,P|100:290|82:346,1,120,8|4,0:0|0:0,0:0:0:0:
247,322,80723,6,0,L|366:314,1,120,0|6,0:0|0:0,0:0:0:0:
442,293,81132,1,0,0:0:0:0:
494,350,81268,2,0,L|489:230,1,120,10|4,0:0|0:0,0:0:0:0:
387,109,81814,6,0,L|382:228,2,120,6|0|8,0:0|0:0|0:0,0:0:0:0:
387,30,82496,1,0,0:0:0:0:
300,112,82632,2,0,P|271:116|241:114,1,60,4|0,0:0|0:0,0:0:0:0:
184,35,82905,6,0,P|169:60|147:81,1,60,0|0,0:0|0:0,0:0:0:0:
50,73,83177,2,0,P|60:102|61:132,1,60,4|0,0:0|0:0,0:0:0:0:
7,207,83450,6,0,B|54:218|80:257|80:257|117:227|163:232,1,180,8|0,0:0|0:0,0:0:0:0:
222,281,83996,6,0,P|201:227|215:169,2,120,4|0|8,0:0|0:0|0:0,0:0:0:0:
364,373,84814,2,0,P|371:345|373:315,1,60,6|0,0:0|0:0,0:0:0:0:
371,210,85087,2,0,P|391:231|416:247,1,60,2|0,0:0|0:0,0:0:0:0:
509,299,85359,2,0,P|480:305|453:318,1,60,6|0,0:0|0:0,0:0:0:0:
311,266,85632,6,0,L|251:271,2,60,10|0|4,0:0|0:0|0:0,0:0:0:0:
371,210,86041,1,0,0:0:0:0:
333,140,86177,6,0,P|274:145|221:120,1,120,4|0,0:0|0:0,0:0:0:0:
167,64,86587,1,0,0:0:0:0:
90,83,86723,2,0,P|62:75|32:77,1,60,8|0,0:0|0:0,0:0:0:0:
125,157,86996,2,0,P|100:173|83:197,1,60,4|0,0:0|0:0,0:0:0:0:
126,268,87268,6,0,P|73:242|14:245,2,120,0|4|8,0:0|0:0|0:0,0:0:0:0:
290,353,88223,5,4,0:0:0:0:
309,280,88359,6,0,P|368:281|421:254,1,120,4|0,0:0|0:0,0:0:0:0:
467,192,88768,1,0,0:0:0:0:
414,133,88905,2,0,L|419:13,1,120,8|4,0:0|0:0,0:0:0:0:
303,160,89450,6,0,L|308:279,2,120,0|6|10,0:0|0:0|0:0,0:0:0:0:
206,35,90268,1,4,0:0:0:0:
43,119,90541,6,0,P|97:141|155:126,1,120,6|0,0:0|0:0,0:0:0:0:
232,115,90950,1,0,0:0:0:0:
288,60,91087,2,0,L|407:69,1,120,8|4,0:0|0:0,0:0:0:0:
483,206,91632,6,0,P|453:208|424:199,1,60,0|0,0:0|0:0,0:0:0:0:
372,141,91905,1,4,0:0:0:0:
372,141,92177,6,0,B|375:180|358:207|358:207|378:245|378:245|357:273|367:310,1,180,8|0,0:0|0:0,0:0:0:0:
299,350,92723,6,0,L|417:366,2,120,4|0|8,0:0|0:0|0:0,0:0:0:0:
216,193,93541,2,0,P|231:220|238:249,1,60,6|0,0:0|0:0,0:0:0:0:
132,213,93814,2,0,P|122:240|104:264,1,60,2|0,0:0|0:0,0:0:0:0:
63,160,94087,2,0,P|35:169|5:171,1,60,6|0,0:0|0:0,0:0:0:0:
71,75,94359,6,0,L|74:15,2,60,10|0|4,0:0|0:0|0:0,0:0:0:0:
138,114,94768,1,0,0:0:0:0:
207,76,94905,6,0,P|265:68|320:90,1,120,4|0,0:0|0:0,0:0:0:0:
396,110,95314,1,4,0:0:0:0:
452,56,95450,2,0,L|439:175,1,120,8|4,0:0|0:0,0:0:0:0:
347,330,95996,5,0,0:0:0:0:
347,330,96268,1,0,0:0:0:0:
347,330,96541,6,0,B|332:210|332:210|301:260,1,180,8|0,0:0|0:0,0:0:0:0:
249,319,97087,6,0,P|196:294|136:286,1,120,4|0,0:0|0:0,0:0:0:0:
61,309,97496,1,4,0:0:0:0:
38,233,97632,2,0,P|53:208|62:179,1,60,8|0,0:0|0:0,0:0:0:0:
140,183,97905,2,0,P|140:154|134:124,1,60,4|0,0:0|0:0,0:0:0:0:
87,62,98177,6,0,L|27:56,2,60,0|0|6,0:0|0:0|0:0,0:0:0:0:
151,16,98587,1,0,0:0:0:0:
215,60,98723,2,0,L|334:51,1,120,10|6,0:0|0:0,0:0:0:0:
475,161,99268,6,0,P|422:185|397:238,1,120,4|0,0:0|0:0,0:0:0:0:
398,317,99677,1,0,0:0:0:0:
320,302,99814,2,0,L|260:297,1,60,8|0,0:0|0:0,0:0:0:0:
215,233,100087,6,0,L|205:352,1,120,4|0,0:0|0:0,0:0:0:0:
127,346,100496,1,0,0:0:0:0:
88,278,100632,2,0,L|83:218,1,60,4|0,0:0|0:0,0:0:0:0:
41,151,100905,6,0,B|37:120|15:97|15:97|48:115|95:120|131:108,1,180,8|4,0:0|0:0,0:0:0:0:
194,151,101450,6,0,P|167:99|175:40,1,120,4|0,0:0|0:0,0:0:0:0:
244,5,101859,1,4,0:0:0:0:
308,49,101996,2,0,L|427:54,1,120,8|4,0:0|0:0,0:0:0:0:
494,193,102541,6,0,P|477:218|466:246,1,60,2|0,0:0|0:0,0:0:0:0:
394,280,102814,2,0,P|406:306|425:330,1,60,6|0,0:0|0:0,0:0:0:0:
404,203,103087,2,0,L|284:199,1,120,10|4,0:0|0:0,0:0:0:0:
206,207,103496,1,0,0:0:0:0:
152,150,103632,6,0,L|162:90,2,60,4|0|0,0:0|0:0|0:0,0:0:0:0:
94,203,104041,1,0,0:0:0:0:
18,219,104177,2,0,P|72:242|105:291,1,120,8|4,0:0|0:0,0:0:0:0:
286,307,104723,6,0,P|232:330|199:379,2,120,0|4|8,0:0|0:0|0:0,0:0:0:0:
504,112,105814,6,0,L|384:121,1,120,4|0,0:0|0:0,0:0:0:0:
324,70,106223,1,4,0:0:0:0:
265,17,106359,2,0,P|236:28|207:27,1,60,8|0,0:0|0:0,0:0:0:0:
228,113,106632,2,0,P|215:140|193:161,1,60,4|0,0:0|0:0,0:0:0:0:
270,207,106905,6,0,P|281:235|280:265,2,60,0|0|6,0:0|0:0|0:0,0:0:0:0:
204,250,107314,1,0,0:0:0:0:
185,325,107450,2,0,L|65:321,1,120,10|6,0:0|0:0,0:0:0:0:
7,175,107996,6,0,P|66:170|114:137,1,120,4|0,0:0|0:0,0:0:0:0:
109,59,108405,1,0,0:0:0:0:
172,14,108541,2,0,L|231:17,1,60,8|0,0:0|0:0,0:0:0:0:
323,75,108814,6,0,P|289:123|288:182,1,120,4|0,0:0|0:0,0:0:0:0:
348,233,109223,1,0,0:0:0:0:
353,310,109359,2,0,L|293:310,1,60,4|0,0:0|0:0,0:0:0:0:
205,354,109632,6,0,B|199:318|210:293|210:293|198:253|198:253|212:215|201:178,1,180,8|4,0:0|0:0,0:0:0:0:
227,105,110177,6,0,P|177:136|118:141,1,120,4|0,0:0|0:0,0:0:0:0:
76,74,110587,1,4,0:0:0:0:
122,11,110723,2,0,L|241:22,1,120,8|4,0:0|0:0,0:0:0:0:
319,32,111132,1,0,0:0:0:0:
395,39,111268,6,0,P|425:43|453:53,1,60,2|0,0:0|0:0,0:0:0:0:
377,117,111541,2,0,P|395:142|408:169,1,60,6|0,0:0|0:0,0:0:0:0:
309,161,111814,2,0,L|299:280,1,120,10|4,0:0|0:0,0:0:0:0:
293,358,112223,1,0,0:0:0:0:
209,288,112359,6,0,P|150:282|93:298,1,120,4|0,0:0|0:0,0:0:0:0:
22,331,112768,1,0,0:0:0:0:
50,225,112905,2,0,P|56:166|40:109,1,120,8|4,0:0|0:0,0:0:0:0:
208,39,113450,6,0,B|208:72|193:97|193:97|212:114|219:149,2,120,0|4|8,0:0|0:0|0:0,0:0:0:0:
210,331,123268,5,0,0:0:0:0:
337,192,123814,1,0,0:0:0:0:
109,192,124359,1,0,0:0:0:0:
281,269,124905,1,0,0:0:0:0:
210,52,125450,5,0,0:0:0:0:
189,240,125996,1,0,0:0:0:0:
374,105,126541,1,0,0:0:0:0:
189,144,127087,1,0,0:0:0:0:
374,278,127632,5,0,0:0:0:0:
281,114,128177,1,0,0:0:0:0:
210,331,128723,1,0,0:0:0:0:
337,192,129269,1,0,0:0:0:0:
210,52,129814,5,0,0:0:0:0:
157,301,130359,1,0,0:0:0:0:
399,222,130905,1,0,0:0:0:0:
399,222,131996,6,0,B|358:214|358:214|323:229|323:229|283:222,2,120,4|0|8,0:0|0:0|0:0,0:0:0:0:
465,55,132814,1,4,0:0:0:0:
390,30,132950,6,0,P|343:65|284:72,1,120,0|0,0:0|0:0,0:0:0:0:
212,105,133359,2,0,P|165:70|106:63,1,120,4|8,0:0|0:0,0:0:0:0:
29,50,133768,5,0,0:0:0:0:
34,128,133905,2,0,L|36:187,1,60,4|0,0:0|0:0,0:0:0:0:
7,260,134177,6,0,L|126:271,1,120,4|0,0:0|0:0,0:0:0:0:
204,279,134587,1,0,0:0:0:0:
239,346,134723,2,0,P|276:301|272:243,1,120,8|4,0:0|0:0,0:0:0:0:
145,153,135268,5,0,0:0:0:0:
145,153,135541,1,4,0:0:0:0:
258,46,135814,2,0,L|317:50,1,60,10|0,0:0|0:0,0:0:0:0:
372,106,136087,2,0,L|431:101,1,60,10|4,0:0|0:0,0:0:0:0:
492,54,136359,6,0,P|469:108|469:168,1,120,4|0,0:0|0:0,0:0:0:0:
494,242,136768,1,4,0:0:0:0:
450,307,136905,2,0,L|454:366,2,60,8|0|4,0:0|0:0|0:0,0:0:0:0:
383,266,137314,1,0,0:0:0:0:
305,262,137450,6,0,L|185:256,1,120,0|4,0:0|0:0,0:0:0:0:
119,299,137859,1,0,0:0:0:0:
61,245,137996,2,0,P|49:187|14:139,1,120,8|4,0:0|0:0,0:0:0:0:
162,38,138541,6,0,B|161:65|152:82|152:82|158:102|158:102|146:121|147:153,2,120,4|0|8,0:0|0:0|0:0,0:0:0:0:
240,34,139223,1,0,0:0:0:0:
297,86,139359,2,0,L|356:91,1,60,4|0,0:0|0:0,0:0:0:0:
430,132,139632,6,0,B|433:105|443:94|443:94|433:73|433:73|430:43|437:17,2,120,0|4|8,0:0|0:0|0:0,0:0:0:0:
287,366,140723,6,0,B|283:334|292:306|292:306|271:287|258:257,1,120,4|0,0:0|0:0,0:0:0:0:
234,183,141132,1,0,0:0:0:0:
156,188,141268,2,0,L|36:176,1,120,8|4,0:0|0:0,0:0:0:0:
26,98,141677,6,0,B|26:37|26:37|84:27,1,120,0|0,0:0|0:0,0:0:0:0:
158,54,142087,1,4,0:0:0:0:
305,134,142359,2,0,P|326:112|354:102,1,60,8|0,0:0|0:0,0:0:0:0:
345,23,142632,2,0,P|375:22|402:35,1,60,4|0,0:0|0:0,0:0:0:0:
425,151,142905,6,0,L|418:270,1,120,4|0,0:0|0:0,0:0:0:0:
397,346,143314,1,0,0:0:0:0:
321,325,143450,2,0,B|290:338|256:336|269:317|236:315|205:328,1,120,8|4,0:0|0:0,0:0:0:0:
155,179,143996,5,0,0:0:0:0:
155,179,144268,1,4,0:0:0:0:
55,330,144541,2,0,P|52:301|43:272,1,60,10|0,0:0|0:0,0:0:0:0:
6,202,144814,2,0,P|8:173|17:144,1,60,10|0,0:0|0:0,0:0:0:0:
13,66,145087,6,0,L|132:72,1,120,4|0,0:0|0:0,0:0:0:0:
210,79,145496,1,4,0:0:0:0:
284,56,145632,2,0,P|289:26|303:0,1,60,8|0,0:0|0:0,0:0:0:0:
355,86,145905,2,0,P|381:69|409:58,1,60,4|0,0:0|0:0,0:0:0:0:
385,158,146177,6,0,B|385:187|380:204|380:204|388:225|388:225|380:248|384:275,1,120,0|4,0:0|0:0,0:0:0:0:
329,332,146587,1,0,0:0:0:0:
267,283,146723,2,0,P|257:225|221:177,1,120,8|4,0:0|0:0,0:0:0:0:
38,280,147268,6,0,B|69:273|91:255|91:255|117:269|150:271,2,120,4|0|8,0:0|0:0|0:0,0:0:0:0:
4,209,147950,1,0,0:0:0:0:
13,131,148087,2,0,L|72:120,1,60,4|0,0:0|0:0,0:0:0:0:
129,67,148359,6,0,B|156:74|176:67|176:67|199:77|199:77|223:73|245:80,1,120,0|4,0:0|0:0,0:0:0:0:
290,235,148905,6,0,B|268:261|237:270|237:270|257:292|257:292|223:322|227:369,1,180,8|0,0:0|0:0,0:0:0:0:
305,356,149450,6,0,L|424:342,1,120,4|0,0:0|0:0,0:0:0:0:
488,296,149859,1,4,0:0:0:0:
443,228,149996,2,0,P|438:170|467:118,1,120,8|4,0:0|0:0,0:0:0:0:
316,18,150541,6,0,P|324:46|329:76,1,60,0|0,0:0|0:0,0:0:0:0:
230,96,150814,2,0,P|256:113|278:133,1,60,6|0,0:0|0:0,0:0:0:0:
215,212,151087,2,0,L|334:209,2,120,10|6|4,0:0|0:0|0:0,0:0:0:0:
137,219,151768,5,0,0:0:0:0:
84,276,151905,2,0,L|86:335,1,60,0|0,0:0|0:0,0:0:0:0:
15,237,152177,2,0,P|8:179|32:124,1,120,8|4,0:0|0:0,0:0:0:0:
78,60,152587,1,0,0:0:0:0:
153,77,152723,6,0,L|212:74,1,60,0|0,0:0|0:0,0:0:0:0:
277,119,152996,2,0,L|336:116,1,60,4|0,0:0|0:0,0:0:0:0:
425,81,153268,6,0,B|416:111|433:140|433:140|406:138|392:160|401:188|430:191|420:237,1,180,8|4,0:0|0:0,0:0:0:0:
366,300,153814,6,0,P|422:283|480:295,2,120,4|0|8,0:0|0:0|0:0,0:0:0:0:
211,365,154632,1,4,0:0:0:0:
53,302,154905,6,0,P|82:301|111:293,1,60,2|0,0:0|0:0,0:0:0:0:
76,216,155177,2,0,P|90:190|97:161,1,60,6|0,0:0|0:0,0:0:0:0:
38,104,155450,2,0,L|157:110,1,120,10|4,0:0|0:0,0:0:0:0:
235,117,155859,1,0,0:0:0:0:
305,83,155996,6,0,P|297:53|296:24,2,60,4|0|0,0:0|0:0|0:0,0:0:0:0:
368,131,156405,1,0,0:0:0:0:
443,155,156541,2,0,L|437:274,1,120,8|4,0:0|0:0,0:0:0:0:
279,363,157087,6,0,B|271:335|277:314|277:314|265:294|265:294|269:271|260:247,2,120,0|4|8,0:0|0:0|0:0,0:0:0:0:
13,248,158177,6,0,L|132:253,1,120,4|0,0:0|0:0,0:0:0:0:
196,206,158587,1,4,0:0:0:0:
256,156,158723,2,0,P|252:97|228:42,1,120,8|4,0:0|0:0,0:0:0:0:
152,61,159132,1,0,0:0:0:0:
76,78,159268,6,0,P|49:63|21:53,2,60,0|0|6,0:0|0:0|0:0,0:0:0:0:
105,150,159677,1,0,0:0:0:0:
112,226,159814,2,0,P|112:255|105:285,1,60,10|0,0:0|0:0,0:0:0:0:
189,239,160087,2,0,P|215:255|237:275,1,60,6|0,0:0|0:0,0:0:0:0:
239,177,160359,6,0,P|293:153|353:153,1,120,4|0,0:0|0:0,0:0:0:0:
431,152,160768,1,0,0:0:0:0:
484,95,160905,2,0,L|476:214,1,120,8|4,0:0|0:0,0:0:0:0:
463,292,161314,1,0,0:0:0:0:
395,329,161450,6,0,P|410:354|420:382,2,60,0|0|4,0:0|0:0|0:0,0:0:0:0:
219,290,161996,6,0,B|187:295|166:286|166:286|157:307|145:315|145:315|131:311|115:295|115:295|99:311|67:316,1,180,8|4,0:0|0:0,0:0:0:0:
39,244,162541,6,0,B|31:200|31:200|12:174|12:174|4:131,2,120,4|0|8,0:0|0:0|0:0,0:0:0:0:
125,72,163359,1,4,0:0:0:0:
255,177,163632,6,0,P|265:148|271:119,1,60,2|0,0:0|0:0,0:0:0:0:
359,102,163905,2,0,P|347:75|329:51,1,60,6|0,0:0|0:0,0:0:0:0:
346,196,164177,2,0,P|405:189|463:202,1,120,10|4,0:0|0:0,0:0:0:0:
475,280,164587,1,0,0:0:0:0:
415,330,164723,6,0,L|295:322,1,120,4|0,0:0|0:0,0:0:0:0:
215,351,165132,1,0,0:0:0:0:
154,292,165268,2,0,P|158:262|157:232,1,60,8|0,0:0|0:0,0:0:0:0:
127,153,165541,1,4,0:0:0:0:
262,34,165814,6,0,B|223:46|208:59|208:59|191:50|149:49,2,120,0|4|8,0:0|0:0|0:0,0:0:0:0:
459,127,166905,6,0,B|468:151|464:174|464:174|476:194|476:194|470:215|478:243,1,120,4|0,0:0|0:0,0:0:0:0:
433,307,167314,1,0,0:0:0:0:
373,252,167450,2,0,P|352:232|324:222,1,60,0|0,0:0|0:0,0:0:0:0:
293,144,167723,2,0,P|267:157|248:180,1,60,0|0,0:0|0:0,0:0:0:0:
167,184,167996,6,0,P|174:214|190:239,1,60,0|0,0:0|0:0,0:0:0:0:
165,318,168268,2,0,P|195:321|224:313,1,60,0|0,0:0|0:0,0:0:0:0:
296,362,168541,2,0,L|303:243,1,120,0|0,0:0|0:0,0:0:0:0:
231,62,169087,6,0,P|204:114|155:148,1,120,4|0,0:0|0:0,0:0:0:0:
72,141,169496,1,0,0:0:0:0:
33,215,169632,2,0,L|23:274,1,60,8|0,0:0|0:0,0:0:0:0:
108,277,169905,2,0,L|142:325,1,60,4|0,0:0|0:0,0:0:0:0:
213,278,170177,6,0,P|272:283|325:310,1,120,0|4,0:0|0:0,0:0:0:0:
396,346,170587,1,0,0:0:0:0:
451,291,170723,6,0,B|445:248|457:208|487:181|487:181|458:166|446:139,1,180,8|4,0:0|0:0,0:0:0:0:
450,56,171268,6,0,P|395:76|336:66,1,120,4|0,0:0|0:0,0:0:0:0:
260,54,171677,1,4,0:0:0:0:
200,104,171814,2,0,P|145:84|86:92,1,120,8|4,0:0|0:0,0:0:0:0:
49,162,172223,1,0,0:0:0:0:
32,237,172359,6,0,P|16:263|7:292,2,60,0|0|4,0:0|0:0|0:0,0:0:0:0:
93,295,172768,1,0,0:0:0:0:
172,320,172905,2,0,P|200:309|226:293,1,60,8|0,0:0|0:0,0:0:0:0:
266,220,173177,2,0,P|289:238|316:252,1,60,4|0,0:0|0:0,0:0:0:0:
398,250,173450,6,0,P|394:279|394:309,2,60,4|0|0,0:0|0:0|0:0,0:0:0:0:
458,199,173859,1,0,0:0:0:0:
440,122,173996,2,0,L|320:117,1,120,8|4,0:0|0:0,0:0:0:0:
249,83,174405,1,0,0:0:0:0:
185,38,174541,6,0,L|125:30,2,60,0|0|4,0:0|0:0|0:0,0:0:0:0:
94,206,175087,6,0,P|28:168|88:122,1,180,8|0,0:0|0:0,0:0:0:0:
154,160,175632,6,0,P|130:214|134:273,1,120,4|0,0:0|0:0,0:0:0:0:
163,346,176041,1,4,0:0:0:0:
237,324,176177,2,0,L|356:333,1,120,8|4,0:0|0:0,0:0:0:0:
435,339,176587,1,0,0:0:0:0:
479,275,176723,6,0,P|466:247|448:224,1,60,0|0,0:0|0:0,0:0:0:0:
495,160,176996,2,0,P|468:150|438:146,1,60,4|0,0:0|0:0,0:0:0:0:
427,68,177268,2,0,L|307:73,1,120,8|4,0:0|0:0,0:0:0:0:
93,40,177814,6,0,P|132:84|144:142,1,120,4|0,0:0|0:0,0:0:0:0:
127,218,178223,1,0,0:0:0:0:
85,283,178359,2,0,P|55:275|26:270,2,60,8|0|4,0:0|0:0|0:0,0:0:0:0:
141,339,178768,1,0,0:0:0:0:
215,315,178905,6,0,P|244:323|271:336,1,60,0|0,0:0|0:0,0:0:0:0:
314,272,179177,2,0,P|343:264|370:251,1,60,4|0,0:0|0:0,0:0:0:0:
439,289,179450,6,0,B|443:243|467:209|467:209|441:187|441:187|455:164|449:128,1,180,8|4,0:0|0:0,0:0:0:0:
412,59,179996,6,0,L|292:68,1,120,4|0,0:0|0:0,0:0:0:0:
244,130,180405,1,4,0:0:0:0:
298,185,180541,2,0,P|319:205|335:231,1,60,8|0,0:0|0:0,0:0:0:0:
261,257,180814,2,0,P|260:286|253:316,1,60,4|0,0:0|0:0,0:0:0:0:
183,280,181087,6,0,P|162:302|136:318,2,60,0|0|4,0:0|0:0|0:0,0:0:0:0:
138,216,181496,1,0,0:0:0:0:
73,173,181632,2,0,L|62:53,1,120,8|4,0:0|0:0,0:0:0:0:
221,44,182177,6,0,L|280:35,1,60,4|0,0:0|0:0,0:0:0:0:
332,93,182450,2,0,L|391:101,1,60,0|0,0:0|0:0,0:0:0:0:
458,61,182723,2,0,P|467:118|435:167,1,120,8|4,0:0|0:0,0:0:0:0:
387,229,183132,1,0,0:0:0:0:
328,280,183268,6,0,L|447:276,2,120,0|4|8,0:0|0:0|0:0,0:0:0:0:
179,89,184359,6,0,L|173:29,2,60,4|0|0,0:0|0:0|0:0,0:0:0:0:
128,149,184768,1,4,0:0:0:0:
76,209,184905,2,0,P|62:266|84:320,1,120,8|4,0:0|0:0,0:0:0:0:
257,276,185450,6,0,P|200:292|163:338,2,120,0|4|8,0:0|0:0|0:0,0:0:0:0:
388,363,186268,1,4,0:0:0:0:
326,219,186541,6,0,L|338:99,1,120,4|0,0:0|0:0,0:0:0:0:
307,27,186950,1,0,0:0:0:0:
229,41,187087,2,0,L|169:35,2,60,8|0|4,0:0|0:0|0:0,0:0:0:0:
220,118,187496,6,0,L|100:107,1,120,0|0,0:0|0:0,0:0:0:0:
41,158,187905,1,0,0:0:0:0:
72,355,188177,6,0,B|97:335|108:307|108:307|138:312|167:297|167:297|187:315|216:327,1,180,8|0,0:0|0:0,0:0:0:0:
281,369,188723,6,0,P|262:314|283:259,1,120,4|0,0:0|0:0,0:0:0:0:
358,236,189132,1,4,0:0:0:0:
433,253,189268,2,0,L|453:134,1,120,8|4,0:0|0:0,0:0:0:0:
389,87,189677,6,0,P|438:55|495:67,2,120,0|0|0,0:0|0:3|0:0,0:0:0:0:
324,132,190359,2,0,L|204:118,1,120,8|4,0:0|0:0,0:0:0:0:
17,40,190905,6,0,L|24:99,1,60,4|0,0:0|0:0,0:0:0:0:
86,146,191177,2,0,L|78:205,1,60,0|0,0:0|0:0,0:0:0:0:
22,260,191450,2,0,P|80:249|136:268,1,120,8|4,0:0|0:0,0:0:0:0:
175,336,191859,1,0,0:0:0:0:
250,316,191996,6,0,B|293:324|293:324|319:343|319:343|363:351,2,120,0|4|8,0:0|0:0|0:0,0:0:0:0:
485,113,193087,6,0,L|474:232,1,120,4|0,0:0|0:0,0:0:0:0:
409,276,193496,1,4,0:0:0:0:
351,223,193632,2,0,B|319:233|287:223|298:212|266:201|235:211,1,120,8|4,0:0|0:0,0:0:0:0:
156,210,194041,1,0,0:0:0:0:
92,256,194177,6,0,P|91:314|55:361,2,120,0|4|8,0:0|0:0|0:0,0:0:0:0:
5,125,194996,1,4,0:0:0:0:
159,55,195268,6,0,B|183:51|203:59|203:59|226:53|226:53|249:63|276:61,1,120,4|0,0:0|0:0,0:0:0:0:
343,101,195677,1,0,0:0:0:0:
416,76,195814,2,0,P|423:46|437:20,2,60,8|0|4,0:0|0:0|0:0,0:0:0:0:
448,147,196223,6,0,B|456:191|456:191|475:217|475:217|483:260,1,120,0|0,0:0|0:0,0:0:0:0:
497,335,196632,2,0,P|468:344|441:357,1,60,4|0,0:0|0:0,0:0:0:0:
377,312,196905,6,0,B|338:307|298:318|263:347|263:347|269:322|262:290,1,180,8|4,0:0|0:0,0:0:0:0:
246,213,197450,6,0,P|191:234|134:220,1,120,4|0,0:0|0:0,0:0:0:0:
98,151,197859,1,4,0:0:0:0:
118,75,197996,2,0,L|237:65,1,120,8|4,0:0|0:0,0:0:0:0:
314,82,198405,6,0,B|343:75|372:85|372:85|388:60|419:48,2,120,0|0|0,0:0|0:0|0:0,0:0:0:0:
334,157,199087,2,0,B|338:181|330:201|330:201|336:224|336:224|326:247|327:274,1,120,8|4,0:0|0:0,0:0:0:0:
184,263,199632,6,0,L|179:322,3,60,4|0|0|0,0:0|0:0|0:0|0:0,0:0:0:0:
97,286,200177,2,0,L|92:345,3,60,0|0|0|0,0:0|0:0|0:0|0:0,0:0:0:0:
15,249,200723,6,0,L|6:368,2,120,0|0|0,0:0|0:0|0:0,0:0:0:0:
