osu file format v14

[General]
AudioFilename: Kero Kero Bonito - Flamingo (WTN3 Remix).mp3
AudioLeadIn: 0
PreviewTime: 97087
Countdown: 0
SampleSet: Normal
StackLeniency: 0.8
Mode: 0
LetterboxInBreaks: 1
EpilepsyWarning: 1
WidescreenStoryboard: 1

[Editor]
Bookmarks: 1087,9814,27268,44723,62177,79632,97087,114541,123268,131996,149450,166905,184359
DistanceSpacing: 1.1
BeatDivisor: 4
GridSize: 8
TimelineZoom: 0.7999998

[Metadata]
Title:Flamingo (WTN3 Remix)
TitleUnicode:Flamingo (WTN3 Remix)
Artist:Kero Kero Bonito
ArtistUnicode:Kero Kero Bonito
Creator:Nerova Riuz GX
Version:Normal
Source:
Tags:future bass electronic disco whitenois3 rohit6 nasya n/a
BeatmapID:995583
BeatmapSetID:409214

[Difficulty]
HPDrainRate:3
CircleSize:3
OverallDifficulty:3
ApproachRate:5.3
SliderMultiplier:1.6
SliderTickRate:1

[Events]
//Background and Video events
0,0,"123.png",0,0
//Break Periods
2,44923,51751
2,114195,122114
//Storyboard Layer 0 (Background)
//Storyboard Layer 1 (Fail)
//Storyboard Layer 2 (Pass)
//Storyboard Layer 3 (Foreground)
//Storyboard Sound Samples

[TimingPoints]
1087,545.454545454546,4,1,1,80,1,0
27268,-100,4,1,1,80,0,1
44723,-100,4,1,1,80,0,0
97087,-100,4,1,1,80,0,1
114541,-100,4,1,1,80,0,0
149450,-100,4,1,1,80,0,1
166905,-100,4,1,1,80,0,0

[Colours]
Combo1 : 244,209,11
Combo2 : 255,128,255
Combo3 : 155,225,11
Combo4 : 73,206,235

[HitObjects]
307,135,1087,6,0,L|466:145,2,160,0|0|0,0:0|0:0|0:0,0:0:0:0:
170,23,2723,1,0,0:0:0:0:
37,140,3268,6,0,P|27:216|81:272,2,160,0|0|0,0:0|0:0|0:0,0:0:0:0:
111,189,4632,2,0,L|190:191,1,80,0|0,0:0|0:0,0:0:0:0:
276,172,5177,1,0,0:0:0:0:
359,200,5450,6,0,B|363:242|386:275|386:275|364:308|358:348,2,160,0|0|0,0:0|0:0|0:0,0:0:0:0:
326,26,7087,2,0,L|246:32,1,80,0|0,0:0|0:0,0:0:0:0:
164,64,7632,5,0,0:0:0:0:
81,95,7905,2,0,P|50:71|12:60,2,80,0|0|0,0:0|0:0|0:0,0:0:0:0:
91,183,8723,1,0,0:0:0:0:
119,265,8996,2,0,P|95:296|85:334,2,80,0|0|0,0:0|0:0|0:0,0:0:0:0:
194,218,9814,6,0,L|353:231,1,160,4|8,0:0|0:0,0:0:0:0:
426,280,10632,1,4,0:0:0:0:
489,219,10905,2,0,L|502:140,2,80,0|6|10,0:0|0:0|0:0,0:0:0:0:
426,280,11723,1,0,0:0:0:0:
350,325,11996,6,0,P|303:291|243:288,1,120,6|0,0:0|0:0,0:0:0:0:
200,295,12541,2,0,L|192:374,2,80,8|4|0,0:0|0:0|0:0,0:0:0:0:
150,221,13359,1,4,0:0:0:0:
150,221,13632,1,8,0:0:0:0:
310,150,14177,6,0,P|297:113|274:81,2,80,4|0|8,0:0|0:0|0:0,0:0:0:0:
277,233,14996,1,6,0:0:0:0:
277,233,15268,1,2,0:0:0:0:
307,315,15541,1,6,0:0:0:0:
307,314,15814,2,0,P|365:303|419:326,1,120,10|0,0:0|0:0,0:0:0:0:
457,347,16359,6,0,P|478:314|486:275,1,80,4|0,0:0|0:0,0:0:0:0:
458,193,16905,1,8,0:0:0:0:
409,119,17177,2,0,L|423:40,2,80,4|0|4,0:0|0:0|0:0,0:0:0:0:
331,160,17996,2,0,L|211:153,1,120,8|4,0:0|0:0,0:0:0:0:
171,135,18541,6,0,P|215:199|201:275,1,160,4|8,0:0|0:0,0:0:0:0:
144,343,19359,1,4,0:0:0:0:
61,309,19632,2,0,P|26:327|1:357,2,80,0|6|10,0:0|0:0|0:0,0:0:0:0:
82,223,20450,1,4,0:0:0:0:
67,136,20723,6,0,B|96:115|96:115|179:121,1,120,6|0,0:0|0:0,0:0:0:0:
217,99,21268,2,0,P|206:61|211:22,2,80,8|4|0,0:0|0:0|0:0,0:0:0:0:
256,179,22087,1,4,0:0:0:0:
256,179,22359,1,8,0:0:0:0:
431,168,22905,6,0,L|431:248,2,80,4|0|8,0:0|0:0|0:0,0:0:0:0:
432,80,23723,1,6,0:0:0:0:
432,80,23996,1,2,0:0:0:0:
347,102,24268,1,6,0:0:0:0:
346,102,24541,2,0,P|291:122|232:113,1,120,10|0,0:0|0:0,0:0:0:0:
188,115,25087,6,0,L|180:194,1,80,4|0,0:0|0:0,0:0:0:0:
158,278,25632,2,0,P|119:280|81:293,2,80,8|4|0,0:0|0:0|0:0,0:0:0:0:
319,351,26723,6,0,L|324:231,1,120,8|0,0:0|0:0,0:0:0:0:
307,190,27268,6,0,P|361:212|417:197,1,120,4|4,0:0|0:0,0:0:0:0:
453,171,27814,1,8,0:0:0:0:
456,82,28087,2,0,L|376:74,1,80,4|0,0:0|0:0,0:0:0:0:
294,42,28632,1,4,0:0:0:0:
236,108,28905,2,0,L|156:115,1,80,8|4,0:0|0:0,0:0:0:0:
68,112,29450,6,0,B|83:191|83:191|63:225,1,120,4|0,0:0|0:0,0:0:0:0:
33,258,29996,2,0,L|46:336,1,80,8|4,0:0|0:0,0:0:0:0:
122,379,30541,1,0,0:0:0:0:
122,379,30814,1,4,0:0:0:0:
198,334,31087,6,0,L|317:339,1,120,8|4,0:0|0:0,0:0:0:0:
352,364,31632,6,0,P|336:307|351:250,1,120,4|4,0:0|0:0,0:0:0:0:
382,218,32177,2,0,L|461:210,1,80,8|4,0:0|0:0,0:0:0:0:
504,133,32723,2,0,B|511:102|511:102|505:89|505:89|511:55,2,80,2|6|10,0:0|0:0|0:0,0:0:0:0:
461,210,33541,1,4,0:0:0:0:
374,186,33814,6,0,P|316:177|259:197,1,120,4|0,0:0|0:0,0:0:0:0:
228,228,34359,1,8,0:0:0:0:
175,298,34632,2,0,B|136:290|97:307|97:307|76:268|43:248,1,160,4|4,0:0|0:0,0:0:0:0:
0,171,35450,1,8,0:0:0:0:
91,21,35996,6,0,L|210:28,1,120,4|4,0:0|0:0,0:0:0:0:
254,31,36541,1,8,0:0:0:0:
306,103,36814,2,0,P|344:112|384:110,1,80,4|0,0:0|0:0,0:0:0:0:
472,99,37359,1,4,0:0:0:0:
479,186,37632,2,0,L|471:265,1,80,8|4,0:0|0:0,0:0:0:0:
453,352,38177,6,0,B|374:340|374:340|337:357,1,120,4|0,0:0|0:0,0:0:0:0:
295,361,38723,2,0,P|295:322|288:282,1,80,8|4,0:0|0:0,0:0:0:0:
233,213,39268,1,0,0:0:0:0:
233,213,39541,1,4,0:0:0:0:
156,257,39814,6,0,P|98:249|41:267,1,120,8|4,0:0|0:0,0:0:0:0:
45,223,40359,6,0,L|61:104,1,120,4|4,0:0|0:0,0:0:0:0:
57,60,40905,2,0,P|96:64|135:55,1,80,8|4,0:0|0:0,0:0:0:0:
203,111,41450,2,0,B|203:142|203:142|210:157|210:157|210:189,2,80,2|6|10,0:0|0:0|0:0,0:0:0:0:
268,51,42268,1,4,0:0:0:0:
345,93,42541,6,0,L|464:97,1,120,4|0,0:0|0:0,0:0:0:0:
509,99,43087,1,8,0:0:0:0:
474,179,43359,2,0,B|459:233|459:233|466:268|466:268|449:334,1,160,4|4,0:0|0:0,0:0:0:0:
368,369,44177,6,0,P|321:333|263:322,1,120,8|0,0:0|0:0,0:0:0:0:
219,329,44723,1,4,0:0:0:0:
163,91,52905,6,0,L|166:210,1,120,0|0,0:0|0:0,0:0:0:0:
146,248,53450,6,0,P|221:226|293:256,1,160,0|8,0:0|0:0,0:0:0:0:
326,337,54268,1,0,0:0:0:0:
408,305,54541,2,0,L|487:312,2,80,0|0|8,0:0|0:0|0:0,0:0:0:0:
232,321,55632,6,0,L|242:161,1,160,0|8,0:0|0:0,0:0:0:0:
224,75,56450,1,0,0:0:0:0:
144,115,56723,2,0,P|105:121|65:119,1,80,0|0,0:0|0:0,0:0:0:0:
16,192,57268,2,0,P|41:222|59:258,1,80,8|0,0:0|0:0,0:0:0:0:
59,346,57814,6,0,L|218:331,1,160,0|8,0:0|0:0,0:0:0:0:
300,299,58632,1,0,0:0:0:0:
365,356,58905,2,0,P|384:282|338:219,1,160,0|8,0:0|0:0,0:0:0:0:
167,177,59996,6,0,B|143:177|127:169|127:169|119:177|95:185|95:185|79:169|45:160|17:170,2,160,0|8|0,0:0|0:0|0:0,0:0:0:0:
240,225,61359,1,0,0:0:0:0:
304,164,61632,2,0,L|302:84,1,80,0|0,0:0|0:0,0:0:0:0:
389,79,62177,6,0,L|391:198,1,120,4|4,0:0|0:0,0:0:0:0:
382,241,62723,2,0,P|421:241|459:253,1,80,8|4,0:0|0:0,0:0:0:0:
408,325,63268,2,0,L|249:312,1,160,0|8,0:0|0:0,0:0:0:0:
181,254,64087,1,4,0:0:0:0:
104,297,64359,6,0,P|109:336|105:376,2,80,4|0|8,0:0|0:0|0:0,0:0:0:0:
17,142,65450,2,0,P|12:103|16:63,2,80,0|4|8,0:0|0:0|0:0,0:0:0:0:
64,219,66268,1,0,0:0:0:0:
142,179,66541,6,0,L|261:189,1,120,4|4,0:0|0:0,0:0:0:0:
304,177,67087,1,8,0:0:0:0:
355,248,67359,1,4,0:0:0:0:
333,333,67632,2,0,P|408:316|440:246,1,160,0|8,0:0|0:0,0:0:0:0:
410,164,68450,1,4,0:0:0:0:
351,98,68723,6,0,L|357:18,2,80,4|0|8,0:0|0:0|0:0,0:0:0:0:
284,155,69541,1,4,0:0:0:0:
217,97,69814,2,0,B|170:120|170:120|63:107,1,160,0|8,0:0|0:0,0:0:0:0:
15,276,70905,6,0,B|134:290,1,120,4|4,0:0|0:0,0:0:0:0:
178,284,71450,2,0,B|167:324|167:324|176:361,1,80,8|0,0:0|0:0,0:0:0:0:
264,369,71996,2,0,P|330:327|407:338,1,160,0|8,0:0|0:0,0:0:0:0:
507,195,73087,6,0,P|450:208|393:189,1,120,4|0,0:0|0:0,0:0:0:0:
367,155,73632,1,8,0:0:0:0:
284,185,73905,1,4,0:0:0:0:
200,156,74177,2,0,L|120:159,2,80,0|4|8,0:0|0:0|0:0,0:0:0:0:
249,83,74996,1,0,0:0:0:0:
328,46,75268,6,0,L|447:53,1,120,4|4,0:0|0:0,0:0:0:0:
491,58,75814,2,0,P|498:97|497:137,1,80,8|0,0:0|0:0,0:0:0:0:
495,225,76359,2,0,B|505:262|505:262|383:267,1,160,0|8,0:0|0:0,0:0:0:0:
300,242,77177,1,4,0:0:0:0:
223,286,77450,6,0,P|215:325|220:364,2,80,4|0|0,0:0|0:0|0:0,0:0:0:0:
300,242,78268,1,4,0:0:0:0:
352,170,78541,2,0,P|389:159|429:159,2,80,0|0|8,0:0|0:0|0:0,0:0:0:0:
205,70,79632,6,0,P|133:40|56:59,2,160,4|8|0,0:0|0:0|0:0,0:0:0:0:
240,153,80996,1,6,0:0:0:0:
225,240,81268,2,0,L|145:246,1,80,10|4,0:0|0:0,0:0:0:0:
171,331,81814,6,0,L|330:318,1,160,6|8,0:0|0:0,0:0:0:0:
410,354,82632,1,4,0:0:0:0:
466,286,82905,2,0,P|461:247|466:207,1,80,0|4,0:0|0:0,0:0:0:0:
484,121,83450,6,0,L|364:113,1,120,8|0,0:0|0:0,0:0:0:0:
322,99,83996,6,0,L|328:19,2,80,4|0|8,0:0|0:0|0:0,0:0:0:0:
312,186,84814,1,6,0:0:0:0:
312,186,85087,1,2,0:0:0:0:
227,162,85359,1,6,0:0:0:0:
226,161,85632,2,0,P|167:155|112:176,1,120,10|0,0:0|0:0,0:0:0:0:
80,206,86177,6,0,L|80:286,1,80,4|0,0:0|0:0,0:0:0:0:
133,355,86723,2,0,P|170:342|209:346,1,80,8|4,0:0|0:0,0:0:0:0:
295,366,87268,6,0,L|305:286,2,80,0|4|8,0:0|0:0|0:0,0:0:0:0:
459,304,88359,6,0,P|496:235|462:165,2,160,4|8|0,0:0|0:0|0:0,0:0:0:0:
410,234,89723,1,6,0:0:0:0:
321,219,89996,2,0,P|283:210|243:208,1,80,10|4,0:0|0:0,0:0:0:0:
168,256,90541,6,0,B|197:209|197:209|192:104,1,160,6|8,0:0|0:0,0:0:0:0:
118,56,91359,1,4,0:0:0:0:
50,113,91632,2,0,L|40:192,1,80,0|4,0:0|0:0,0:0:0:0:
30,279,92177,6,0,B|108:291|108:291|145:273,1,120,8|0,0:0|0:0,0:0:0:0:
186,278,92723,6,0,P|179:317|185:356,2,80,4|0|8,0:0|0:0|0:0,0:0:0:0:
268,313,93541,1,6,0:0:0:0:
268,313,93814,1,2,0:0:0:0:
346,273,94087,1,6,0:0:0:0:
346,273,94359,2,0,L|353:153,1,120,10|0,0:0|0:0,0:0:0:0:
312,171,94905,6,0,P|255:183|201:159,1,120,4|4,0:0|0:0,0:0:0:0:
177,122,95450,2,0,L|184:42,2,80,8|4|0,0:0|0:0|0:0,0:0:0:0:
81,270,96541,6,0,L|200:274,1,120,8|0,0:0|0:0,0:0:0:0:
235,248,97087,6,0,P|238:307|269:357,1,120,4|4,0:0|0:0,0:0:0:0:
313,355,97632,2,0,L|392:347,1,80,8|4,0:0|0:0,0:0:0:0:
432,268,98177,2,0,L|511:275,2,80,0|6|10,0:0|0:0|0:0,0:0:0:0:
388,191,98996,1,6,0:0:0:0:
408,104,99268,6,0,P|355:78|296:77,1,120,4|0,0:0|0:0,0:0:0:0:
253,64,99814,2,0,L|249:143,1,80,8|4,0:0|0:0,0:0:0:0:
252,231,100359,1,0,0:0:0:0:
252,231,100632,1,4,0:0:0:0:
199,302,100905,6,0,P|144:322|84:316,1,120,8|4,0:0|0:0,0:0:0:0:
52,286,101450,6,0,L|49:166,1,120,4|4,0:0|0:0,0:0:0:0:
31,125,101996,2,0,L|110:126,1,80,8|4,0:0|0:0,0:0:0:0:
186,82,102541,2,0,P|178:44|178:4,2,80,2|6|10,0:0|0:0|0:0,0:0:0:0:
244,150,103359,1,4,0:0:0:0:
320,105,103632,6,0,P|398:105|458:156,1,160,4|8,0:0|0:0,0:0:0:0:
488,239,104450,1,4,0:0:0:0:
429,305,104723,2,0,L|439:384,2,80,0|4|8,0:0|0:0|0:0,0:0:0:0:
260,254,105814,6,0,L|140:261,1,120,4|4,0:0|0:0,0:0:0:0:
98,275,106359,2,0,P|100:236|93:196,1,80,8|4,0:0|0:0,0:0:0:0:
78,109,106905,2,0,L|-1:103,2,80,0|6|10,0:0|0:0|0:0,0:0:0:0:
146,53,107723,1,6,0:0:0:0:
221,97,107996,6,0,L|340:82,1,120,4|0,0:0|0:0,0:0:0:0:
382,74,108541,2,0,P|380:113|390:152,1,80,8|4,0:0|0:0,0:0:0:0:
448,219,109087,1,0,0:0:0:0:
448,219,109359,1,4,0:0:0:0:
421,302,109632,6,0,B|392:316|363:302|363:302|334:287|305:302,1,120,8|4,0:0|0:0,0:0:0:0:
267,323,110177,6,0,B|282:287|282:287|276:206,1,120,4|4,0:0|0:0,0:0:0:0:
249,170,110723,2,0,L|169:174,1,80,8|4,0:0|0:0,0:0:0:0:
84,149,111268,2,0,B|70:112|70:112|77:72,2,80,2|6|10,0:0|0:0|0:0,0:0:0:0:
79,237,112087,1,4,0:0:0:0:
83,324,112359,6,0,L|242:313,1,160,4|8,0:0|0:0,0:0:0:0:
321,353,113177,1,4,0:0:0:0:
405,330,113450,2,0,P|406:252|450:186,1,160,0|8,0:0|0:0,0:0:0:0:
315,257,123268,6,0,P|389:280|462:251,2,160,0|0|0,0:0|0:0|0:0,0:0:0:0:
256,192,124632,1,0,0:0:0:0:
184,243,124905,2,0,L|176:322,1,80,0|0,0:0|0:0,0:0:0:0:
94,355,125450,6,0,B|67:302|67:302|76:201,2,160
176,322,126814,1,0,0:0:0:0:
263,313,127087,2,0,P|302:316|337:335,1,80,0|0,0:0|0:0,0:0:0:0:
420,362,127632,6,0,P|441:286|421:210,1,160,0|0,0:0|0:0,0:0:0:0:
349,160,128450,1,0,0:0:0:0:
282,102,128723,2,0,L|295:23,2,80,0|0|0,0:0|0:0|0:0,0:0:0:0:
267,276,129814,6,0,P|228:273|189:281,1,80,0|0,0:0|0:0,0:0:0:0:
127,344,130359,2,0,P|111:308|84:278,1,80,0|0,0:0|0:0,0:0:0:0:
0,257,130905,1,0,0:0:0:0:
273,35,131996,6,0,L|268:114,1,80,4|0,0:0|0:0,0:0:0:0:
306,193,132541,2,0,P|360:171|419:177,2,120,8|0|4,0:0|0:0|0:0,0:0:0:0:
252,264,133632,2,0,P|246:303|227:338,1,80,8|4,0:0|0:0,0:0:0:0:
142,361,134177,5,4,0:0:0:0:
142,361,134450,1,0,0:0:0:0:
66,315,134723,2,0,L|77:155,1,160,8|0,0:0|0:0,0:0:0:0:
104,71,135541,1,4,0:0:0:0:
192,86,135814,6,0,L|180:245,1,160,10|4,0:0|0:0,0:0:0:0:
231,317,136632,5,0,0:0:0:0:
314,288,136905,2,0,P|353:291|389:308,1,80,8|4,0:0|0:0,0:0:0:0:
460,361,137450,2,0,B|419:303|419:303|435:215,1,160,0|8,0:0|0:0,0:0:0:0:
417,129,138268,1,4,0:0:0:0:
438,42,138541,6,0,P|473:24|512:15,2,80,4|0|8,0:0|0:0|0:0,0:0:0:0:
352,65,139359,1,4,0:0:0:0:
271,101,139632,2,0,P|278:179|241:249,1,160,0|8,0:0|0:0,0:0:0:0:
95,346,140723,6,0,P|96:307|84:269,1,80,4|0,0:0|0:0,0:0:0:0:
32,200,141268,2,0,L|14:81,2,120,8|0|4,0:0|0:0|0:0,0:0:0:0:
118,184,142359,2,0,P|157:183|196:193,1,80,8|4,0:0|0:0,0:0:0:0:
280,220,142905,6,0,L|294:141,1,80,4|0,0:0|0:0,0:0:0:0:
345,69,143450,1,8,0:0:0:0:
345,69,143723,1,4,0:0:0:0:
430,54,143996,2,0,P|436:93|454:129,1,80,0|4,0:0|0:0,0:0:0:0:
507,198,144541,2,0,P|483:228|471:266,1,80,10|10,0:0|0:0,0:0:0:0:
459,353,145087,6,0,P|420:358|384:376,1,80,4|0,0:0|0:0,0:0:0:0:
297,371,145632,2,0,L|272:212,1,160,8|0,0:0|0:0,0:0:0:0:
193,174,146450,1,4,0:0:0:0:
107,197,146723,2,0,P|68:194|33:175,1,80,8|4,0:0|0:0,0:0:0:0:
30,87,147268,6,0,L|188:68,1,160,4|8,0:0|0:0,0:0:0:0:
256,11,148087,1,4,0:0:0:0:
323,68,148359,2,0,L|482:87,1,160,0|8,0:0|0:0,0:0:0:0:
488,262,149450,6,0,P|435:288|399:335,1,120,4|4,0:0|0:0,0:0:0:0:
372,370,149996,2,0,P|347:340|310:325,1,80,8|4,0:0|0:0,0:0:0:0:
222,329,150541,1,0,0:0:0:0:
222,329,150814,1,6,0:0:0:0:
171,256,151087,2,0,L|91:260,1,80,10|6,0:0|0:0,0:0:0:0:
26,199,151632,6,0,P|59:151|60:92,1,120,4|0,0:0|0:0,0:0:0:0:
48,50,152177,1,8,0:0:0:0:
128,14,152450,1,4,0:0:0:0:
199,64,152723,2,0,L|278:67,1,80,0|4,0:0|0:0,0:0:0:0:
358,30,153268,6,0,L|365:149,1,120,8|4,0:0|0:0,0:0:0:0:
356,192,153814,6,0,P|395:186|432:198,2,80,4|0|8,0:0|0:0|0:0,0:0:0:0:
283,242,154632,1,4,0:0:0:0:
204,282,154905,2,0,P|213:320|207:359,1,80,2|6,0:0|0:0,0:0:0:0:
125,324,155450,2,0,P|116:286|122:247,1,80,10|4,0:0|0:0,0:0:0:0:
82,166,155996,6,0,P|129:131|145:75,1,120,4|0,0:0|0:0,0:0:0:0:
137,32,156541,6,0,L|216:31,1,80,8|4,0:0|0:0,0:0:0:0:
296,68,157087,2,0,P|288:106|292:146,2,80,0|4|8,0:0|0:0|0:0,0:0:0:0:
469,33,158177,6,0,L|464:152,1,120,4|4,0:0|0:0,0:0:0:0:
496,183,158723,2,0,L|499:262,1,80,8|4,0:0|0:0,0:0:0:0:
455,339,159268,1,0,0:0:0:0:
455,339,159541,1,6,0:0:0:0:
384,281,159814,2,0,P|346:270|306:266,1,80,10|6,0:0|0:0,0:0:0:0:
217,270,160359,6,0,P|184:319|132:347,1,120,4|0,0:0|0:0,0:0:0:0:
89,354,160905,1,8,0:0:0:0:
40,280,161177,1,4,0:0:0:0:
62,194,161450,2,0,L|57:114,1,80,0|4,0:0|0:0,0:0:0:0:
144,98,161996,6,0,L|150:217,1,120,8|4,0:0|0:0,0:0:0:0:
143,261,162541,6,0,P|179:277|219:278,1,80,4|0,0:0|0:0,0:0:0:0:
290,227,163087,2,0,P|325:211|365:209,1,80,8|4,0:0|0:0,0:0:0:0:
424,274,163632,2,0,L|416:353,2,80,2|6|10,0:0|0:0|0:0,0:0:0:0:
491,217,164450,1,4,0:0:0:0:
499,129,164723,6,0,L|379:118,1,120,4|0,0:0|0:0,0:0:0:0:
334,119,165268,2,0,P|311:87|302:48,1,80,8|4,0:0|0:0,0:0:0:0:
217,70,165814,2,0,L|208:149,1,80,0|4,0:0|0:0,0:0:0:0:
197,237,166359,1,8,0:0:0:0:
360,303,166905,6,0,L|437:321,1,80,4|0,0:0|0:0,0:0:0:0:
440,233,167450,2,0,L|495:175,1,80
418,129,167996,2,0,L|395:52,1,80
316,95,168541,1,0,0:0:0:0:
144,51,169087,6,0,L|148:210,1,160,4|8,0:0|0:0,0:0:0:0:
136,298,169905,1,4,0:0:0:0:
221,277,170177,2,0,P|260:276|297:291,1,80,0|4,0:0|0:0,0:0:0:0:
367,345,170723,6,0,B|391:311|391:311|467:293,1,120,8|4,0:0|0:0,0:0:0:0:
506,309,171268,6,0,P|482:255|473:196,1,120,4|4,0:0|0:0,0:0:0:0:
488,154,171814,1,8,0:0:0:0:
436,82,172087,1,4,0:0:0:0:
358,122,172359,2,0,L|278:113,1,80,0|4,0:0|0:0,0:0:0:0:
213,53,172905,2,0,L|133:61,1,80,8|4,0:0|0:0,0:0:0:0:
73,125,173450,6,0,P|53:92|46:52,2,80,4|0|8,0:0|0:0|0:0,0:0:0:0:
132,192,174268,1,4,0:0:0:0:
73,258,174541,2,0,P|53:291|46:331,1,80,0|4,0:0|0:0,0:0:0:0:
133,322,175087,1,8,0:0:0:0:
303,368,175632,6,0,L|291:208,1,160,4|8,0:0|0:0,0:0:0:0:
332,130,176450,1,4,0:0:0:0:
397,71,176723,2,0,L|476:76,2,80,0|4|8,0:0|0:0|0:0,0:0:0:0:
328,15,177541,1,4,0:0:0:0:
253,63,177814,6,0,P|194:66|141:40,1,120,4|0,0:0|0:0,0:0:0:0:
97,38,178359,2,0,P|104:77|100:116,1,80,8|4,0:0|0:0,0:0:0:0:
52,190,178905,1,0,0:0:0:0:
52,190,179177,1,4,0:0:0:0:
107,258,179450,6,0,L|226:250,1,120,8|4,0:0|0:0,0:0:0:0:
261,225,179996,6,0,P|254:284|271:341,1,120,4|4,0:0|0:0,0:0:0:0:
307,366,180541,1,8,0:0:0:0:
394,354,180814,1,4,0:0:0:0:
443,281,181087,2,0,L|438:201,1,80,0|4,0:0|0:0,0:0:0:0:
375,140,181632,2,0,L|379:60,1,80,8|4,0:0|0:0,0:0:0:0:
294,28,182177,6,0,P|217:18|150:59,1,160,4|8,0:0|0:0,0:0:0:0:
113,139,182996,1,4,0:0:0:0:
152,217,183268,2,0,L|311:207,1,160,0|8,0:0|0:0,0:0:0:0:
446,94,184359,6,0,P|442:153|465:208,1,120,4|4,0:0|0:0,0:0:0:0:
472,251,184905,2,0,L|392:246,1,80,8|4,0:0|0:0,0:0:0:0:
321,298,185450,2,0,P|333:335|334:375,2,80,0|4|8,0:0|0:0|0:0,0:0:0:0:
253,241,186268,1,4,0:0:0:0:
177,288,186541,6,0,P|118:295|63:274,1,120,4|0,0:0|0:0,0:0:0:0:
34,241,187087,2,0,L|38:161,1,80,8|4,0:0|0:0,0:0:0:0:
49,73,187632,1,0,0:0:0:0:
49,73,187905,1,0,0:0:0:0:
132,45,188177,6,0,L|251:52,1,120,8|0,0:0|0:0,0:0:0:0:
292,34,188723,6,0,B|288:85|288:85|299:106|299:106|295:150,1,120,4|4,0:0|0:0,0:0:0:0:
292,194,189268,1,8,0:0:0:0:
304,281,189541,1,4,0:0:0:0:
240,341,189814,2,0,P|203:327|164:323,1,80,0|4,0:0|0:0,0:0:0:0:
78,345,190359,2,0,P|72:306|55:270,1,80,8|4,0:0|0:0,0:0:0:0:
17,190,190905,6,0,B|71:174|95:190|118:205|174:189,1,160,4|8,0:0|0:0,0:0:0:0:
257,219,191723,1,4,0:0:0:0:
307,146,191996,2,0,L|312:66,2,80,0|4|8,0:0|0:0|0:0,0:0:0:0:
341,317,193087,6,0,P|392:288|451:280,1,120,4|4,0:0|0:0,0:0:0:0:
495,287,193632,2,0,L|495:207,1,80,8|4,0:0|0:0,0:0:0:0:
463,122,194177,2,0,P|424:122|385:133,1,80,0|4,0:0|0:0,0:0:0:0:
320,73,194723,2,0,P|281:73|242:62,1,80,8|4,0:0|0:0,0:0:0:0:
171,114,195268,6,0,B|197:149|197:149|194:225,1,120,4|0,0:0|0:0,0:0:0:0:
168,262,195814,2,0,P|129:265|90:258,1,80,8|4,0:0|0:0,0:0:0:0:
32,193,196359,2,0,L|28:113,2,80,0|4|8,0:0|0:0|0:0,0:0:0:0:
102,354,197450,6,0,P|161:358|219:343,1,120,4|4,0:0|0:0,0:0:0:0:
262,339,197996,2,0,P|248:303|246:263,1,80,8|4,0:0|0:0,0:0:0:0:
316,208,198541,1,0,0:0:0:0:
316,208,198814,1,0,0:0:0:0:
285,125,199087,2,0,L|205:119,1,80,8|4,0:0|0:0,0:0:0:0:
140,60,199632,6,0,P|113:32|76:18,1,80,4|0,0:0|0:0,0:0:0:0:
63,105,200177,2,0,P|28:122|3:153,1,80,0|0,0:0|0:0,0:0:0:0:
82,191,200723,2,0,P|88:230|110:262,1,80,0|0,0:0|0:0,0:0:0:0:
170,199,201268,1,0,0:0:0:0:
