osu file format v14

[General]
AudioFilename: Kero Kero Bonito - Flamingo (WTN3 Remix).mp3
AudioLeadIn: 0
PreviewTime: 97087
Countdown: 0
SampleSet: Normal
StackLeniency: 0.7
Mode: 0
LetterboxInBreaks: 1
EpilepsyWarning: 1
WidescreenStoryboard: 1

[Editor]
Bookmarks: 1087,9814,27268,44723,62177,79632,97087,114541,123268,131996,149450,166905,184359
DistanceSpacing: 2.2
BeatDivisor: 12
GridSize: 32
TimelineZoom: 0.8999996

[Metadata]
Title:Flamingo (WTN3 Remix)
TitleUnicode:Flamingo (WTN3 Remix)
Artist:Kero Kero Bonito
ArtistUnicode:Kero Kero Bonito
Creator:Nerova Riuz GX
Version:Multi Color
Source:
Tags:future bass electronic disco whitenois3 rohit6 nasya n/a
BeatmapID:888383
BeatmapSetID:409214

[Difficulty]
HPDrainRate:5
CircleSize:4
OverallDifficulty:8.7
ApproachRate:9.6
SliderMultiplier:2.8
SliderTickRate:1

[Events]
//Background and Video events
0,0,"123.png",0,0
//Break Periods
//Storyboard Layer 0 (Background)
//Storyboard Layer 1 (Fail)
//Storyboard Layer 2 (Pass)
//Storyboard Layer 3 (Foreground)
//Storyboard Sound Samples

[TimingPoints]
1087,545.454545454546,4,1,1,80,1,0
27268,-100,4,1,1,80,0,1
44723,-100,4,1,1,80,0,0
97087,-100,4,1,1,80,0,1
114268,-100,4,1,1,30,0,1
114541,-100,4,1,1,80,0,0
149450,-100,4,1,1,80,0,1
166905,-100,4,1,1,80,0,0

[Colours]
Combo1 : 244,209,11
Combo2 : 255,128,255
Combo3 : 155,225,11
Combo4 : 73,206,235

[HitObjects]
221,140,1087,6,0,L|213:70,1,70
315,163,1359,6,0,L|300:302,1,140
403,118,1768,2,0,L|388:257,1,140
491,73,2177,2,0,L|476:212,1,140
154,266,2723,6,0,P|97:301|88:368,2,140
344,183,3541,6,0,L|204:168,1,140
389,271,3950,2,0,L|249:256,1,140
434,359,4359,5,0,0:0:0:0:
399,355,4632,1,0,0:0:0:0:
364,351,4905,1,0,0:0:0:0:
329,348,5177,1,0,0:0:0:0:
294,344,5450,1,0,0:0:0:0:
197,163,5723,6,0,L|210:302,1,140
109,118,6132,2,0,L|122:257,1,140
21,73,6541,2,0,L|34:212,1,140
244,77,7087,6,0,P|310:97|368:61,2,140
162,49,7768,1,0,0:0:0:0:
150,62,7905,6,0,L|159:131,1,70
158,317,8177,2,0,L|167:247,1,70
241,94,8450,2,0,L|250:163,1,70
256,307,8723,2,0,L|265:237,1,70
332,126,8996,5,0,0:0:0:0:
354,297,9268,1,0,0:0:0:0:
250,163,9541,1,0,0:0:0:0:
405,198,9814,6,0,L|474:208,2,70,4|0|0,0:0|0:0|0:0,0:0:0:0:
271,31,10223,1,0,0:0:0:0:
306,121,10359,2,0,L|296:190,1,70,8|0,0:0|0:0,0:0:0:0:
241,352,10632,1,4,0:0:0:0:
200,228,10768,1,0,0:0:0:0:
361,268,10905,6,0,P|396:265|430:274,1,70
159,311,11177,2,0,P|124:314|90:305,1,70,6|0,0:0|0:0,0:0:0:0:
213,88,11450,2,0,L|199:227,1,140,10|0,0:0|0:0,0:0:0:0:
199,227,11996,6,0,B|99:236|99:236|128:209,1,140,6|0,0:0|0:0,0:0:0:0:
323,161,12405,1,0,0:0:0:0:
362,268,12541,2,0,L|359:337,1,70,8|0,0:0|0:0,0:0:0:0:
236,140,12814,1,4,0:0:0:0:
405,198,12950,6,0,B|505:207|505:207|475:180,1,140
313,7,13359,2,0,L|316:76,1,70,4|0,0:0|0:0,0:0:0:0:
300,196,13632,6,0,L|323:195,9,23.3333333333333,8|0|0|0|0|0|0|0|0|0,0:0|0:0|0:0|0:0|0:0|0:0|0:0|0:0|0:0|0:0,0:0:0:0:
243,254,14177,6,0,P|254:310|297:272,2,140,4|0|8,0:0|0:0|0:0,0:0:0:0:
353,88,14996,2,0,L|422:96,1,70,6|0,0:0|0:0,0:0:0:0:
200,146,15268,2,0,L|130:154,1,70,2|0,0:0|0:0,0:0:0:0:
388,130,15541,2,0,L|457:138,1,70,6|0,0:0|0:0,0:0:0:0:
211,33,15814,5,10,0:0:0:0:
220,125,15950,1,0,0:0:0:0:
230,218,16086,1,4,0:0:0:0:
239,311,16223,1,0,0:0:0:0:
321,191,16359,5,4,0:0:0:0:
138,237,16496,1,0,0:0:0:0:
327,343,16632,2,0,P|340:312|343:277,1,70,0|4,0:0|0:0,0:0:0:0:
276,79,16905,1,8,0:0:0:0:
87,188,17041,2,0,P|108:217|137:236,1,70,0|4,0:0|0:0,0:0:0:0:
321,191,17314,1,0,0:0:0:0:
100,103,17450,6,0,L|30:106,1,70
238,205,17723,2,0,L|307:208,1,70,4|0,0:0|0:0,0:0:0:0:
171,25,17996,6,0,L|174:48,9,23.3333333333333,8|0|0|0|0|0|0|0|0|4,0:0|0:0|0:0|0:0|0:0|0:0|0:0|0:0|0:0|0:0,0:0:0:0:
195,126,18541,6,0,L|264:129,2,70,4|0|0,0:0|0:0|0:0,0:0:0:0:
259,43,18950,1,0,0:0:0:0:
232,215,19087,2,0,B|228:253|228:253|241:281,1,70,8|0,0:0|0:0,0:0:0:0:
346,74,19359,2,0,B|350:36|350:36|336:7,1,70,4|0,0:0|0:0,0:0:0:0:
143,202,19632,5,0,0:0:0:0:
343,157,19768,1,0,0:0:0:0:
103,116,19905,2,0,P|69:127|44:150,1,70,6|0,0:0|0:0,0:0:0:0:
316,243,20177,2,0,L|455:249,1,140,10|4,0:0|0:0,0:0:0:0:
455,248,20723,6,0,P|471:182|437:124,1,140,6|0,0:0|0:0,0:0:0:0:
230,226,21132,1,0,0:0:0:0:
329,353,21268,2,0,L|398:344,1,70,8|0,0:0|0:0,0:0:0:0:
149,280,21541,1,4,0:0:0:0:
318,167,21677,2,0,P|329:99|322:29,1,140
326,265,22087,1,4,0:0:0:0:
326,265,22359,6,0,L|349:266,9,23.3333333333333,8|0|0|0|0|0|0|0|0|0,0:0|0:0|0:0|0:0|0:0|0:0|0:0|0:0|0:0|0:0,0:0:0:0:
253,236,22905,6,0,B|250:289|250:289|272:318|272:318|270:368,2,140,4|0|8,0:0|0:0|0:0,0:0:0:0:
86,80,23723,2,0,P|65:52|59:17,1,70,6|0,0:0|0:0,0:0:0:0:
276,160,23995,2,0,P|278:194|266:226,1,70,2|0,0:0|0:0,0:0:0:0:
62,158,24268,2,0,P|57:123|69:90,1,70,6|0,0:0|0:0,0:0:0:0:
373,116,24541,5,10,0:0:0:0:
360,208,24677,1,0,0:0:0:0:
286,150,24814,1,4,0:0:0:0:
298,57,24950,1,0,0:0:0:0:
448,175,25087,5,4,0:0:0:0:
274,243,25223,1,0,0:0:0:0:
385,23,25359,2,0,L|454:24,1,70,0|4,0:0|0:0,0:0:0:0:
210,90,25632,5,8,0:0:0:0:
348,301,25905,1,4,0:0:0:0:
459,81,26177,6,0,L|470:149,1,70,0|4,0:0|0:0,0:0:0:0:
291,238,26450,2,0,L|302:169,1,70
434,299,26723,6,0,L|446:318,9,23.3333333333333,8|0|0|0|0|0|0|0|0|0,0:0|0:0|0:0|0:0|0:0|0:0|0:0|0:0|0:0|0:0,0:0:0:0:
416,220,27268,5,4,0:0:0:0:
162,324,27541,1,0,0:0:0:0:
9,236,27677,1,4,0:0:0:0:
161,149,27814,1,8,0:0:0:0:
107,247,27950,1,0,0:0:0:0:
95,69,28086,1,4,0:0:0:0:
293,209,28223,1,0,0:0:0:0:
293,209,28291,1,0,0:0:0:0:
293,209,28359,6,0,L|289:278,1,70
170,130,28632,2,0,L|175:60,1,70,4|0,0:0|0:0,0:0:0:0:
354,107,28905,1,8,0:0:0:0:
297,268,29041,1,0,0:0:0:0:
187,145,29178,1,4,0:0:0:0:
365,209,29314,1,0,0:0:0:0:
269,117,29450,6,0,P|263:82|266:47,1,70,4|0,0:0|0:0,0:0:0:0:
394,293,29723,2,0,L|388:362,1,70
190,259,29996,1,8,0:0:0:0:
289,189,30132,1,0,0:0:0:0:
145,344,30268,1,4,0:0:0:0:
63,165,30404,1,0,0:0:0:0:
63,165,30473,1,0,0:0:0:0:
62,164,30541,6,0,P|96:158|130:163,1,70
273,271,30814,2,0,P|240:280|205:276,1,70,4|0,0:0|0:0,0:0:0:0:
398,162,31087,6,0,L|410:181,9,23.3333333333333,8|0|0|0|0|0|0|0|0|4,0:0|0:0|0:0|0:0|0:0|0:0|0:0|0:0|0:0|0:0,0:0:0:0:
345,219,31632,6,0,L|339:288,1,70,4|0,0:0|0:0,0:0:0:0:
197,159,31905,1,0,0:0:0:0:
143,328,32041,1,4,0:0:0:0:
96,227,32177,1,8,0:0:0:0:
251,256,32313,1,0,0:0:0:0:
43,336,32450,1,4,0:0:0:0:
3,139,32587,1,0,0:0:0:0:
55,322,32723,6,0,L|124:320,1,70,2|0,0:0|0:0,0:0:0:0:
340,231,32996,2,0,L|270:229,1,70,6|0,0:0|0:0,0:0:0:0:
169,161,33268,1,10,0:0:0:0:
204,350,33405,1,0,0:0:0:0:
176,140,33541,1,4,0:0:0:0:
15,249,33677,1,0,0:0:0:0:
261,245,33814,6,0,P|273:211|273:177,1,70,4|0,0:0|0:0,0:0:0:0:
107,14,34087,2,0,P|100:49|106:83,1,70
350,175,34359,2,0,L|419:169,1,70,8|0,0:0|0:0,0:0:0:0:
248,94,34632,1,4,0:0:0:0:
346,269,34768,1,0,0:0:0:0:
441,93,34905,6,0,L|445:23,1,70
334,186,35177,2,0,L|339:256,1,70,4|0,0:0|0:0,0:0:0:0:
250,82,35450,6,0,L|251:58,9,23.3333333333333,8|0|0|0|0|0|0|0|0|0,0:0|0:0|0:0|0:0|0:0|0:0|0:0|0:0|0:0|0:0,0:0:0:0:
185,127,35996,6,0,L|115:120,1,70,4|0,0:0|0:0,0:0:0:0:
331,42,36268,1,0,0:0:0:0:
246,183,36405,1,4,0:0:0:0:
165,42,36541,1,8,0:0:0:0:
329,139,36677,1,0,0:0:0:0:
209,280,36814,1,4,0:0:0:0:
74,211,36950,1,0,0:0:0:0:
74,211,37018,1,0,0:0:0:0:
74,211,37087,6,0,L|143:204,1,70
386,338,37359,2,0,L|316:331,1,70,4|0,0:0|0:0,0:0:0:0:
211,172,37632,1,8,0:0:0:0:
247,368,37768,1,0,0:0:0:0:
131,286,37905,1,4,0:0:0:0:
326,253,38041,1,0,0:0:0:0:
179,93,38177,6,0,P|172:58|180:25,1,70,4|0,0:0|0:0,0:0:0:0:
292,179,38450,1,0,0:0:0:0:
115,140,38587,1,0,0:0:0:0:
383,103,38723,2,0,L|452:107,1,70,8|0,0:0|0:0,0:0:0:0:
328,25,38996,1,4,0:0:0:0:
294,200,39132,1,0,0:0:0:0:
294,200,39200,1,0,0:0:0:0:
294,200,39268,6,0,L|301:269,1,70
457,118,39541,2,0,L|449:187,1,70,4|0,0:0|0:0,0:0:0:0:
306,36,39814,6,0,L|282:34,9,23.3333333333333,8|0|0|0|0|0|0|0|0|4,0:0|0:0|0:0|0:0|0:0|0:0|0:0|0:0|0:0|0:0,0:0:0:0:
210,71,40359,6,0,L|218:140,1,70,4|0,0:0|0:0,0:0:0:0:
64,89,40632,1,0,0:0:0:0:
132,250,40768,1,4,0:0:0:0:
225,156,40905,1,8,0:0:0:0:
167,333,41041,1,0,0:0:0:0:
93,169,41177,1,4,0:0:0:0:
276,226,41313,1,0,0:0:0:0:
60,349,41450,6,0,B|49:316|49:316|54:281,1,70,2|0,0:0|0:0,0:0:0:0:
261,304,41723,2,0,B|272:337|272:337|266:371,1,70,6|0,0:0|0:0,0:0:0:0:
161,220,41996,1,10,0:0:0:0:
353,308,42132,1,0,0:0:0:0:
153,337,42268,1,4,0:0:0:0:
366,222,42405,1,0,0:0:0:0:
150,123,42541,6,0,L|141:53,1,70,4|0,0:0|0:0,0:0:0:0:
273,178,42814,1,0,0:0:0:0:
231,321,42950,1,0,0:0:0:0:
76,197,43087,2,0,P|110:208|145:207,1,70,8|0,0:0|0:0,0:0:0:0:
323,93,43359,2,0,P|289:82|254:83,1,70,4|0,0:0|0:0,0:0:0:0:
240,306,43632,5,0,0:0:0:0:
429,275,43768,1,0,0:0:0:0:
257,188,43905,1,4,0:0:0:0:
347,361,44041,1,0,0:0:0:0:
377,170,44177,6,0,L|400:168,9,23.3333333333333,8|0|0|0|0|0|0|0|0|0,0:0|0:0|0:0|0:0|0:0|0:0|0:0|0:0|0:0|0:0,0:0:0:0:
328,106,44723,6,0,L|336:245,2,140,4|0|0,0:0|0:0|0:0,0:0:0:0:
273,41,45405,1,0,0:0:0:0:
202,85,45541,2,0,P|167:88|132:81,1,70
53,54,45814,5,0,0:0:0:0:
119,107,46087,1,0,0:0:0:0:
143,189,46359,1,0,0:0:0:0:
113,269,46632,1,0,0:0:0:0:
35,319,46905,6,0,L|174:323,1,140
246,221,47314,1,0,0:0:0:0:
257,305,47450,2,0,B|257:341|257:341|271:371,1,70
392,248,47723,2,0,B|360:230|360:230|326:227,1,70
412,353,47996,5,0,0:0:0:0:
468,292,48132,2,0,B|478:204|478:204|464:154,1,140
404,95,48541,5,0,0:0:0:0:
382,179,48814,1,0,0:0:0:0:
402,75,49087,6,0,L|472:66,2,70
328,116,49496,1,0,0:0:0:0:
263,60,49632,2,0,P|200:86|134:70,1,140
26,200,50177,5,0,0:0:0:0:
85,259,50450,1,0,0:0:0:0:
145,200,50723,1,0,0:0:0:0:
85,140,50996,1,0,0:0:0:0:
85,277,51268,6,0,L|73:346,2,70
235,154,51814,2,0,L|225:223,1,70
359,287,52087,2,0,L|303:244,1,70
181,327,52359,6,0,L|245:300,1,70
462,243,52632,2,0,L|397:216,1,70
228,140,52905,6,0,L|204:138,9,23.3333333333333
299,97,53450,6,0,L|368:102,2,70
241,41,53859,1,0,0:0:0:0:
162,72,53996,2,0,L|92:77,1,70,8|0,0:0|0:0,0:0:0:0:
73,247,54268,1,0,0:0:0:0:
1,206,54405,1,0,0:0:0:0:
73,165,54541,6,0,L|212:172,2,140,0|0|8,0:0|0:0|0:0,0:0:0:0:
23,339,55359,2,0,L|92:333,1,70
151,272,55632,6,0,P|194:326|262:329,2,140,0|0|8,0:0|0:0|0:0,0:0:0:0:
233,252,56314,1,0,0:0:0:0:
314,271,56450,2,0,L|383:268,1,70
430,198,56723,6,0,L|430:337,1,140
348,153,57268,6,0,L|324:151,4,23.3333333333333,8|0|0|0|0,0:0|0:0|0:0|0:0|0:0,0:0:0:0:
469,112,57541,2,0,L|492:110,4,23.3333333333333
387,13,57814,6,0,L|392:82,2,70
254,115,58359,2,0,B|265:187|265:187|243:250,2,140,8|0|0,0:0|0:0|0:0,0:0:0:0:
171,95,59041,5,0,0:0:0:0:
92,76,59177,2,0,P|88:41|91:6,1,70
172,112,59450,2,0,L|160:251,1,140,8|0,0:0|0:0,0:0:0:0:
16,361,59996,5,0,0:0:0:0:
91,327,60132,2,0,P|160:334|214:377,1,140
284,330,60541,2,0,L|293:260,1,70,8|0,0:0|0:0,0:0:0:0:
368,329,60814,2,0,L|377:259,1,70
360,99,61087,5,0,0:0:0:0:
360,183,61223,1,0,0:0:0:0:
440,209,61359,1,0,0:0:0:0:
489,141,61495,1,0,0:0:0:0:
440,73,61632,6,0,L|300:73,1,140
300,73,62177,5,4,0:0:0:0:
223,218,62314,1,0,0:0:0:0:
140,48,62450,2,0,P|127:81|121:116,1,70,0|4,0:0|0:0,0:0:0:0:
222,344,62723,2,0,P|234:275|215:208,1,140,8|4,0:0|0:0,0:0:0:0:
125,205,63132,1,0,0:0:0:0:
291,151,63268,6,0,L|360:154,1,70
149,289,63541,2,0,L|9:296,1,140,4|8,0:0|0:0,0:0:0:0:
143,201,63950,1,0,0:0:0:0:
100,371,64087,1,4,0:0:0:0:
0,221,64223,1,0,0:0:0:0:
232,232,64359,6,0,P|235:267|230:302,1,70,4|0,0:0|0:0,0:0:0:0:
130,188,64632,1,0,0:0:0:0:
211,44,64768,1,0,0:0:0:0:
345,130,64905,2,0,L|205:134,1,140,8|4,0:0|0:0,0:0:0:0:
67,127,65314,1,0,0:0:0:0:
223,56,65450,5,0,0:0:0:0:
285,227,65587,1,0,0:0:0:0:
420,156,65723,2,0,P|451:139|473:112,1,70,4|0,0:0|0:0,0:0:0:0:
198,189,65996,6,0,L|199:165,4,23.3333333333333,8|0|0|0|0,0:0|0:0|0:0|0:0|0:0,0:0:0:0:
239,310,66269,2,0,L|240:333,4,23.3333333333333,0|0|0|4|0,0:0|0:0|0:0|0:0|0:0,0:0:0:0:
285,227,66541,5,4,0:0:0:0:
149,311,66677,1,0,0:0:0:0:
293,243,66814,1,0,0:0:0:0:
118,148,66950,1,4,0:0:0:0:
326,102,67087,2,0,L|395:107,1,70,8|0,0:0|0:0,0:0:0:0:
197,223,67359,2,0,L|127:228,1,70,4|0,0:0|0:0,0:0:0:0:
350,309,67632,6,0,L|419:314,2,70,0|0|4,0:0|0:0|0:0,0:0:0:0:
275,239,68041,1,0,0:0:0:0:
476,112,68177,2,0,B|492:182|492:182|471:247,1,140,8|4,0:0|0:0,0:0:0:0:
427,326,68587,1,0,0:0:0:0:
262,155,68723,6,0,L|267:224,1,70,4|0,0:0|0:0,0:0:0:0:
405,26,68996,2,0,L|399:95,1,70
342,298,69268,1,8,0:0:0:0:
179,218,69405,1,0,0:0:0:0:
370,177,69541,2,0,P|405:173|439:179,1,70,4|0,0:0|0:0,0:0:0:0:
247,334,69814,5,0,0:0:0:0:
171,230,69950,2,0,P|154:164|183:102,1,140
324,70,70359,6,0,L|322:93,9,23.3333333333333,8|0|0|0|0|0|0|0|0|0,0:0|0:0|0:0|0:0|0:0|0:0|0:0|0:0|0:0|0:0,0:0:0:0:
354,168,70905,6,0,L|348:237,1,70,4|0,0:0|0:0,0:0:0:0:
335,377,71177,1,0,0:0:0:0:
464,286,71314,1,4,0:0:0:0:
259,258,71450,1,8,0:0:0:0:
479,276,71587,2,0,P|492:208|463:145,1,140
307,53,71996,5,0,0:0:0:0:
248,241,72132,1,0,0:0:0:0:
160,76,72269,1,4,0:0:0:0:
358,183,72405,1,0,0:0:0:0:
167,297,72541,2,0,L|161:157,1,140,8|4,0:0|0:0,0:0:0:0:
252,150,72950,1,0,0:0:0:0:
87,104,73087,6,0,P|52:101|18:108,1,70,4|0,0:0|0:0,0:0:0:0:
174,285,73359,2,0,P|209:288|243:281,1,70
58,190,73632,1,8,0:0:0:0:
113,351,73768,1,0,0:0:0:0:
146,171,73905,1,4,0:0:0:0:
15,268,74041,1,0,0:0:0:0:
262,210,74177,6,0,L|331:214,1,70
415,159,74450,1,4,0:0:0:0:
449,343,74587,1,0,0:0:0:0:
500,118,74723,6,0,L|498:141,4,23.3333333333333,8|0|0|0|0,0:0|0:0|0:0|0:0|0:0,0:0:0:0:
462,261,74996,2,0,L|463:237,4,23.3333333333333,0|0|0|4|0,0:0|0:0|0:0|0:0|0:0,0:0:0:0:
382,44,75268,5,4,0:0:0:0:
288,210,75405,1,0,0:0:0:0:
216,80,75541,2,0,P|212:46|223:13,1,70,0|4,0:0|0:0,0:0:0:0:
355,139,75814,1,8,0:0:0:0:
202,173,75950,2,0,P|133:174|65:157,1,140
112,14,76359,6,0,P|130:45|133:79,1,70
103,267,76632,1,4,0:0:0:0:
0,225,76768,1,0,0:0:0:0:
195,192,76905,1,8,0:0:0:0:
124,361,77041,1,0,0:0:0:0:
49,152,77177,2,0,P|42:117|44:82,1,70,4|0,0:0|0:0,0:0:0:0:
277,134,77450,5,4,0:0:0:0:
241,284,77587,1,0,0:0:0:0:
266,115,77723,2,0,P|272:80|283:47,1,70,0|4,0:0|0:0,0:0:0:0:
333,234,77996,5,0,0:0:0:0:
183,198,78133,1,0,0:0:0:0:
351,223,78269,2,0,P|386:229|419:240,1,70,4|0,0:0|0:0,0:0:0:0:
158,290,78541,5,0,0:0:0:0:
326,64,78814,1,0,0:0:0:0:
434,322,79087,1,8,0:0:0:0:
434,322,79632,6,0,L|294:331,1,140,4|0,0:0|0:0,0:0:0:0:
87,238,80041,1,4,0:0:0:0:
124,156,80177,2,0,L|263:165,1,140,8|4,0:0|0:0,0:0:0:0:
331,114,80587,1,0,0:0:0:0:
273,244,80723,6,0,P|268:279|276:313,1,70
414,144,80996,2,0,P|419:109|411:75,1,70,6|0,0:0|0:0,0:0:0:0:
349,208,81268,1,10,0:0:0:0:
490,195,81405,1,0,0:0:0:0:
248,98,81541,2,0,L|178:93,1,70,4|0,0:0|0:0,0:0:0:0:
29,236,81814,6,0,P|88:268|152:245,1,140,6|0,0:0|0:0,0:0:0:0:
193,163,82223,1,0,0:0:0:0:
139,349,82359,1,8,0:0:0:0:
95,188,82496,1,0,0:0:0:0:
279,222,82632,2,0,P|283:256|279:291,1,70,4|0,0:0|0:0,0:0:0:0:
199,166,82905,6,0,L|200:96,1,70
370,237,83177,2,0,L|371:306,1,70,4|0,0:0|0:0,0:0:0:0:
326,75,83450,6,0,L|348:79,9,23.3333333333333,8|0|0|0|0|0|4|0|0|0,0:0|0:0|0:0|0:0|0:0|0:0|0:0|0:0|0:0|0:0,0:0:0:0:
398,21,83996,6,0,L|402:160,2,140,4|0|8,0:0|0:0|0:0,0:0:0:0:
81,94,84814,2,0,B|110:110|110:110|146:102,1,70,6|0,0:0|0:0,0:0:0:0:
266,15,85086,2,0,B|236:32|236:32|225:66,1,70,2|0,0:0|0:0,0:0:0:0:
242,214,85359,2,0,B|241:179|241:179|217:152,1,70,6|0,0:0|0:0,0:0:0:0:
89,292,85632,5,10,0:0:0:0:
182,295,85768,1,0,0:0:0:0:
275,299,85904,1,4,0:0:0:0:
368,303,86041,1,0,0:0:0:0:
255,217,86177,5,4,0:0:0:0:
334,377,86314,1,0,0:0:0:0:
429,230,86450,2,0,P|437:195|431:161,1,70
204,63,86723,2,0,L|134:66,1,70,8|0,0:0|0:0,0:0:0:0:
288,149,86996,2,0,L|357:152,1,70,4|0,0:0|0:0,0:0:0:0:
286,69,87268,5,0,0:0:0:0:
181,228,87405,1,0,0:0:0:0:
376,233,87541,1,4,0:0:0:0:
210,142,87677,1,0,0:0:0:0:
303,276,87814,6,0,L|307:298,9,23.3333333333333,8|0|0|0|0|0|0|0|0|4,0:0|0:0|0:0|0:0|0:0|0:0|0:0|0:0|0:0|0:0,0:0:0:0:
378,323,88359,6,0,L|238:329,1,140,4|0,0:0|0:0,0:0:0:0:
93,227,88768,1,0,0:0:0:0:
148,300,88905,2,0,B|151:336|151:336|142:368,1,70,8|0,0:0|0:0,0:0:0:0:
11,209,89177,2,0,B|7:172|7:172|14:140,1,70,4|0,0:0|0:0,0:0:0:0:
188,74,89450,5,0,0:0:0:0:
185,211,89586,1,0,0:0:0:0:
90,129,89723,1,6,0:0:0:0:
264,53,89859,1,0,0:0:0:0:
322,229,89996,2,0,P|258:252|196:224,1,140,10|4,0:0|0:0,0:0:0:0:
370,151,90541,6,0,P|434:126|497:155,1,140,6|0,0:0|0:0,0:0:0:0:
380,290,90950,1,0,0:0:0:0:
263,159,91087,2,0,L|268:89,1,70,8|0,0:0|0:0,0:0:0:0:
123,274,91359,2,0,L|128:343,1,70,4|0,0:0|0:0,0:0:0:0:
55,149,91632,5,0,0:0:0:0:
137,255,91768,1,0,0:0:0:0:
91,70,91905,2,0,P|85:36|87:2,1,70,4|0,0:0|0:0,0:0:0:0:
182,143,92177,6,0,L|177:165,9,23.3333333333333,8|0|0|0|0|0|0|0|0|0,0:0|0:0|0:0|0:0|0:0|0:0|0:0|0:0|0:0|0:0,0:0:0:0:
106,195,92723,6,0,L|245:203,2,140,4|0|8,0:0|0:0|0:0,0:0:0:0:
355,30,93541,2,0,L|344:99,1,70,6|0,0:0|0:0,0:0:0:0:
508,158,93813,2,0,L|453:114,1,70,2|0,0:0|0:0,0:0:0:0:
320,226,94087,2,0,L|384:199,1,70,6|0,0:0|0:0,0:0:0:0:
177,30,94359,5,10,0:0:0:0:
118,89,94495,1,0,0:0:0:0:
177,149,94631,1,4,0:0:0:0:
237,89,94768,1,0,0:0:0:0:
41,46,94905,6,0,B|30:185,1,140,4|0,0:0|0:0,0:0:0:0:
136,272,95314,1,4,0:0:0:0:
187,203,95450,2,0,P|154:191|119:192,1,70,8|0,0:0|0:0,0:0:0:0:
7,317,95722,2,0,P|40:329|75:328,1,70,4|0,0:0|0:0,0:0:0:0:
290,145,95996,5,0,0:0:0:0:
152,353,96269,1,0,0:0:0:0:
20,71,96541,6,0,L|42:75,9,23.3333333333333,8|0|0|0|0|0|0|0|0|0,0:0|0:0|0:0|0:0|0:0|0:0|0:0|0:0|0:0|0:0,0:0:0:0:
116,40,97087,6,0,L|120:109,1,70,4|0,0:0|0:0,0:0:0:0:
216,326,97359,2,0,L|220:256,1,70,0|4,0:0|0:0,0:0:0:0:
208,143,97632,1,8,0:0:0:0:
133,278,97768,1,0,0:0:0:0:
280,195,97905,1,4,0:0:0:0:
70,190,98041,1,0,0:0:0:0:
70,190,98109,1,0,0:0:0:0:
70,190,98177,6,0,L|139:197,1,70
313,283,98450,2,0,L|243:290,1,70,6|0,0:0|0:0,0:0:0:0:
210,67,98723,1,10,0:0:0:0:
255,213,98859,1,0,0:0:0:0:
207,39,98996,1,6,0:0:0:0:
127,212,99132,1,0,0:0:0:0:
324,270,99268,6,0,P|333:237|333:202,1,70,4|0,0:0|0:0,0:0:0:0:
189,149,99541,1,0,0:0:0:0:
94,297,99677,1,0,0:0:0:0:
20,146,99814,2,0,P|13:111|21:78,1,70,8|0,0:0|0:0,0:0:0:0:
223,46,100087,1,4,0:0:0:0:
206,225,100223,1,0,0:0:0:0:
206,225,100291,1,0,0:0:0:0:
206,225,100359,6,0,L|136:223,1,70
288,129,100632,1,4,0:0:0:0:
324,271,100768,1,0,0:0:0:0:
433,197,100905,6,0,L|455:201,9,23.3333333333333,8|0|0|0|0|0|0|0|0|4,0:0|0:0|0:0|0:0|0:0|0:0|0:0|0:0|0:0|0:0,0:0:0:0:
379,137,101450,6,0,L|309:139,1,70,4|0,0:0|0:0,0:0:0:0:
237,280,101723,2,0,L|306:282,1,70,0|4,0:0|0:0,0:0:0:0:
202,175,101996,1,8,0:0:0:0:
238,377,102132,1,0,0:0:0:0:
290,151,102268,2,0,P|295:116|290:81,1,70,4|0,0:0|0:0,0:0:0:0:
27,158,102541,5,2,0:0:0:0:
194,199,102677,1,0,0:0:0:0:
80,82,102814,1,6,0:0:0:0:
123,277,102950,1,0,0:0:0:0:
202,175,103087,2,0,L|195:105,1,70,10|0,0:0|0:0,0:0:0:0:
25,289,103359,2,0,L|18:358,1,70,4|0,0:0|0:0,0:0:0:0:
201,226,103632,5,4,0:0:0:0:
102,324,103768,1,0,0:0:0:0:
48,215,103905,1,0,0:0:0:0:
260,315,104041,1,0,0:0:0:0:
208,110,104177,2,0,L|138:115,1,70,8|0,0:0|0:0,0:0:0:0:
353,225,104450,2,0,L|422:230,1,70,4|0,0:0|0:0,0:0:0:0:
293,163,104723,5,0,0:0:0:0:
365,347,104859,1,0,0:0:0:0:
391,131,104996,2,0,B|400:97|400:97|390:63,1,70,4|0,0:0|0:0,0:0:0:0:
439,220,105268,6,0,L|461:224,9,23.3333333333333,8|0|0|0|0|0|0|0|0|0,0:0|0:0|0:0|0:0|0:0|0:0|0:0|0:0|0:0|0:0,0:0:0:0:
377,269,105814,6,0,L|384:338,1,70,4|0,0:0|0:0,0:0:0:0:
255,171,106087,2,0,L|262:101,1,70,0|4,0:0|0:0,0:0:0:0:
334,199,106359,1,8,0:0:0:0:
201,360,106496,1,0,0:0:0:0:
179,128,106632,1,4,0:0:0:0:
293,295,106768,1,0,0:0:0:0:
293,295,106837,1,0,0:0:0:0:
293,295,106905,6,0,L|281:364,1,70
153,207,107177,2,0,L|164:137,1,70,6|0,0:0|0:0,0:0:0:0:
365,228,107450,2,0,L|376:297,1,70,10|0,0:0|0:0,0:0:0:0:
238,110,107723,2,0,L|249:40,1,70,6|0,0:0|0:0,0:0:0:0:
481,109,107996,5,4,0:0:0:0:
444,220,108132,1,0,0:0:0:0:
288,176,108268,1,0,0:0:0:0:
402,152,108404,1,0,0:0:0:0:
361,313,108541,2,0,L|291:312,1,70,8|0,0:0|0:0,0:0:0:0:
159,189,108814,1,4,0:0:0:0:
124,307,108950,1,0,0:0:0:0:
124,307,109018,1,0,0:0:0:0:
124,307,109087,6,0,L|130:376,1,70
268,232,109359,2,0,L|274:162,1,70,4|0,0:0|0:0,0:0:0:0:
70,235,109632,6,0,L|47:239,9,23.3333333333333,8|0|0|0|0|0|0|0|0|4,0:0|0:0|0:0|0:0|0:0|0:0|0:0|0:0|0:0|0:0,0:0:0:0:
148,208,110177,6,0,L|217:214,1,70,4|0,0:0|0:0,0:0:0:0:
401,103,110450,2,0,L|331:109,1,70,0|4,0:0|0:0,0:0:0:0:
213,129,110723,1,8,0:0:0:0:
261,287,110859,1,0,0:0:0:0:
321,87,110996,2,0,P|327:52|324:17,1,70,4|0,0:0|0:0,0:0:0:0:
66,97,111268,6,0,L|135:100,1,70,2|0,0:0|0:0,0:0:0:0:
322,206,111541,1,6,0:0:0:0:
259,315,111677,1,0,0:0:0:0:
193,209,111814,1,10,0:0:0:0:
379,316,111950,1,0,0:0:0:0:
134,297,112087,2,0,L|64:295,1,70,4|0,0:0|0:0,0:0:0:0:
203,220,112359,5,4,0:0:0:0:
115,377,112496,1,0,0:0:0:0:
80,162,112632,1,0,0:0:0:0:
150,307,112769,1,0,0:0:0:0:
192,122,112905,2,0,B|194:85|194:85|180:54,1,70,8|0,0:0|0:0,0:0:0:0:
39,236,113177,2,0,B|37:273|37:273|50:303,1,70,4|0,0:0|0:0,0:0:0:0:
217,213,113450,5,0,0:0:0:0:
62,159,113587,1,0,0:0:0:0:
234,293,113723,2,0,L|303:290,1,70,4|0,0:0|0:0,0:0:0:0:
352,168,113996,6,0,P|340:224|392:200,1,140,8|0,0:0|0:0,0:0:0:0:
392,201,114541,5,0,0:0:0:0:
457,110,115087,1,0,0:0:0:0:
392,19,115632,1,0,0:0:0:0:
285,54,116177,1,0,0:0:0:0:
285,166,116723,5,0,0:0:0:0:
392,201,117268,1,0,0:0:0:0:
392,313,117814,1,0,0:0:0:0:
285,348,118359,1,0,0:0:0:0:
220,257,118904,5,0,0:0:0:0:
285,166,119450,1,0,0:0:0:0:
220,75,119995,1,0,0:0:0:0:
113,110,120540,1,0,0:0:0:0:
113,222,121086,5,0,0:0:0:0:
220,257,121632,1,0,0:0:0:0:
285,166,122178,1,0,0:0:0:0:
285,166,123268,6,0,L|424:175,2,140
184,32,124087,1,0,0:0:0:0:
23,232,124359,2,0,L|162:222,1,140
280,146,124905,6,0,L|257:150,4,23.3333333333333
275,297,125177,2,0,L|252:292,4,23.3333333333333
370,216,125450,5,0,0:0:0:0:
154,146,125723,1,0,0:0:0:0:
288,330,125996,1,0,0:0:0:0:
288,103,126268,1,0,0:0:0:0:
154,286,126541,1,0,0:0:0:0:
370,216,126814,1,0,0:0:0:0:
154,146,127087,6,0,L|84:151,2,70
230,110,127496,1,0,0:0:0:0:
284,171,127632,6,0,P|305:236|270:294,1,140
114,275,128177,2,0,P|158:225|226:225,1,140
288,372,128723,2,0,P|222:357|189:298,1,140
298,160,129268,6,0,L|320:164,4,23.3333333333333
149,152,129541,2,0,L|126:156,4,23.3333333333333
320,65,129814,6,0,L|311:134,1,70
169,305,130087,2,0,L|161:236,1,70
351,236,130359,2,0,L|342:305,1,70
200,134,130632,2,0,L|192:65,1,70
256,192,130905,5,0,0:0:0:0:
256,192,131996,6,0,L|249:261,1,70,4|0,0:0|0:0,0:0:0:0:
105,147,132268,2,0,B|97:112|97:112|103:78,1,70,0|4,0:0|0:0,0:0:0:0:
268,108,132541,1,8,0:0:0:0:
174,200,132677,1,0,0:0:0:0:
212,38,132814,1,4,0:0:0:0:
334,152,132950,6,0,P|401:163|454:121,1,140
260,96,133359,2,0,P|193:85|140:127,1,140,4|8,0:0|0:0,0:0:0:0:
184,274,133768,1,0,0:0:0:0:
215,168,133905,1,4,0:0:0:0:
101,205,134041,1,0,0:0:0:0:
292,245,134177,6,0,L|361:242,1,70,4|0,0:0|0:0,0:0:0:0:
136,356,134450,2,0,L|66:353,1,70
200,156,134723,1,8,0:0:0:0:
203,284,134859,1,0,0:0:0:0:
50,139,134996,2,0,P|49:105|60:72,1,70,4|0,0:0|0:0,0:0:0:0:
311,186,135268,6,0,L|303:255,1,70
196,140,135541,2,0,L|203:70,1,70,4|0,0:0|0:0,0:0:0:0:
193,269,135814,6,0,L|170:264,4,23.3333333333333,10|0|0|0|0,0:0|0:0|0:0|0:0|0:0,0:0:0:0:
319,350,136087,2,0,L|341:345,4,23.3333333333333,10|0|0|4|0,0:0|0:0|0:0|0:0|0:0,0:0:0:0:
186,354,136359,6,0,P|151:348|116:353,1,70,4|0,0:0|0:0,0:0:0:0:
339,265,136632,2,0,P|345:230|340:195,1,70,0|4,0:0|0:0,0:0:0:0:
294,73,136905,1,8,0:0:0:0:
181,132,137041,1,0,0:0:0:0:
388,128,137177,2,0,L|457:122,1,70,4|0,0:0|0:0,0:0:0:0:
194,141,137450,6,0,P|189:176|193:211,1,70
306,80,137723,2,0,P|311:45|307:10,1,70,4|0,0:0|0:0,0:0:0:0:
77,49,137996,2,0,L|216:53,1,140,8|4,0:0|0:0,0:0:0:0:
365,184,138541,5,4,0:0:0:0:
281,326,138677,1,0,0:0:0:0:
281,157,138813,1,0,0:0:0:0:
426,242,138950,1,0,0:0:0:0:
224,241,139087,2,0,P|190:246|156:240,1,70,8|0,0:0|0:0,0:0:0:0:
372,329,139359,2,0,P|407:323|441:329,1,70,4|0,0:0|0:0,0:0:0:0:
277,308,139632,6,0,P|250:246|274:181,1,140,0|4,0:0|0:0,0:0:0:0:
454,157,140177,6,0,L|476:161,9,23.3333333333333,8|0|0|0|0|0|0|0|0|0,0:0|0:0|0:0|0:0|0:0|0:0|0:0|0:0|0:0|0:0,0:0:0:0:
401,97,140723,6,0,P|428:159|404:224,2,140,4|0|8,0:0|0:0|0:0,0:0:0:0:
255,102,141405,1,0,0:0:0:0:
338,163,141541,1,4,0:0:0:0:
316,20,141677,6,0,L|176:15,1,140
13,117,142087,2,0,P|75:144|138:117,1,140,4|8,0:0|0:0,0:0:0:0:
325,174,142496,2,0,L|319:243,1,70,0|4,0:0|0:0,0:0:0:0:
208,167,142768,1,0,0:0:0:0:
394,128,142905,6,0,P|429:123|463:131,1,70,4|0,0:0|0:0,0:0:0:0:
236,248,143177,2,0,P|201:253|167:245,1,70
225,169,143450,1,8,0:0:0:0:
165,327,143587,1,0,0:0:0:0:
132,124,143723,2,0,P|130:89|141:56,1,70,4|0,0:0|0:0,0:0:0:0:
317,169,143996,6,0,L|325:238,1,70
450,117,144268,2,0,L|458:47,1,70,4|0,0:0|0:0,0:0:0:0:
254,28,144541,6,0,L|276:32,4,23.3333333333333,10|0|0|0|0,0:0|0:0|0:0|0:0|0:0,0:0:0:0:
372,85,144814,2,0,L|350:89,4,23.3333333333333,10|0|0|0|0,0:0|0:0|0:0|0:0|0:0,0:0:0:0:
172,84,145087,6,0,L|171:153,1,70,4|0,0:0|0:0,0:0:0:0:
95,358,145359,2,0,L|94:288,1,70,0|4,0:0|0:0,0:0:0:0:
89,151,145632,1,8,0:0:0:0:
172,316,145768,1,0,0:0:0:0:
180,164,145905,1,4,0:0:0:0:
39,225,146041,1,0,0:0:0:0:
250,220,146177,6,0,L|319:223,1,70
488,313,146450,2,0,L|418:316,1,70,4|0,0:0|0:0,0:0:0:0:
393,105,146723,2,0,P|422:168|403:234,1,140,8|4,0:0|0:0,0:0:0:0:
105,91,147268,5,4,0:0:0:0:
250,134,147405,1,0,0:0:0:0:
96,174,147541,1,0,0:0:0:0:
142,14,147677,1,0,0:0:0:0:
248,215,147814,2,0,L|245:284,1,70,8|0,0:0|0:0,0:0:0:0:
41,325,148087,2,0,L|38:255,1,70,4|0,0:0|0:0,0:0:0:0:
165,290,148359,5,0,0:0:0:0:
29,239,148496,1,0,0:0:0:0:
260,203,148632,2,0,L|329:206,1,70,4|0,0:0|0:0,0:0:0:0:
429,150,148905,6,0,L|425:172,9,23.3333333333333,8|0|0|0|0|0|0|0|0|0,0:0|0:0|0:0|0:0|0:0|0:0|0:0|0:0|0:0|0:0,0:0:0:0:
470,254,149450,6,0,L|400:256,1,70,4|0,0:0|0:0,0:0:0:0:
140,314,149723,1,0,0:0:0:0:
305,182,149859,1,4,0:0:0:0:
240,353,149996,1,8,0:0:0:0:
205,144,150132,1,0,0:0:0:0:
320,286,150268,1,4,0:0:0:0:
124,211,150405,1,0,0:0:0:0:
124,211,150473,1,0,0:0:0:0:
123,210,150541,6,0,P|117:176|120:142,1,70
287,77,150814,1,6,0:0:0:0:
223,249,150950,1,0,0:0:0:0:
118,48,151087,2,0,L|187:52,1,70,10|0,0:0|0:0,0:0:0:0:
374,177,151359,2,0,L|304:181,1,70,6|0,0:0|0:0,0:0:0:0:
287,77,151632,5,4,0:0:0:0:
389,252,151768,1,0,0:0:0:0:
467,49,151905,1,0,0:0:0:0:
469,319,152041,1,0,0:0:0:0:
387,116,152177,1,8,0:0:0:0:
289,291,152313,1,0,0:0:0:0:
362,30,152450,1,4,0:0:0:0:
505,192,152587,1,0,0:0:0:0:
505,192,152655,1,0,0:0:0:0:
505,192,152723,6,0,L|435:182,1,70
196,122,152996,2,0,L|265:112,1,70,4|0,0:0|0:0,0:0:0:0:
380,26,153268,6,0,L|376:48,9,23.3333333333333,8|0|0|0|0|0|0|0|0|4,0:0|0:0|0:0|0:0|0:0|0:0|0:0|0:0|0:0|0:0,0:0:0:0:
346,132,153814,6,0,P|355:166|355:201,1,70,4|0,0:0|0:0,0:0:0:0:
189,272,154087,2,0,P|214:247|244:229,1,70,0|4,0:0|0:0,0:0:0:0:
389,339,154359,2,0,P|355:328|325:311,1,70,8|0,0:0|0:0,0:0:0:0:
135,196,154632,1,4,0:0:0:0:
215,359,154768,1,0,0:0:0:0:
288,156,154905,6,0,P|297:122|297:87,1,70,2|0,0:0|0:0,0:0:0:0:
127,124,155177,2,0,P|118:158|118:193,1,70,6|0,0:0|0:0,0:0:0:0:
362,197,155450,1,10,0:0:0:0:
139,46,155587,1,0,0:0:0:0:
173,249,155723,1,4,0:0:0:0:
209,137,155859,1,0,0:0:0:0:
21,263,155996,5,4,0:0:0:0:
254,236,156132,1,0,0:0:0:0:
45,144,156268,1,0,0:0:0:0:
172,342,156405,1,0,0:0:0:0:
299,129,156541,2,0,L|301:59,1,70,8|0,0:0|0:0,0:0:0:0:
397,273,156814,2,0,L|399:342,1,70,4|0,0:0|0:0,0:0:0:0:
314,217,157087,5,0,0:0:0:0:
491,287,157223,1,0,0:0:0:0:
280,307,157359,2,0,P|246:316|211:312,1,70,4|0,0:0|0:0,0:0:0:0:
397,163,157632,6,0,L|401:185,9,23.3333333333333,8|0|0|0|0|0|0|0|0|0,0:0|0:0|0:0|0:0|0:0|0:0|0:0|0:0|0:0|0:0,0:0:0:0:
316,128,158177,6,0,P|282:119|247:123,1,70,4|0,0:0|0:0,0:0:0:0:
170,262,158450,2,0,P|187:231|192:196,1,70,0|4,0:0|0:0,0:0:0:0:
205,30,158723,1,8,0:0:0:0:
42,193,158860,1,0,0:0:0:0:
266,252,158996,1,4,0:0:0:0:
122,96,159132,1,0,0:0:0:0:
122,96,159200,1,0,0:0:0:0:
122,96,159268,6,0,L|118:165,1,70
262,340,159541,2,0,L|258:270,1,70,6|0,0:0|0:0,0:0:0:0:
284,90,159814,1,10,0:0:0:0:
488,136,159950,1,0,0:0:0:0:
261,107,160087,1,6,0:0:0:0:
501,111,160223,1,0,0:0:0:0:
327,17,160359,5,4,0:0:0:0:
382,226,160496,1,0,0:0:0:0:
198,159,160632,1,0,0:0:0:0:
426,67,160768,1,0,0:0:0:0:
168,17,160905,2,0,P|133:15|98:22,1,70,8|0,0:0|0:0,0:0:0:0:
6,168,161177,1,4,0:0:0:0:
98,313,161314,1,0,0:0:0:0:
98,313,161382,1,0,0:0:0:0:
98,313,161450,6,0,P|132:319|167:319,1,70
357,304,161723,2,0,L|352:373,1,70,4|0,0:0|0:0,0:0:0:0:
274,191,161996,6,0,L|297:194,9,23.3333333333333,8|0|0|0|0|0|0|0|0|4,0:0|0:0|0:0|0:0|0:0|0:0|0:0|0:0|0:0|0:0,0:0:0:0:
279,112,162541,6,0,L|277:42,1,70,4|0,0:0|0:0,0:0:0:0:
380,276,162814,2,0,B|381:311|381:311|367:343,1,70,0|4,0:0|0:0,0:0:0:0:
203,152,163087,1,8,0:0:0:0:
377,189,163223,1,0,0:0:0:0:
141,276,163359,1,4,0:0:0:0:
184,26,163495,1,0,0:0:0:0:
442,110,163632,6,0,L|372:107,1,70,2|0,0:0|0:0,0:0:0:0:
129,171,163905,2,0,L|198:168,1,70,6|0,0:0|0:0,0:0:0:0:
300,58,164177,1,10,0:0:0:0:
279,300,164314,1,0,0:0:0:0:
120,148,164450,1,4,0:0:0:0:
362,127,164587,1,0,0:0:0:0:
137,38,164723,5,4,0:0:0:0:
199,272,164860,1,0,0:0:0:0:
207,85,164995,1,0,0:0:0:0:
114,334,165132,1,0,0:0:0:0:
22,163,165268,2,0,L|26:93,1,70,8|0,0:0|0:0,0:0:0:0:
205,211,165541,2,0,L|209:280,1,70,4|0,0:0|0:0,0:0:0:0:
326,140,165814,5,0,0:0:0:0:
112,213,165950,1,0,0:0:0:0:
307,281,166087,2,0,P|341:292|375:289,1,70,4|0,0:0|0:0,0:0:0:0:
246,113,166359,6,0,L|242:136,9,23.3333333333333,8|0|0|0|0|0|0|0|0|0,0:0|0:0|0:0|0:0|0:0|0:0|0:0|0:0|0:0|0:0,0:0:0:0:
254,220,166905,6,0,P|267:253|263:288,1,70,4|0,0:0|0:0,0:0:0:0:
154,114,167177,2,0,L|154:44,1,70
347,164,167450,2,0,L|371:99,1,70
166,204,167723,2,0,L|166:134,1,70
329,252,167996,2,0,L|353:187,1,70
178,294,168268,2,0,L|177:224,1,70
311,340,168541,6,0,L|307:363,3,23.3333333333333
311,340,168814,2,0,L|335:275,1,70
279,89,169087,6,0,B|271:124|271:124|278:157,1,70,4|0,0:0|0:0,0:0:0:0:
500,134,169359,2,0,L|430:129,1,70
201,153,169632,1,8,0:0:0:0:
361,198,169768,1,0,0:0:0:0:
332,24,169905,1,4,0:0:0:0:
264,240,170041,1,0,0:0:0:0:
264,240,170109,1,0,0:0:0:0:
264,240,170177,6,0,L|260:309,1,70
112,189,170450,2,0,L|108:119,1,70,4|0,0:0|0:0,0:0:0:0:
286,96,170723,6,0,L|282:119,9,23.3333333333333,8|0|0|0|0|0|0|0|0|4,0:0|0:0|0:0|0:0|0:0|0:0|0:0|0:0|0:0|0:0,0:0:0:0:
332,188,171268,6,0,L|401:191,1,70,4|0,0:0|0:0,0:0:0:0:
365,113,171541,1,0,0:0:0:0:
408,272,171677,1,4,0:0:0:0:
465,124,171814,2,0,P|462:90|449:57,1,70,8|0,0:0|0:0,0:0:0:0:
317,270,172087,1,4,0:0:0:0:
481,210,172223,1,0,0:0:0:0:
246,189,172359,6,0,L|176:193,1,70
67,83,172632,2,0,L|136:87,1,70,4|0,0:0|0:0,0:0:0:0:
217,277,172905,1,8,0:0:0:0:
92,177,173041,1,0,0:0:0:0:
235,41,173177,2,0,P|240:76|234:111,1,70,4|0,0:0|0:0,0:0:0:0:
177,350,173450,5,4,0:0:0:0:
30,248,173587,1,0,0:0:0:0:
155,226,173723,1,0,0:0:0:0:
53,374,173859,1,0,0:0:0:0:
292,300,173996,2,0,L|361:305,1,70,8|0,0:0|0:0,0:0:0:0:
277,148,174268,2,0,L|207:153,1,70,4|0,0:0|0:0,0:0:0:0:
337,89,174541,5,0,0:0:0:0:
245,229,174677,1,0,0:0:0:0:
203,75,174814,2,0,P|202:40|216:8,1,70,4|0,0:0|0:0,0:0:0:0:
360,171,175087,6,0,L|363:194,9,23.3333333333333,8|0|0|0|0|0|0|0|0|0,0:0|0:0|0:0|0:0|0:0|0:0|0:0|0:0|0:0|0:0,0:0:0:0:
448,141,175632,6,0,L|443:210,1,70,4|0,0:0|0:0,0:0:0:0:
302,369,175905,2,0,L|297:299,1,70,0|4,0:0|0:0,0:0:0:0:
194,162,176177,1,8,0:0:0:0:
128,325,176314,1,0,0:0:0:0:
27,206,176450,1,4,0:0:0:0:
220,242,176587,1,0,0:0:0:0:
220,242,176655,1,0,0:0:0:0:
220,242,176723,6,0,P|220:276|207:308,1,70
106,166,176996,2,0,P|93:135|93:100,1,70,4|0,0:0|0:0,0:0:0:0:
340,98,177268,1,8,0:0:0:0:
194,162,177405,1,0,0:0:0:0:
255,27,177541,2,0,L|253:96,1,70,4|0,0:0|0:0,0:0:0:0:
394,239,177814,6,0,L|392:169,1,70,4|0,0:0|0:0,0:0:0:0:
310,265,178087,1,0,0:0:0:0:
477,226,178223,1,0,0:0:0:0:
271,176,178359,2,0,P|238:169|203:170,1,70,8|0,0:0|0:0,0:0:0:0:
140,242,178632,1,4,0:0:0:0:
171,28,178768,1,0,0:0:0:0:
171,28,178837,1,0,0:0:0:0:
170,27,178905,6,0,P|172:62|164:96,1,70
44,269,179177,2,0,P|41:235|49:201,1,70,4|0,0:0|0:0,0:0:0:0:
62,53,179450,6,0,L|38:56,9,23.3333333333333,8|0|0|0|0|0|0|0|0|4,0:0|0:0|0:0|0:0|0:0|0:0|0:0|0:0|0:0|0:0,0:0:0:0:
96,132,179996,6,0,L|165:136,1,70,4|0,0:0|0:0,0:0:0:0:
264,28,180268,2,0,L|194:32,1,70,0|4,0:0|0:0,0:0:0:0:
175,221,180541,1,8,0:0:0:0:
361,160,180677,1,0,0:0:0:0:
260,119,180814,2,0,P|254:153|256:187,1,70,4|0,0:0|0:0,0:0:0:0:
441,310,181087,6,0,L|371:313,1,70
240,266,181359,1,4,0:0:0:0:
327,381,181496,1,0,0:0:0:0:
369,232,181632,2,0,B|379:198|379:198|375:163,1,70,8|0,0:0|0:0,0:0:0:0:
191,142,181905,2,0,B|181:176|181:176|184:210,1,70,4|0,0:0|0:0,0:0:0:0:
272,118,182177,5,4,0:0:0:0:
110,230,182313,1,0,0:0:0:0:
249,256,182449,1,0,0:0:0:0:
135,93,182587,1,0,0:0:0:0:
30,255,182723,2,0,L|36:324,1,70,8|0,0:0|0:0,0:0:0:0:
184,210,182996,2,0,L|195:141,1,70,4|0,0:0|0:0,0:0:0:0:
316,305,183268,6,0,L|315:374,2,70,0|0|4,0:0|0:0|0:0,0:0:0:0:
298,166,183814,6,0,L|274:169,9,23.3333333333333,8|0|0|0|0|0|0|0|0|0,0:0|0:0|0:0|0:0|0:0|0:0|0:0|0:0|0:0|0:0,0:0:0:0:
379,166,184359,6,0,L|372:235,2,70,4|0|0,0:0|0:0|0:0,0:0:0:0:
355,9,184768,1,4,0:0:0:0:
296,79,184905,2,0,P|262:87|227:82,1,70,8|0,0:0|0:0,0:0:0:0:
441,35,185177,2,0,P|476:29|510:37,1,70,4|0,0:0|0:0,0:0:0:0:
399,178,185450,5,0,0:0:0:0:
381,88,185587,1,0,0:0:0:0:
488,169,185723,2,0,L|482:238,1,70,4|0,0:0|0:0,0:0:0:0:
318,283,185996,2,0,P|291:220|319:158,1,140,8|4,0:0|0:0,0:0:0:0:
320,159,186541,6,0,L|180:162,1,140,4|0,0:0|0:0,0:0:0:0:
107,108,186950,1,0,0:0:0:0:
166,248,187087,2,0,P|171:283|162:317,1,70,8|0,0:0|0:0,0:0:0:0:
81,276,187359,1,4,0:0:0:0:
257,242,187496,6,0,B|324:254|324:254|385:217,2,140
291,151,188177,6,0,L|305:169,9,23.3333333333333,8|0|0|0|0|0|0|0|0|0,0:0|0:0|0:0|0:0|0:0|0:0|0:0|0:0|0:0|0:0,0:0:0:0:
214,98,188723,6,0,B|274:60|274:60|342:73,1,140,4|0,0:0|0:0,0:0:0:0:
413,130,189132,1,4,0:0:0:0:
490,82,189268,2,0,L|482:12,2,70,8|0|4,0:0|0:0|0:0,0:0:0:0:
382,212,189677,6,0,B|376:245|376:245|385:280,1,70
512,360,189950,2,0,B|486:338|486:338|451:328,1,70,0|4,0:3|0:0,0:3:0:0:
331,340,190223,1,0,0:0:0:0:
260,231,190359,2,0,L|248:370,1,140,8|4,0:0|0:0,0:0:0:0:
69,147,190905,5,4,0:0:0:0:
157,124,191041,1,0,0:0:0:0:
180,211,191178,1,0,0:0:0:0:
93,236,191314,1,0,0:0:0:0:
230,151,191450,6,0,L|299:155,1,70,8|0,0:0|0:0,0:0:0:0:
96,75,191723,2,0,L|26:79,1,70,4|0,0:0|0:0,0:0:0:0:
18,208,191996,6,0,L|87:212,2,70,0|0|4,0:0|0:0|0:0,0:0:0:0:
153,285,192541,6,0,L|143:306,9,23.3333333333333,8|0|0|0|0|0|0|0|0|0,0:0|0:0|0:0|0:0|0:0|0:0|0:0|0:0|0:0|0:0,0:0:0:0:
102,377,193087,6,0,L|32:381,2,70,4|0|0,0:0|0:0|0:0,0:0:0:0:
239,260,193496,1,4,0:0:0:0:
313,312,193632,2,0,P|315:346|306:380,1,70,8|0,0:0|0:0,0:0:0:0:
292,187,193905,2,0,P|289:153|298:119,1,70,4|0,0:0|0:0,0:0:0:0:
361,240,194177,5,0,0:0:0:0:
229,246,194314,1,0,0:0:0:0:
383,163,194450,2,0,L|452:169,1,70,4|0,0:0|0:0,0:0:0:0:
486,362,194723,2,0,P|440:313|442:245,1,140,8|4,0:0|0:0,0:0:0:0:
443,244,195268,6,0,P|488:194|485:126,1,140,4|0,0:0|0:0,0:0:0:0:
413,72,195677,1,0,0:0:0:0:
297,119,195814,2,0,P|289:152|291:187,2,70,8|0|4,0:0|0:0|0:0,0:0:0:0:
329,33,196223,6,0,L|259:34,1,70
142,110,196496,2,0,L|211:111,1,70,0|4,0:0|0:0,0:0:0:0:
90,40,196768,1,0,0:0:0:0:
124,192,196905,6,0,L|118:214,9,23.3333333333333,8|0|0|0|0|0|0|0|0|4,0:0|0:0|0:0|0:0|0:0|0:0|0:0|0:0|0:0|0:0,0:0:0:0:
47,246,197450,6,0,L|186:242,1,140,4|0,0:0|0:0,0:0:0:0:
245,173,197859,1,4,0:0:0:0:
236,308,197996,2,0,P|239:343|255:374,1,70,8|0,0:0|0:0,0:0:0:0:
470,334,198268,1,4,0:0:0:0:
433,250,198405,6,0,L|293:246,2,140
511,120,199087,2,0,P|510:154|500:188,1,70,8|0,0:0|0:0,0:0:0:0:
376,87,199359,2,0,P|407:69|441:60,1,70,4|0,0:0|0:0,0:0:0:0:
342,167,199632,6,0,L|272:163,1,70,4|0,0:0|0:0,0:0:0:0:
73,68,199905,2,0,L|142:71,1,70
304,243,200177,2,0,L|234:239,1,70
77,153,200450,2,0,L|146:156,1,70
266,319,200723,2,0,L|196:314,1,70
82,238,200996,2,0,L|151:242,1,70
272,163,201268,6,0,L|266:185,6,23.3333333333333
