osu file format v14

[General]
AudioFilename: audio.mp3
AudioLeadIn: 0
PreviewTime: -1
Countdown: 1
SampleSet: Normal
StackLeniency: 0.7
Mode: 1
LetterboxInBreaks: 0
WidescreenStoryboard: 0

[Editor]
DistanceSpacing: 1.6
BeatDivisor: 8
GridSize: 32
TimelineZoom: 2.2

[Metadata]
Title:Flamingo (WTN3 Remix)
TitleUnicode:Flamingo (WTN3 Remix)
Artist:Kero Kero Bonito
ArtistUnicode:Kero Kero Bonito
Creator:Ayachi Meme
Version:
Source:
Tags:
BeatmapID:1559991
BeatmapSetID:739276

[Difficulty]
HPDrainRate:5
CircleSize:5
OverallDifficulty:5
ApproachRate:5
SliderMultiplier:2.99999990463257
SliderTickRate:1

[Events]
//Background and Video events
//Break Periods
//Storyboard Layer 0 (Background)
//Storyboard Layer 1 (Fail)
//Storyboard Layer 2 (Pass)
//Storyboard Layer 3 (Foreground)
//Storyboard Sound Samples

[TimingPoints]
1087,545.454545454546,4,1,1,80,1,0
1087,-133.333333333333,4,1,1,80,0,0
27268,-100,4,1,1,80,0,1
44723,-100,4,1,1,80,0,0
97087,-100,4,1,1,80,0,1
114268,-100,4,1,1,30,0,1
114541,-100,4,1,1,80,0,0
149450,-100,4,1,1,80,0,1
166905,-100,4,1,1,80,0,0

[HitObjects]
256,192,1359,5,8,0:0:0:0:
256,192,1768,1,8,0:0:0:0:
256,192,2177,1,8,0:0:0:0:
256,192,3541,1,8,0:0:0:0:
256,192,3950,1,8,0:0:0:0:
256,192,4359,1,0,0:0:0:0:
256,192,4632,1,0,0:0:0:0:
256,192,4905,1,8,0:0:0:0:
256,192,5177,1,8,0:0:0:0:
256,192,5450,1,8,0:0:0:0:
256,192,5723,1,0,0:0:0:0:
256,192,6132,1,0,0:0:0:0:
256,192,6541,1,0,0:0:0:0:
256,192,7905,1,0,0:0:0:0:
256,192,8314,1,0,0:0:0:0:
256,192,9541,1,8,0:0:0:0:
256,192,9814,1,0,0:0:0:0:
256,192,9950,1,0,0:0:0:0:
256,192,10087,1,0,0:0:0:0:
256,192,10223,1,8,0:0:0:0:
256,192,10495,1,8,0:0:0:0:
256,192,10768,1,0,0:0:0:0:
256,192,10904,1,8,0:0:0:0:
256,192,11177,1,8,0:0:0:0:
256,192,11450,1,0,0:0:0:0:
256,192,11723,1,0,0:0:0:0:
256,192,11996,1,8,0:0:0:0:
256,192,12405,1,0,0:0:0:0:
256,192,12541,1,0,0:0:0:0:
256,192,12677,1,8,0:0:0:0:
256,192,12814,1,0,0:0:0:0:
256,192,12950,1,8,0:0:0:0:
256,192,13223,1,8,0:0:0:0:
256,192,13496,1,0,0:0:0:0:
256,192,13632,1,8,0:0:0:0:
256,192,14177,1,0,0:0:0:0:
256,192,14996,1,0,0:0:0:0:
256,192,15268,1,0,0:0:0:0:
256,192,15541,1,0,0:0:0:0:
256,192,15814,1,8,0:0:0:0:
256,192,15950,1,8,0:0:0:0:
256,192,16087,1,8,0:0:0:0:
256,192,16223,1,0,0:0:0:0:
256,192,16359,1,0,0:0:0:0:
256,192,16496,1,0,0:0:0:0:
256,192,16632,1,8,0:0:0:0:
256,192,16768,1,0,0:0:0:0:
256,192,16905,1,0,0:0:0:0:
256,192,17041,1,8,0:0:0:0:
256,192,17177,1,0,0:0:0:0:
256,192,17314,1,8,0:0:0:0:
256,192,17450,1,8,0:0:0:0:
256,192,17587,1,0,0:0:0:0:
256,192,17723,1,8,0:0:0:0:
256,192,17859,1,0,0:0:0:0:
256,192,17996,1,8,0:0:0:0:
256,192,18132,1,8,0:0:0:0:
256,192,18268,1,0,0:0:0:0:
256,192,18405,1,8,0:0:0:0:
256,192,18541,1,0,0:0:0:0:
256,192,18677,1,0,0:0:0:0:
256,192,18814,1,8,0:0:0:0:
256,192,18950,1,8,0:0:0:0:
256,192,19223,1,8,0:0:0:0:
256,192,19496,1,8,0:0:0:0:
256,192,19632,1,0,0:0:0:0:
256,192,19905,1,8,0:0:0:0:
256,192,20177,1,8,0:0:0:0:
256,192,20450,1,8,0:0:0:0:
256,192,20723,1,0,0:0:0:0:
256,192,21132,1,0,0:0:0:0:
256,192,21268,1,0,0:0:0:0:
256,192,21405,1,0,0:0:0:0:
256,192,21541,1,0,0:0:0:0:
256,192,21677,1,8,0:0:0:0:
256,192,21950,1,8,0:0:0:0:
256,192,22223,1,0,0:0:0:0:
256,192,22359,1,8,0:0:0:0:
256,192,22632,1,8,0:0:0:0:
256,192,22905,1,0,0:0:0:0:
256,192,23314,1,8,0:0:0:0:
256,192,23450,1,0,0:0:0:0:
256,192,23723,1,0,0:0:0:0:
256,192,23859,1,8,0:0:0:0:
256,192,23996,1,0,0:0:0:0:
256,192,24132,1,8,0:0:0:0:
256,192,24268,1,0,0:0:0:0:
256,192,24405,1,8,0:0:0:0:
256,192,24541,1,0,0:0:0:0:
256,192,24677,1,8,0:0:0:0:
256,192,24814,1,8,0:0:0:0:
256,192,24950,1,8,0:0:0:0:
256,192,25087,1,0,0:0:0:0:
256,192,25223,1,8,0:0:0:0:
256,192,25359,1,8,0:0:0:0:
256,192,25496,1,0,0:0:0:0:
256,192,25633,1,8,0:0:0:0:
256,192,25905,1,8,0:0:0:0:
256,192,26177,1,0,0:0:0:0:
256,192,26450,1,0,0:0:0:0:
256,192,26723,1,8,0:0:0:0:
256,192,27268,5,0,0:0:0:0:
256,192,27404,1,0,0:0:0:0:
256,192,27541,1,8,0:0:0:0:
256,192,27677,1,8,0:0:0:0:
256,192,27746,1,0,0:0:0:0:
256,192,27814,1,0,0:0:0:0:
256,192,27950,1,8,0:0:0:0:
256,192,28087,1,0,0:0:0:0:
256,192,28223,1,0,0:0:0:0:
256,192,28291,1,0,0:0:0:0:
256,192,28359,1,8,0:0:0:0:
256,192,28495,1,8,0:0:0:0:
256,192,28632,1,0,0:0:0:0:
256,192,28768,1,0,0:0:0:0:
256,192,28905,1,8,0:0:0:0:
256,192,28973,1,0,0:0:0:0:
256,192,29041,1,0,0:0:0:0:
256,192,29109,1,0,0:0:0:0:
256,192,29178,1,8,0:0:0:0:
256,192,29246,1,8,0:0:0:0:
256,192,29314,1,0,0:0:0:0:
256,192,29450,1,8,0:0:0:0:
256,192,29586,1,0,0:0:0:0:
256,192,29723,1,8,0:0:0:0:
256,192,29859,1,0,0:0:0:0:
256,192,29927,1,0,0:0:0:0:
256,192,29996,1,8,0:0:0:0:
256,192,30132,1,8,0:0:0:0:
256,192,30269,1,0,0:0:0:0:
256,192,30405,1,0,0:0:0:0:
256,192,30473,1,0,0:0:0:0:
256,192,30541,1,8,0:0:0:0:
256,192,30677,1,0,0:0:0:0:
256,192,30814,1,8,0:0:0:0:
256,192,30950,1,0,0:0:0:0:
256,192,31087,1,8,0:0:0:0:
256,192,31132,1,8,0:0:0:0:
256,192,31177,1,0,0:0:0:0:
256,192,31223,1,0,0:0:0:0:
256,192,31268,1,8,0:0:0:0:
256,192,31314,1,8,0:0:0:0:
256,192,31359,1,0,0:0:0:0:
256,192,31405,1,0,0:0:0:0:
256,192,31450,1,8,0:0:0:0:
256,192,31496,1,8,0:0:0:0:
256,192,31541,1,0,0:0:0:0:
256,192,31587,1,0,0:0:0:0:
256,192,31632,1,8,0:0:0:0:
256,192,31768,1,0,0:0:0:0:
256,192,31905,1,8,0:0:0:0:
256,192,31973,1,0,0:0:0:0:
256,192,32041,1,8,0:0:0:0:
256,192,32177,1,0,0:0:0:0:
256,192,32313,1,8,0:0:0:0:
256,192,32382,1,0,0:0:0:0:
256,192,32450,1,0,0:0:0:0:
256,192,32586,1,8,0:0:0:0:
256,192,32723,1,8,0:0:0:0:
256,192,32791,1,0,0:0:0:0:
256,192,32859,1,0,0:0:0:0:
256,192,32996,1,8,0:0:0:0:
256,192,33132,1,0,0:0:0:0:
256,192,33268,1,8,0:0:0:0:
256,192,33337,1,0,0:0:0:0:
256,192,33405,1,0,0:0:0:0:
256,192,33541,1,8,0:0:0:0:
256,192,33609,1,8,0:0:0:0:
256,192,33677,1,0,0:0:0:0:
256,192,33746,1,0,0:0:0:0:
256,192,33814,1,8,0:0:0:0:
256,192,33950,1,8,0:0:0:0:
256,192,34087,1,0,0:0:0:0:
256,192,34223,1,0,0:0:0:0:
256,192,34359,1,8,0:0:0:0:
256,192,34427,1,0,0:0:0:0:
256,192,34495,1,0,0:0:0:0:
256,192,34632,1,8,0:0:0:0:
256,192,34768,1,0,0:0:0:0:
256,192,34905,1,8,0:0:0:0:
256,192,34973,1,0,0:0:0:0:
256,192,35041,1,0,0:0:0:0:
256,192,35178,1,8,0:0:0:0:
256,192,35246,1,0,0:0:0:0:
256,192,35314,1,8,0:0:0:0:
256,192,35450,1,0,0:0:0:0:
256,192,35496,1,8,0:0:0:0:
256,192,35541,1,0,0:0:0:0:
256,192,35587,1,8,0:0:0:0:
256,192,35632,1,0,0:0:0:0:
256,192,35677,1,8,0:0:0:0:
256,192,35723,1,0,0:0:0:0:
256,192,35768,1,8,0:0:0:0:
256,192,35814,1,0,0:0:0:0:
256,192,35859,1,8,0:0:0:0:
256,192,35905,1,0,0:0:0:0:
256,192,35950,1,8,0:0:0:0:
256,192,35996,1,0,0:0:0:0:
256,192,36132,1,0,0:0:0:0:
256,192,36269,1,8,0:0:0:0:
256,192,36405,1,0,0:0:0:0:
256,192,36473,1,0,0:0:0:0:
256,192,36541,1,8,0:0:0:0:
256,192,36677,1,8,0:0:0:0:
256,192,36814,1,0,0:0:0:0:
256,192,36950,1,8,0:0:0:0:
256,192,37018,1,8,0:0:0:0:
256,192,37087,1,8,0:0:0:0:
256,192,37223,1,0,0:0:0:0:
256,192,37360,1,8,0:0:0:0:
256,192,37427,1,0,0:0:0:0:
256,192,37496,1,8,0:0:0:0:
256,192,37632,1,0,0:0:0:0:
256,192,37700,1,8,0:0:0:0:
256,192,37768,1,8,0:0:0:0:
256,192,37837,1,0,0:0:0:0:
256,192,37905,1,8,0:0:0:0:
256,192,37973,1,8,0:0:0:0:
256,192,38041,1,0,0:0:0:0:
256,192,38109,1,0,0:0:0:0:
256,192,38177,1,0,0:0:0:0:
256,192,38313,1,8,0:0:0:0:
256,192,38450,1,8,0:0:0:0:
256,192,38587,1,0,0:0:0:0:
256,192,38655,1,0,0:0:0:0:
256,192,38722,1,8,0:0:0:0:
256,192,38858,1,0,0:0:0:0:
256,192,38995,1,0,0:0:0:0:
256,192,39131,1,8,0:0:0:0:
256,192,39200,1,8,0:0:0:0:
256,192,39268,1,0,0:0:0:0:
256,192,39404,1,0,0:0:0:0:
256,192,39541,1,8,0:0:0:0:
256,192,39677,1,0,0:0:0:0:
256,192,39813,1,8,0:0:0:0:
256,192,39859,5,8,0:0:0:0:
256,192,39905,1,8,0:0:0:0:
256,192,39950,1,8,0:0:0:0:
256,192,39996,1,0,0:0:0:0:
256,192,40041,1,0,0:0:0:0:
256,192,40087,1,0,0:0:0:0:
256,192,40132,1,0,0:0:0:0:
256,192,40177,1,8,0:0:0:0:
256,192,40223,1,8,0:0:0:0:
256,192,40268,1,8,0:0:0:0:
256,192,40314,1,8,0:0:0:0:
256,192,40359,1,0,0:0:0:0:
256,192,40495,1,0,0:0:0:0:
256,192,40632,1,8,0:0:0:0:
256,192,40768,1,0,0:0:0:0:
256,192,40904,1,8,0:0:0:0:
256,192,40973,1,0,0:0:0:0:
256,192,41040,1,0,0:0:0:0:
256,192,41177,1,8,0:0:0:0:
256,192,41313,1,0,0:0:0:0:
256,192,41450,1,8,0:0:0:0:
256,192,41518,1,8,0:0:0:0:
256,192,41586,1,0,0:0:0:0:
256,192,41723,1,8,0:0:0:0:
256,192,41859,1,8,0:0:0:0:
256,192,41995,1,0,0:0:0:0:
256,192,42131,1,0,0:0:0:0:
256,192,42268,1,8,0:0:0:0:
256,192,42337,1,8,0:0:0:0:
256,192,42404,1,0,0:0:0:0:
256,192,42473,1,0,0:0:0:0:
256,192,42541,1,8,0:0:0:0:
256,192,42677,1,8,0:0:0:0:
256,192,42814,1,0,0:0:0:0:
256,192,42950,1,0,0:0:0:0:
256,192,43086,1,8,0:0:0:0:
256,192,43155,1,0,0:0:0:0:
256,192,43222,1,0,0:0:0:0:
256,192,43359,1,0,0:0:0:0:
256,192,43495,1,8,0:0:0:0:
256,192,43632,1,8,0:0:0:0:
256,192,43700,1,0,0:0:0:0:
256,192,43768,1,0,0:0:0:0:
256,192,43905,1,8,0:0:0:0:
256,192,43973,1,8,0:0:0:0:
256,192,44041,1,0,0:0:0:0:
256,192,44177,1,0,0:0:0:0:
256,192,44223,1,0,0:0:0:0:
256,192,44268,1,0,0:0:0:0:
256,192,44314,1,0,0:0:0:0:
256,192,44359,1,0,0:0:0:0:
256,192,44405,1,0,0:0:0:0:
256,192,44450,1,8,0:0:0:0:
256,192,44496,1,8,0:0:0:0:
256,192,44541,1,8,0:0:0:0:
256,192,44587,1,8,0:0:0:0:
256,192,44632,1,8,0:0:0:0:
256,192,44677,1,8,0:0:0:0:
256,192,44723,1,0,0:0:0:0:
