osu file format v14

[General]
AudioFilename: audio.mp3
AudioLeadIn: 0
PreviewTime: 108595
Countdown: 1
SampleSet: Soft
StackLeniency: 0.7
Mode: 1
LetterboxInBreaks: 0
WidescreenStoryboard: 0

[Editor]
DistanceSpacing: 1
BeatDivisor: 8
GridSize: 4
TimelineZoom: 2.399999

[Metadata]
Title:Flamingo
TitleUnicode:Flamingo
Artist:Kero Kero Bonito
ArtistUnicode:Kero Kero Bonito
Creator:Foxerus
Version:How many skids do you have to eat
Source:
Tags:
BeatmapID:1647256
BeatmapSetID:784606

[Difficulty]
HPDrainRate:5
CircleSize:5
OverallDifficulty:5
ApproachRate:5
SliderMultiplier:1.4
SliderTickRate:1

[Events]
//Background and Video events
0,0,"maxresdefault.jpg",0,0
//Break Periods
//Storyboard Layer 0 (Background)
//Storyboard Layer 1 (Fail)
//Storyboard Layer 2 (Pass)
//Storyboard Layer 3 (Foreground)
//Storyboard Sound Samples

[TimingPoints]
730,337.078651685393,4,2,0,100,1,0
16909,-25,4,2,0,100,0,0
17921,-100,4,2,0,100,0,0
27696,-66.6666666666667,4,2,0,100,0,0
27949,-100,4,2,0,100,0,0
28370,-66.6666666666667,4,2,0,100,0,0
28623,-100,4,2,0,100,0,0
54044,-1000,4,2,0,100,0,0
54683,-83.3333333333333,4,2,0,100,0,1
74971,-100,4,2,0,100,0,0
76235,-52.6315789473684,4,2,0,100,0,0
79269,-55.5555555555556,4,2,0,100,0,0
79494,-58.8235294117647,4,2,0,100,0,0
79718,-62.5,4,2,0,100,0,0
79943,-66.6666666666667,4,2,0,100,0,0
80168,-71.4285714285714,4,2,0,100,0,0
80392,-76.9230769230769,4,2,0,100,0,0
80617,-83.3333333333333,4,2,0,100,0,0
80786,-90.9090909090909,4,2,0,100,0,0
80954,-100,4,2,0,100,0,0
95617,-83.3333333333333,4,2,0,100,0,0
96123,-71.4285714285714,4,2,0,100,0,0
96628,-62.5,4,2,0,100,0,0
97134,-55.5555555555556,4,2,0,100,0,0
97808,-90.9090909090909,4,2,0,100,0,1
106994,-100,4,2,0,100,0,0
108595,-83.3333333333333,4,2,0,100,0,1
130168,-133.333333333333,4,2,0,100,0,0
140954,-100,4,2,0,100,0,0
153763,-71.4285714285714,4,2,0,100,0,0
154437,-83.3333333333333,4,2,0,100,0,1
189494,-100,4,2,0,100,0,0

[HitObjects]
256,184,730,5,8,0:0:0:0:
256,184,1067,1,8,0:0:0:0:
256,184,1404,1,8,0:0:0:0:
256,184,1573,1,8,0:0:0:0:
256,184,1741,1,8,0:0:0:0:
256,184,2078,1,8,0:0:0:0:
256,184,2246,1,8,0:0:0:0:
256,184,2415,1,8,0:0:0:0:
256,184,2921,1,8,0:0:0:0:
256,184,3089,1,8,0:0:0:0:
256,184,3258,1,8,0:0:0:0:
256,184,3426,1,8,0:0:0:0:
256,184,3763,1,8,0:0:0:0:
256,184,4100,1,8,0:0:0:0:
256,184,4269,1,8,0:0:0:0:
256,184,4437,1,8,0:0:0:0:
256,184,4943,1,8,0:0:0:0:
256,184,5112,1,8,0:0:0:0:
256,184,5617,1,8,0:0:0:0:
256,184,5954,1,8,0:0:0:0:
256,184,6123,1,8,0:0:0:0:
256,184,6460,1,8,0:0:0:0:
256,184,6797,1,8,0:0:0:0:
256,184,6965,1,8,0:0:0:0:
256,184,7134,1,8,0:0:0:0:
256,184,7471,1,8,0:0:0:0:
256,184,7640,1,8,0:0:0:0:
256,184,7808,1,8,0:0:0:0:
256,184,8314,1,8,0:0:0:0:
256,184,8651,1,8,0:0:0:0:
256,184,8819,1,8,0:0:0:0:
256,184,9156,1,8,0:0:0:0:
256,184,9494,1,8,0:0:0:0:
256,184,9662,1,8,0:0:0:0:
256,184,9831,1,8,0:0:0:0:
256,184,10168,1,12,0:0:0:0:
260,184,11516,5,0,0:0:0:0:
260,184,11600,1,0,0:0:0:0:
260,184,11685,1,8,0:0:0:0:
260,184,11853,1,0,0:0:0:0:
260,184,12022,1,8,0:0:0:0:
260,184,12359,1,8,0:0:0:0:
260,184,12696,1,8,0:0:0:0:
260,184,12780,1,8,0:0:0:0:
260,184,12864,1,0,0:0:0:0:
260,184,13201,1,8,0:0:0:0:
260,184,13538,1,0,0:0:0:0:
260,184,13876,1,8,0:0:0:0:
260,184,13988,1,8,0:0:0:0:
260,184,14100,1,8,0:0:0:0:
260,184,14213,1,12,0:0:0:0:
260,184,14719,1,0,0:0:0:0:
260,184,14803,1,0,0:0:0:0:
260,184,14888,1,8,0:0:0:0:
260,184,15055,1,0,0:0:0:0:
260,184,15224,1,8,0:0:0:0:
260,184,15308,1,8,0:0:0:0:
260,184,15392,1,8,0:0:0:0:
260,184,15729,1,8,0:0:0:0:
260,184,16067,1,8,0:0:0:0:
260,184,16151,1,8,0:0:0:0:
260,184,16235,1,0,0:0:0:0:
200,208,16572,1,0,0:0:0:0:
256,192,16909,12,0,17078,0:0:0:0:
256,192,17583,12,0,17752,0:0:0:0:
256,192,18089,5,4,0:0:0:0:
256,192,18426,5,12,0:0:0:0:
256,192,18594,1,4,0:0:0:0:
256,192,18763,1,12,0:0:0:0:
256,192,18931,1,4,0:0:0:0:
256,192,19437,1,0,0:0:0:0:
256,192,19521,1,0,0:0:0:0:
256,192,19606,1,0,0:0:0:0:
256,192,19774,1,0,0:0:0:0:
236,196,19859,1,0,0:0:0:0:
256,192,19943,1,8,0:0:0:0:
256,192,20112,1,4,0:0:0:0:
256,192,20280,1,0,0:0:0:0:
144,236,20364,1,0,0:0:0:0:
256,192,20449,1,8,0:0:0:0:
256,192,20617,1,4,0:0:0:0:
256,192,20786,1,8,0:0:0:0:
256,192,20870,1,8,0:0:0:0:
256,192,20954,1,8,0:0:0:0:
256,192,21123,1,4,0:0:0:0:
256,192,21291,1,8,0:0:0:0:
256,192,21376,1,8,0:0:0:0:
256,192,21460,1,0,0:0:0:0:
132,176,21628,1,4,0:0:0:0:
256,192,21797,1,12,0:0:0:0:
256,192,21965,1,4,0:0:0:0:
256,192,22134,1,8,0:0:0:0:
256,192,22190,1,8,0:0:0:0:
256,192,22246,1,8,0:0:0:0:
256,192,22303,1,0,0:0:0:0:
272,184,22471,1,0,0:0:0:0:
256,192,22555,1,0,0:0:0:0:
256,192,22640,1,8,0:0:0:0:
256,192,22808,1,0,0:0:0:0:
256,192,23145,1,12,0:0:0:0:
256,192,23482,1,8,0:0:0:0:
252,188,23538,1,0,0:0:0:0:
252,188,23595,1,0,0:0:0:0:
248,188,23651,1,8,0:0:0:0:
256,192,23988,1,0,0:0:0:0:
256,192,24156,1,0,0:0:0:0:
256,192,24240,1,0,0:0:0:0:
256,192,24325,1,0,0:0:0:0:
256,192,24494,1,0,0:0:0:0:
256,192,24662,1,8,0:0:0:0:
256,192,24831,1,0,0:0:0:0:
256,192,24887,1,0,0:0:0:0:
256,192,24943,1,0,0:0:0:0:
260,196,24999,1,8,0:0:0:0:
228,240,25505,1,0,0:0:0:0:
224,248,25590,1,0,0:0:0:0:
224,244,25674,1,0,0:0:0:0:
256,192,25842,1,0,0:0:0:0:
264,188,26010,1,8,0:0:0:0:
260,188,26095,1,8,0:0:0:0:
256,192,26179,1,0,0:0:0:0:
256,192,26347,1,0,0:0:0:0:
264,192,26544,1,8,0:0:0:0:
264,192,26587,1,0,0:0:0:0:
260,192,26628,1,8,0:0:0:0:
256,192,26670,1,0,0:0:0:0:
256,192,26853,1,8,0:0:0:0:
264,188,27022,1,0,0:0:0:0:
260,192,27190,1,0,0:0:0:0:
256,192,27359,1,8,0:0:0:0:
252,188,27443,1,8,0:0:0:0:
252,188,27527,1,8,0:0:0:0:
256,192,27696,1,8,0:0:0:0:
256,192,27752,1,8,0:0:0:0:
256,192,27808,1,8,0:0:0:0:
260,192,27864,1,0,0:0:0:0:
264,188,28033,1,0,0:0:0:0:
260,192,28201,1,0,0:0:0:0:
256,192,28370,1,0,0:0:0:0:
252,188,28426,1,0,0:0:0:0:
252,188,28482,1,0,0:0:0:0:
260,192,28538,1,8,0:0:0:0:
260,188,28707,1,0,0:0:0:0:
260,192,28876,1,8,0:0:0:0:
256,192,28960,1,0,0:0:0:0:
268,192,29044,1,0,0:0:0:0:
292,192,29213,1,8,0:0:0:0:
276,200,29297,1,8,0:0:0:0:
268,192,29381,1,0,0:0:0:0:
268,192,29550,1,0,0:0:0:0:
268,192,29718,1,8,0:0:0:0:
280,188,29887,1,0,0:0:0:0:
276,188,29971,1,0,0:0:0:0:
276,188,30055,1,0,0:0:0:0:
276,188,30224,1,0,0:0:0:0:
256,212,30280,1,0,0:0:0:0:
256,212,30336,1,0,0:0:0:0:
272,220,30392,1,8,0:0:0:0:
256,200,30561,1,0,0:0:0:0:
256,200,30645,1,0,0:0:0:0:
260,192,30729,1,8,0:0:0:0:
256,212,30898,1,0,0:0:0:0:
264,208,30954,1,0,0:0:0:0:
264,208,31010,1,0,0:0:0:0:
252,212,31067,1,0,0:0:0:0:
264,196,31235,1,8,0:0:0:0:
264,200,31404,1,8,0:0:0:0:
264,200,31516,1,0,0:0:0:0:
264,200,31628,1,0,0:0:0:0:
266,201,31741,1,8,0:0:0:0:
256,192,31853,12,0,32977,0:0:0:0:
261,203,33089,5,4,0:0:0:0:
261,203,33258,1,4,0:0:0:0:
273,200,33426,1,8,0:0:0:0:
272,200,33763,1,8,0:0:0:0:
272,200,34100,1,4,0:0:0:0:
273,200,34269,1,4,0:0:0:0:
267,195,34437,1,8,0:0:0:0:
267,195,34774,1,8,0:0:0:0:
267,195,35112,1,8,0:0:0:0:
267,195,35449,1,8,0:0:0:0:
267,195,35786,1,4,0:0:0:0:
267,195,35954,1,4,0:0:0:0:
267,195,36123,1,8,0:0:0:0:
267,195,36460,1,8,0:0:0:0:
267,195,36797,1,4,0:0:0:0:
267,195,36965,1,4,0:0:0:0:
267,195,37134,1,8,0:0:0:0:
267,195,37471,1,8,0:0:0:0:
267,195,37808,1,0,0:0:0:0:
267,195,37864,1,8,0:0:0:0:
263,182,37921,1,8,0:0:0:0:
263,182,37977,1,0,0:0:0:0:
267,195,38145,1,8,0:0:0:0:
267,195,38482,1,4,0:0:0:0:
267,195,38651,1,4,0:0:0:0:
267,195,38819,1,8,0:0:0:0:
281,226,39156,1,8,0:0:0:0:
256,199,39494,1,4,0:0:0:0:
256,199,39662,1,4,0:0:0:0:
256,199,39831,1,8,0:0:0:0:
256,199,40168,1,8,0:0:0:0:
256,199,40505,1,8,0:0:0:0:
256,199,40842,1,8,0:0:0:0:
256,199,41010,1,8,0:0:0:0:
261,208,41095,1,8,0:0:0:0:
256,199,41179,1,4,0:0:0:0:
256,199,41347,1,8,0:0:0:0:
268,205,41516,1,8,0:0:0:0:
256,199,41685,1,4,0:0:0:0:
268,206,41853,1,8,0:0:0:0:
268,206,42022,1,8,0:0:0:0:
256,199,42190,1,4,0:0:0:0:
238,219,42359,1,8,0:0:0:0:
257,201,42527,1,8,0:0:0:0:
256,199,42696,1,4,0:0:0:0:
257,201,42864,1,8,0:0:0:0:
256,199,43033,1,4,0:0:0:0:
256,199,43201,1,4,0:0:0:0:
257,201,43370,1,8,0:0:0:0:
256,199,43538,1,4,0:0:0:0:
256,199,43707,1,8,0:0:0:0:
257,201,43876,1,0,0:0:0:0:
256,199,44044,1,0,0:0:0:0:
256,199,44128,1,0,0:0:0:0:
261,198,44213,1,8,0:0:0:0:
257,201,44381,1,4,0:0:0:0:
256,204,44550,1,0,0:0:0:0:
256,199,44634,1,0,0:0:0:0:
264,198,44718,1,8,0:0:0:0:
249,205,44887,1,4,0:0:0:0:
256,199,45055,1,8,0:0:0:0:
256,199,45140,1,8,0:0:0:0:
261,198,45224,1,0,0:0:0:0:
259,194,45392,1,0,0:0:0:0:
259,196,45476,1,8,0:0:0:0:
246,221,45561,1,0,0:0:0:0:
263,195,45729,1,0,0:0:0:0:
263,195,45814,1,0,0:0:0:0:
258,196,45898,1,8,0:0:0:0:
247,176,45982,1,0,0:0:0:0:
247,178,46066,1,0,0:0:0:0:
246,221,46151,1,0,0:0:0:0:
246,221,46235,1,0,0:0:0:0:
246,221,46404,1,8,0:0:0:0:
255,203,46572,1,4,0:0:0:0:
255,203,46741,1,0,0:0:0:0:
256,203,46825,1,0,0:0:0:0:
262,211,46909,1,8,0:0:0:0:
266,206,47078,1,4,0:0:0:0:
266,210,47246,1,8,0:0:0:0:
266,209,47331,1,8,0:0:0:0:
266,209,47415,1,8,0:0:0:0:
269,202,47583,1,4,0:0:0:0:
266,203,47752,1,0,0:0:0:0:
277,205,47836,1,8,0:0:0:0:
270,201,47921,1,0,0:0:0:0:
271,201,48089,1,4,0:0:0:0:
283,200,48258,1,8,0:0:0:0:
282,200,48342,1,8,0:0:0:0:
268,198,48426,1,0,0:0:0:0:
269,202,48510,1,0,0:0:0:0:
269,202,48595,1,0,0:0:0:0:
258,203,48763,1,4,0:0:0:0:
256,207,48932,1,12,0:0:0:0:
257,208,49100,1,4,0:0:0:0:
257,208,49269,1,4,0:0:0:0:
257,208,49437,1,0,0:0:0:0:
257,208,49522,1,0,0:0:0:0:
257,208,49606,1,8,0:0:0:0:
255,210,49774,1,4,0:0:0:0:
259,210,49943,1,8,0:0:0:0:
257,208,49999,1,8,0:0:0:0:
249,216,50055,1,0,0:0:0:0:
254,214,50112,1,8,0:0:0:0:
251,210,50280,1,4,0:0:0:0:
250,213,50449,1,0,0:0:0:0:
251,211,50533,1,0,0:0:0:0:
251,209,50617,1,8,0:0:0:0:
255,210,50786,1,4,0:0:0:0:
249,213,50954,1,8,0:0:0:0:
246,211,51038,1,8,0:0:0:0:
246,211,51123,1,8,0:0:0:0:
246,210,51207,1,8,0:0:0:0:
251,210,51291,1,0,0:0:0:0:
266,197,51460,1,4,0:0:0:0:
265,197,51628,1,4,0:0:0:0:
265,197,51797,1,12,0:0:0:0:
255,203,51965,1,0,0:0:0:0:
251,209,52050,1,0,0:0:0:0:
255,203,52134,1,8,0:0:0:0:
255,203,52303,1,4,0:0:0:0:
255,203,52471,1,8,0:0:0:0:
251,209,52555,1,0,0:0:0:0:
255,203,52640,1,0,0:0:0:0:
255,203,52808,1,4,0:0:0:0:
255,203,52977,1,0,0:0:0:0:
251,209,53061,1,8,0:0:0:0:
255,203,53145,1,0,0:0:0:0:
255,203,53314,1,4,0:0:0:0:
255,203,53482,1,8,0:0:0:0:
251,209,53538,1,8,0:0:0:0:
242,208,53595,1,8,0:0:0:0:
255,203,53651,1,8,0:0:0:0:
255,203,53819,1,4,0:0:0:0:
251,209,53988,1,12,0:0:0:0:
256,190,54662,5,12,0:0:0:0:
216,240,54831,1,0,0:0:0:0:
216,240,54915,1,0,0:0:0:0:
216,240,54999,1,8,0:0:0:0:
216,240,55168,1,0,0:0:0:0:
216,240,55336,1,0,0:0:0:0:
216,240,55421,1,0,0:0:0:0:
216,240,55505,1,8,0:0:0:0:
228,240,55673,1,0,0:0:0:0:
228,240,55758,1,0,0:0:0:0:
224,240,55842,1,8,0:0:0:0:
224,240,55926,1,8,0:0:0:0:
220,240,56010,1,0,0:0:0:0:
216,240,56179,1,8,0:0:0:0:
216,240,56263,1,8,0:0:0:0:
224,240,56347,1,0,0:0:0:0:
216,240,56516,1,8,0:0:0:0:
216,240,56600,1,8,0:0:0:0:
228,240,56685,1,0,0:0:0:0:
224,240,56853,1,0,0:0:0:0:
232,244,56909,1,0,0:0:0:0:
224,228,56965,1,0,0:0:0:0:
232,244,57022,1,0,0:0:0:0:
232,244,57190,1,0,0:0:0:0:
232,244,57359,1,8,0:0:0:0:
172,248,57527,1,0,0:0:0:0:
192,240,57612,1,0,0:0:0:0:
172,248,57696,1,8,0:0:0:0:
196,244,57780,1,0,0:0:0:0:
172,248,57864,1,8,0:0:0:0:
172,248,57949,1,8,0:0:0:0:
196,244,58033,1,0,0:0:0:0:
192,252,58201,1,8,0:0:0:0:
192,252,58286,1,8,0:0:0:0:
256,236,58370,1,8,0:0:0:0:
196,244,58538,1,0,0:0:0:0:
200,240,58623,1,0,0:0:0:0:
216,244,58707,1,8,0:0:0:0:
216,244,58791,1,0,0:0:0:0:
236,248,58876,1,0,0:0:0:0:
236,248,58960,1,0,0:0:0:0:
236,240,59044,1,8,0:0:0:0:
248,248,59128,1,0,0:0:0:0:
256,236,59213,1,8,0:0:0:0:
256,236,59297,1,8,0:0:0:0:
256,252,59381,1,0,0:0:0:0:
252,216,59550,1,0,0:0:0:0:
256,216,59634,1,0,0:0:0:0:
252,236,59718,1,8,0:0:0:0:
272,196,59887,1,8,0:0:0:0:
240,220,60055,1,4,0:0:0:0:
164,228,60224,1,8,0:0:0:0:
240,220,60392,1,4,0:0:0:0:
240,232,60561,1,0,0:0:0:0:
232,228,60645,1,0,0:0:0:0:
228,220,60729,1,8,0:0:0:0:
224,224,60898,1,0,0:0:0:0:
248,240,61067,1,12,0:0:0:0:
260,240,61235,1,0,0:0:0:0:
248,240,61404,1,12,0:0:0:0:
260,240,61572,1,0,0:0:0:0:
248,240,61741,1,12,0:0:0:0:
260,240,61909,1,0,0:0:0:0:
260,240,61994,1,0,0:0:0:0:
248,240,62079,1,12,0:0:0:0:
260,240,62246,1,0,0:0:0:0:
256,240,62303,1,0,0:0:0:0:
260,244,62359,1,0,0:0:0:0:
256,240,62415,1,0,0:0:0:0:
252,232,62583,1,0,0:0:0:0:
240,244,62752,1,8,0:0:0:0:
248,240,62808,1,8,0:0:0:0:
252,240,62864,1,8,0:0:0:0:
252,240,62921,1,0,0:0:0:0:
216,248,63089,1,0,0:0:0:0:
240,244,63258,1,8,0:0:0:0:
240,248,63314,1,0,0:0:0:0:
240,248,63370,1,0,0:0:0:0:
240,248,63427,1,8,0:0:0:0:
248,252,63595,1,0,0:0:0:0:
240,244,63763,1,8,0:0:0:0:
240,248,63819,1,8,0:0:0:0:
244,248,63876,1,0,0:0:0:0:
244,248,63932,1,0,0:0:0:0:
224,248,64100,1,0,0:0:0:0:
224,248,64269,1,0,0:0:0:0:
232,252,64353,1,0,0:0:0:0:
232,248,64437,1,8,0:0:0:0:
240,252,64522,1,0,0:0:0:0:
228,256,64606,1,8,0:0:0:0:
228,252,64690,1,8,0:0:0:0:
232,260,64774,1,0,0:0:0:0:
232,256,64859,1,0,0:0:0:0:
228,256,64943,1,8,0:0:0:0:
232,240,65027,1,0,0:0:0:0:
256,256,65112,1,8,0:0:0:0:
228,248,65196,1,0,0:0:0:0:
232,248,65280,1,0,0:0:0:0:
240,256,65336,1,0,0:0:0:0:
232,252,65392,1,0,0:0:0:0:
232,248,65449,1,0,0:0:0:0:
220,232,65617,1,0,0:0:0:0:
228,240,65701,1,0,0:0:0:0:
240,240,65786,1,8,0:0:0:0:
236,248,65954,1,0,0:0:0:0:
240,248,66123,1,0,0:0:0:0:
264,252,66207,1,0,0:0:0:0:
256,260,66291,1,8,0:0:0:0:
244,256,66460,1,8,0:0:0:0:
248,256,66544,1,8,0:0:0:0:
248,256,66628,1,0,0:0:0:0:
244,264,66713,1,8,0:0:0:0:
244,260,66797,1,8,0:0:0:0:
264,272,66965,1,8,0:0:0:0:
268,272,67050,1,8,0:0:0:0:
264,272,67134,1,8,0:0:0:0:
264,272,67303,1,8,0:0:0:0:
264,272,67387,1,8,0:0:0:0:
264,272,67471,1,8,0:0:0:0:
264,264,67640,1,0,0:0:0:0:
264,264,67724,1,0,0:0:0:0:
264,264,67808,1,0,0:0:0:0:
260,248,67892,1,0,0:0:0:0:
256,260,67977,1,8,0:0:0:0:
256,260,68061,1,8,0:0:0:0:
252,256,68145,1,0,0:0:0:0:
136,256,68314,1,0,0:0:0:0:
136,256,68398,1,0,0:0:0:0:
264,252,68482,1,8,0:0:0:0:
248,248,68651,1,0,0:0:0:0:
256,240,68819,1,8,0:0:0:0:
256,236,68904,1,8,0:0:0:0:
264,244,68988,1,0,0:0:0:0:
272,256,69156,1,0,0:0:0:0:
264,252,69325,1,0,0:0:0:0:
264,252,69409,1,0,0:0:0:0:
264,232,69494,1,0,0:0:0:0:
260,240,69662,1,8,0:0:0:0:
260,240,69746,1,8,0:0:0:0:
276,240,69831,1,0,0:0:0:0:
264,244,69999,1,8,0:0:0:0:
260,240,70083,1,8,0:0:0:0:
264,248,70168,1,0,0:0:0:0:
276,256,70336,1,8,0:0:0:0:
276,252,70421,1,8,0:0:0:0:
276,248,70505,1,0,0:0:0:0:
248,236,70589,1,0,0:0:0:0:
252,252,70673,1,8,0:0:0:0:
252,252,70758,1,8,0:0:0:0:
268,248,70842,1,0,0:0:0:0:
192,188,71010,1,0,0:0:0:0:
192,188,71095,1,0,0:0:0:0:
200,192,71179,1,0,0:0:0:0:
280,240,71347,1,8,0:0:0:0:
244,224,71516,1,0,0:0:0:0:
244,224,71600,1,8,0:0:0:0:
236,224,71685,1,0,0:0:0:0:
244,224,71853,1,0,0:0:0:0:
256,220,72022,1,8,0:0:0:0:
264,216,72106,1,0,0:0:0:0:
272,220,72190,1,8,0:0:0:0:
256,220,72359,5,8,0:0:0:0:
264,216,72443,1,0,0:0:0:0:
272,220,72527,1,8,0:0:0:0:
256,220,72696,1,0,0:0:0:0:
264,216,72780,1,0,0:0:0:0:
272,220,72864,1,8,0:0:0:0:
200,212,73033,1,0,0:0:0:0:
244,216,73089,1,0,0:0:0:0:
236,188,73145,1,0,0:0:0:0:
200,212,73201,1,0,0:0:0:0:
200,212,73370,1,0,0:0:0:0:
224,248,73538,5,8,0:0:0:0:
264,312,73623,1,0,0:0:0:0:
256,308,73707,1,0,0:0:0:0:
240,304,73791,1,0,0:0:0:0:
240,300,73876,1,0,0:0:0:0:
228,264,73960,1,0,0:0:0:0:
252,288,74044,1,8,0:0:0:0:
256,288,74128,1,0,0:0:0:0:
228,264,74213,1,0,0:0:0:0:
256,288,74297,1,0,0:0:0:0:
256,288,74381,1,0,0:0:0:0:
216,268,74465,1,0,0:0:0:0:
216,272,74550,1,8,0:0:0:0:
220,268,74634,1,0,0:0:0:0:
216,264,74718,1,0,0:0:0:0:
216,264,74803,1,0,0:0:0:0:
248,280,74887,1,8,0:0:0:0:
256,188,76235,5,8,0:0:0:0:
256,188,76319,1,8,0:0:0:0:
224,172,76404,1,8,0:0:0:0:
240,180,76488,1,8,0:0:0:0:
232,176,76572,1,8,0:0:0:0:
224,176,76656,1,8,0:0:0:0:
256,188,76741,1,8,0:0:0:0:
256,188,76825,1,8,0:0:0:0:
256,188,76909,1,8,0:0:0:0:
256,188,76994,1,8,0:0:0:0:
256,188,77078,1,8,0:0:0:0:
256,188,77162,1,8,0:0:0:0:
256,188,77246,1,8,0:0:0:0:
256,188,77331,1,8,0:0:0:0:
256,188,77415,1,8,0:0:0:0:
256,188,77499,1,8,0:0:0:0:
252,200,77583,1,8,0:0:0:0:
256,188,77668,1,8,0:0:0:0:
244,196,77752,1,8,0:0:0:0:
248,204,77836,1,8,0:0:0:0:
248,208,77921,1,8,0:0:0:0:
244,196,78005,1,8,0:0:0:0:
240,212,78089,1,8,0:0:0:0:
240,196,78173,1,8,0:0:0:0:
240,216,78258,1,8,0:0:0:0:
256,188,78342,1,8,0:0:0:0:
244,216,78426,1,8,0:0:0:0:
248,200,78510,1,8,0:0:0:0:
248,216,78595,1,8,0:0:0:0:
256,188,78679,1,8,0:0:0:0:
256,188,78763,1,8,0:0:0:0:
248,220,78847,1,8,0:0:0:0:
256,188,78932,1,8,0:0:0:0:
248,220,79016,1,8,0:0:0:0:
248,220,79100,1,8,0:0:0:0:
248,220,79185,1,8,0:0:0:0:
248,220,79269,1,8,0:0:0:0:
256,188,79381,1,8,0:0:0:0:
248,220,79494,1,8,0:0:0:0:
256,188,79606,1,8,0:0:0:0:
256,188,79718,1,8,0:0:0:0:
256,188,79831,1,8,0:0:0:0:
256,188,79943,1,8,0:0:0:0:
248,192,80055,1,8,0:0:0:0:
248,192,80168,1,8,0:0:0:0:
248,192,80280,1,8,0:0:0:0:
252,192,80392,1,8,0:0:0:0:
252,164,80505,1,8,0:0:0:0:
252,164,80617,1,8,0:0:0:0:
252,164,80786,1,8,0:0:0:0:
256,192,80954,12,0,81544,0:0:0:0:
200,220,81628,5,12,0:0:0:0:
244,192,81797,1,12,0:0:0:0:
248,188,81965,1,0,0:0:0:0:
248,188,82303,1,0,0:0:0:0:
216,224,82640,1,12,0:0:0:0:
216,224,82808,1,12,0:0:0:0:
272,216,82977,1,0,0:0:0:0:
272,216,83314,1,0,0:0:0:0:
220,252,83482,1,0,0:0:0:0:
232,248,83567,1,0,0:0:0:0:
216,256,83651,1,8,0:0:0:0:
244,224,83819,1,0,0:0:0:0:
216,244,83988,1,8,0:0:0:0:
256,252,84156,1,0,0:0:0:0:
248,184,84325,1,12,0:0:0:0:
248,184,84494,1,0,0:0:0:0:
272,280,84578,1,0,0:0:0:0:
248,184,84662,1,0,0:0:0:0:
248,184,84831,1,12,0:0:0:0:
248,184,84999,1,8,0:0:0:0:
208,212,85083,1,0,0:0:0:0:
248,184,85168,1,0,0:0:0:0:
248,184,85336,1,12,0:0:0:0:
248,184,85505,1,0,0:0:0:0:
248,184,85589,1,0,0:0:0:0:
248,184,85673,1,8,0:0:0:0:
248,184,85842,1,12,0:0:0:0:
248,184,86010,1,12,0:0:0:0:
244,192,86179,1,0,0:0:0:0:
232,224,86347,1,0,0:0:0:0:
248,216,86432,1,0,0:0:0:0:
240,280,86516,1,8,0:0:0:0:
232,280,86601,1,8,0:0:0:0:
232,280,86685,1,8,0:0:0:0:
248,292,86853,1,0,0:0:0:0:
268,264,87022,1,12,0:0:0:0:
268,264,87190,1,12,0:0:0:0:
272,240,87359,1,0,0:0:0:0:
296,256,87527,1,0,0:0:0:0:
296,256,87612,1,8,0:0:0:0:
296,256,87696,1,8,0:0:0:0:
288,256,87864,1,0,0:0:0:0:
268,264,88033,1,12,0:0:0:0:
268,264,88201,1,12,0:0:0:0:
272,240,88370,1,0,0:0:0:0:
296,272,88538,1,0,0:0:0:0:
296,272,88623,1,0,0:0:0:0:
296,272,88707,1,0,0:0:0:0:
288,256,88791,1,8,0:0:0:0:
288,268,88876,1,0,0:0:0:0:
288,264,89044,1,0,0:0:0:0:
288,264,89213,1,0,0:0:0:0:
288,264,89297,1,0,0:0:0:0:
284,256,89381,1,8,0:0:0:0:
284,252,89550,1,8,0:0:0:0:
268,252,89718,1,12,0:0:0:0:
240,272,89887,1,12,0:0:0:0:
256,252,90055,1,0,0:0:0:0:
256,252,90140,1,0,0:0:0:0:
256,252,90224,1,0,0:0:0:0:
256,252,90392,1,0,0:0:0:0:
256,252,90561,1,0,0:0:0:0:
268,252,90729,1,12,0:0:0:0:
272,256,90898,1,12,0:0:0:0:
272,300,91067,1,0,0:0:0:0:
272,300,91151,1,0,0:0:0:0:
272,300,91235,1,0,0:0:0:0:
272,300,91319,1,0,0:0:0:0:
272,300,91404,1,0,0:0:0:0:
288,296,91572,1,8,0:0:0:0:
264,308,91656,1,0,0:0:0:0:
296,292,91741,1,8,0:0:0:0:
280,272,91825,1,0,0:0:0:0:
280,272,91909,1,0,0:0:0:0:
280,272,91994,1,0,0:0:0:0:
152,252,92078,1,0,0:0:0:0:
152,252,92246,1,0,0:0:0:0:
236,272,92415,1,12,0:0:0:0:
236,272,92583,1,12,0:0:0:0:
324,260,92752,1,0,0:0:0:0:
324,260,93005,1,0,0:0:0:0:
324,260,93089,1,8,0:0:0:0:
288,308,93258,1,0,0:0:0:0:
236,272,93426,1,12,0:0:0:0:
236,272,93595,1,12,0:0:0:0:
288,308,93763,1,0,0:0:0:0:
292,288,93932,1,8,0:0:0:0:
288,308,93988,1,8,0:0:0:0:
252,248,94044,1,8,0:0:0:0:
284,312,94100,1,0,0:0:0:0:
276,344,94269,1,0,0:0:0:0:
264,236,94437,1,8,0:0:0:0:
272,232,94521,1,0,0:0:0:0:
236,252,94605,1,0,0:0:0:0:
240,252,94690,1,0,0:0:0:0:
240,252,94774,1,8,0:0:0:0:
248,252,94859,1,0,0:0:0:0:
244,248,94943,1,8,0:0:0:0:
236,240,95027,1,0,0:0:0:0:
256,192,95112,1,12,0:0:0:0:
256,192,95617,1,12,0:0:0:0:
256,192,96123,1,12,0:0:0:0:
256,192,96628,1,12,0:0:0:0:
256,192,97134,1,12,0:0:0:0:
248,200,97808,5,12,0:0:0:0:
224,248,97977,1,0,0:0:0:0:
224,248,98061,1,0,0:0:0:0:
244,208,98145,1,8,0:0:0:0:
244,208,98314,1,0,0:0:0:0:
236,216,98482,1,8,0:0:0:0:
236,216,98567,1,8,0:0:0:0:
240,224,98651,1,0,0:0:0:0:
240,224,98735,1,0,0:0:0:0:
252,216,98819,1,8,0:0:0:0:
252,220,98988,1,0,0:0:0:0:
252,220,99156,1,0,0:0:0:0:
252,216,99325,1,0,0:0:0:0:
252,216,99409,1,0,0:0:0:0:
240,224,99494,1,8,0:0:0:0:
240,224,99578,1,8,0:0:0:0:
256,220,99662,1,0,0:0:0:0:
248,232,99831,1,8,0:0:0:0:
248,232,99915,1,8,0:0:0:0:
244,232,99999,1,8,0:0:0:0:
244,232,100083,1,8,0:0:0:0:
248,232,100168,1,0,0:0:0:0:
252,232,100336,1,0,0:0:0:0:
255,206,100505,1,0,0:0:0:0:
262,202,100589,1,0,0:0:0:0:
270,211,100673,1,8,0:0:0:0:
244,214,100758,1,0,0:0:0:0:
243,208,100842,1,8,0:0:0:0:
244,208,100926,1,8,0:0:0:0:
265,214,101010,1,0,0:0:0:0:
265,215,101095,1,0,0:0:0:0:
255,206,101179,1,8,0:0:0:0:
249,218,101263,1,0,0:0:0:0:
252,212,101347,1,0,0:0:0:0:
253,211,101432,1,0,0:0:0:0:
255,215,101516,1,8,0:0:0:0:
273,228,101600,1,0,0:0:0:0:
273,227,101685,1,0,0:0:0:0:
271,224,101769,1,0,0:0:0:0:
265,208,101853,1,8,0:0:0:0:
269,224,102190,1,12,0:0:0:0:
269,224,102527,1,12,0:0:0:0:
269,224,102864,1,12,0:0:0:0:
256,192,103201,12,0,103686,0:0:0:0:
154,268,103707,5,0,0:0:0:0:
154,268,103876,1,8,0:0:0:0:
182,251,103960,1,8,0:0:0:0:
239,226,104044,1,0,0:0:0:0:
135,273,104128,1,0,0:0:0:0:
239,226,104213,1,8,0:0:0:0:
135,275,104381,1,0,0:0:0:0:
199,272,104465,1,0,0:0:0:0:
136,277,104550,1,8,0:0:0:0:
229,266,104634,1,8,0:0:0:0:
229,266,104887,1,8,0:0:0:0:
186,288,104971,1,0,0:0:0:0:
210,251,105055,1,0,0:0:0:0:
188,290,105224,1,0,0:0:0:0:
189,286,105308,1,0,0:0:0:0:
209,251,105392,1,0,0:0:0:0:
218,271,105561,1,0,0:0:0:0:
189,267,105645,1,0,0:0:0:0:
209,242,105729,1,8,0:0:0:0:
224,273,105898,1,8,0:0:0:0:
177,283,105982,1,8,0:0:0:0:
197,281,106067,1,0,0:0:0:0:
197,273,106151,1,0,0:0:0:0:
196,273,106235,1,0,0:0:0:0:
235,255,106319,1,0,0:0:0:0:
179,272,106404,1,8,0:0:0:0:
180,273,106488,1,8,0:0:0:0:
213,245,106572,1,0,0:0:0:0:
213,245,106656,1,0,0:0:0:0:
217,249,106741,1,8,0:0:0:0:
206,263,106797,1,0,0:0:0:0:
205,262,106853,1,0,0:0:0:0:
212,258,106909,1,8,0:0:0:0:
217,230,108595,5,8,0:0:0:0:
243,259,108763,1,0,0:0:0:0:
243,259,108847,1,0,0:0:0:0:
232,246,108932,1,8,0:0:0:0:
244,244,109100,1,0,0:0:0:0:
242,243,109269,1,8,0:0:0:0:
241,244,109353,1,8,0:0:0:0:
222,242,109437,1,0,0:0:0:0:
222,242,109522,1,0,0:0:0:0:
243,237,109606,1,8,0:0:0:0:
277,240,109774,1,0,0:0:0:0:
260,235,109943,1,8,0:0:0:0:
259,235,110112,1,8,0:0:0:0:
258,235,110196,1,8,0:0:0:0:
248,235,110280,1,8,0:0:0:0:
274,228,110449,1,8,0:0:0:0:
262,242,110533,1,0,0:0:0:0:
267,231,110617,1,8,0:0:0:0:
274,253,110786,1,0,0:0:0:0:
274,253,110870,1,0,0:0:0:0:
275,242,110954,1,8,0:0:0:0:
272,242,111038,1,8,0:0:0:0:
282,244,111123,1,0,0:0:0:0:
281,230,111207,1,8,0:0:0:0:
280,240,111291,1,0,0:0:0:0:
256,232,111460,1,0,0:0:0:0:
292,232,111544,1,0,0:0:0:0:
196,256,111628,1,8,0:0:0:0:
256,232,111713,1,0,0:0:0:0:
276,228,111797,1,8,0:0:0:0:
276,228,111881,1,8,0:0:0:0:
272,220,111965,1,0,0:0:0:0:
232,224,112134,1,0,0:0:0:0:
232,224,112218,1,0,0:0:0:0:
264,220,112303,1,8,0:0:0:0:
256,224,112471,1,8,0:0:0:0:
256,224,112527,1,8,0:0:0:0:
256,224,112583,1,8,0:0:0:0:
256,224,112640,1,8,0:0:0:0:
276,216,112808,1,8,0:0:0:0:
240,220,112864,1,0,0:0:0:0:
240,220,112921,1,0,0:0:0:0:
272,220,112977,1,8,0:0:0:0:
288,204,113145,1,0,0:0:0:0:
288,204,113201,1,0,0:0:0:0:
264,200,113258,1,0,0:0:0:0:
284,220,113314,1,8,0:0:0:0:
264,216,113482,1,0,0:0:0:0:
264,212,113567,1,0,0:0:0:0:
264,212,113651,1,0,0:0:0:0:
264,212,113735,1,0,0:0:0:0:
284,208,113819,1,8,0:0:0:0:
284,200,113904,1,8,0:0:0:0:
280,208,113988,1,0,0:0:0:0:
280,208,114156,1,0,0:0:0:0:
280,208,114241,1,0,0:0:0:0:
276,204,114325,1,8,0:0:0:0:
288,240,114494,1,0,0:0:0:0:
288,240,114578,1,0,0:0:0:0:
272,240,114662,1,8,0:0:0:0:
272,240,114746,1,8,0:0:0:0:
308,244,114831,1,0,0:0:0:0:
308,244,114999,1,8,0:0:0:0:
268,228,115083,1,0,0:0:0:0:
304,264,115168,1,8,0:0:0:0:
280,228,115336,1,0,0:0:0:0:
300,240,115421,1,8,0:0:0:0:
272,240,115505,1,8,0:0:0:0:
272,240,115673,1,8,0:0:0:0:
280,256,115758,1,8,0:0:0:0:
304,248,115842,1,8,0:0:0:0:
276,252,116010,1,8,0:0:0:0:
276,252,116066,1,8,0:0:0:0:
276,252,116123,1,8,0:0:0:0:
276,252,116179,1,8,0:0:0:0:
272,240,116347,1,8,0:0:0:0:
240,236,116516,1,0,0:0:0:0:
272,240,116685,1,8,0:0:0:0:
272,252,116769,1,0,0:0:0:0:
276,252,116853,1,0,0:0:0:0:
268,248,116937,1,0,0:0:0:0:
268,248,117022,1,0,0:0:0:0:
268,248,117106,1,0,0:0:0:0:
276,252,117190,1,8,0:0:0:0:
272,240,117274,1,0,0:0:0:0:
272,240,117359,1,8,0:0:0:0:
272,240,117443,1,0,0:0:0:0:
272,240,117527,1,0,0:0:0:0:
272,240,117612,1,0,0:0:0:0:
280,240,117696,1,8,0:0:0:0:
280,240,117780,1,0,0:0:0:0:
280,240,117864,1,0,0:0:0:0:
272,236,117949,1,0,0:0:0:0:
272,236,118033,1,0,0:0:0:0:
272,236,118117,1,0,0:0:0:0:
288,240,118201,1,8,0:0:0:0:
288,240,118286,1,0,0:0:0:0:
272,244,118370,1,8,0:0:0:0:
272,244,118454,1,0,0:0:0:0:
320,252,118538,1,8,0:0:0:0:
320,252,118623,1,0,0:0:0:0:
320,252,118707,1,8,0:0:0:0:
320,252,118791,1,8,0:0:0:0:
292,244,118876,1,8,0:0:0:0:
292,244,118960,1,8,0:0:0:0:
292,240,119044,1,8,0:0:0:0:
296,236,119213,1,8,0:0:0:0:
296,236,119297,1,8,0:0:0:0:
280,236,119381,1,0,0:0:0:0:
272,228,119550,1,0,0:0:0:0:
292,244,119634,1,8,0:0:0:0:
292,244,119718,1,8,0:0:0:0:
288,224,119887,1,0,0:0:0:0:
288,224,119971,1,0,0:0:0:0:
272,228,120055,1,8,0:0:0:0:
272,228,120140,1,8,0:0:0:0:
272,228,120224,1,8,0:0:0:0:
272,228,120308,1,8,0:0:0:0:
272,224,120392,1,8,0:0:0:0:
288,212,120561,1,8,0:0:0:0:
288,212,120645,1,8,0:0:0:0:
284,212,120729,1,8,0:0:0:0:
288,212,120898,1,8,0:0:0:0:
288,212,120982,1,8,0:0:0:0:
288,212,121067,1,0,0:0:0:0:
312,220,121235,1,0,0:0:0:0:
268,212,121291,1,0,0:0:0:0:
272,212,121347,1,0,0:0:0:0:
300,232,121404,1,8,0:0:0:0:
284,244,121572,1,0,0:0:0:0:
280,244,121656,1,0,0:0:0:0:
264,236,121741,1,8,0:0:0:0:
264,236,121825,1,8,0:0:0:0:
288,236,121909,1,8,0:0:0:0:
276,240,121994,1,0,0:0:0:0:
276,240,122078,1,0,0:0:0:0:
276,232,122246,1,0,0:0:0:0:
272,232,122331,1,0,0:0:0:0:
296,236,122415,1,8,0:0:0:0:
308,236,122583,1,0,0:0:0:0:
308,224,122668,1,0,0:0:0:0:
308,224,122752,1,8,0:0:0:0:
304,236,122836,1,8,0:0:0:0:
272,252,122921,1,0,0:0:0:0:
268,248,123005,1,0,0:0:0:0:
312,252,123089,1,8,0:0:0:0:
304,248,123258,1,0,0:0:0:0:
304,248,123342,1,0,0:0:0:0:
304,248,123426,1,0,0:0:0:0:
304,248,123595,1,0,0:0:0:0:
304,248,123679,1,0,0:0:0:0:
300,244,123763,1,8,0:0:0:0:
284,232,123932,1,0,0:0:0:0:
280,252,124016,1,0,0:0:0:0:
280,252,124100,1,0,0:0:0:0:
296,252,124269,1,8,0:0:0:0:
296,252,124353,1,8,0:0:0:0:
296,252,124437,1,8,0:0:0:0:
288,240,124606,1,8,0:0:0:0:
296,240,124662,1,0,0:0:0:0:
296,236,124718,1,8,0:0:0:0:
312,248,124774,1,0,0:0:0:0:
284,240,125027,1,0,0:0:0:0:
248,200,125112,1,8,0:0:0:0:
292,220,125280,1,0,0:0:0:0:
292,220,125364,1,0,0:0:0:0:
292,220,125449,1,0,0:0:0:0:
292,220,125617,1,0,0:0:0:0:
256,200,125786,1,8,0:0:0:0:
268,200,125842,1,0,0:0:0:0:
268,200,125898,1,0,0:0:0:0:
264,192,125954,1,8,0:0:0:0:
272,204,126010,1,0,0:0:0:0:
272,204,126067,1,0,0:0:0:0:
268,200,126123,1,8,0:0:0:0:
244,200,126291,1,8,0:0:0:0:
244,200,126376,1,8,0:0:0:0:
244,200,126460,1,8,0:0:0:0:
248,216,126628,1,0,0:0:0:0:
248,216,126713,1,0,0:0:0:0:
240,220,126797,1,8,0:0:0:0:
260,236,126965,1,8,0:0:0:0:
256,236,127022,1,8,0:0:0:0:
268,208,127078,1,8,0:0:0:0:
256,200,127134,1,0,0:0:0:0:
256,200,127303,1,0,0:0:0:0:
300,272,127471,1,8,0:0:0:0:
300,272,127555,1,8,0:0:0:0:
272,224,127640,1,8,0:0:0:0:
264,228,127724,1,8,0:0:0:0:
264,228,127808,1,0,0:0:0:0:
264,228,127892,1,0,0:0:0:0:
280,248,127977,1,8,0:0:0:0:
280,248,128061,1,8,0:0:0:0:
280,248,128145,1,8,0:0:0:0:
264,264,128229,1,0,0:0:0:0:
264,264,128314,1,0,0:0:0:0:
264,264,128398,1,0,0:0:0:0:
272,268,128482,1,0,0:0:0:0:
272,256,128567,1,8,0:0:0:0:
232,248,128651,1,8,0:0:0:0:
276,256,128707,1,8,0:0:0:0:
276,256,128763,1,8,0:0:0:0:
288,268,128819,1,0,0:0:0:0:
248,232,129325,1,0,0:0:0:0:
208,240,129494,1,0,0:0:0:0:
208,240,129831,1,0,0:0:0:0:
240,224,130505,1,8,0:0:0:0:
264,248,131010,1,8,0:0:0:0:
264,248,131516,1,8,0:0:0:0:
264,248,133201,1,8,0:0:0:0:
264,248,133707,1,8,0:0:0:0:
264,248,134213,1,8,0:0:0:0:
264,248,135899,1,8,0:0:0:0:
264,248,136404,1,8,0:0:0:0:
264,248,136909,1,8,0:0:0:0:
264,248,138595,1,8,0:0:0:0:
264,248,139100,1,8,0:0:0:0:
264,248,139606,1,8,0:0:0:0:
264,236,140617,1,8,0:0:0:0:
284,200,140954,1,8,0:0:0:0:
284,200,141291,1,8,0:0:0:0:
284,200,141628,1,8,0:0:0:0:
284,200,141797,1,8,0:0:0:0:
284,200,141965,1,8,0:0:0:0:
284,200,142303,1,8,0:0:0:0:
284,200,142471,1,8,0:0:0:0:
284,200,142640,1,8,0:0:0:0:
284,200,143145,1,8,0:0:0:0:
284,200,143314,1,8,0:0:0:0:
284,200,143482,1,8,0:0:0:0:
284,200,143651,1,8,0:0:0:0:
284,200,143988,1,8,0:0:0:0:
284,200,144325,1,8,0:0:0:0:
284,200,144494,1,8,0:0:0:0:
284,200,144662,1,8,0:0:0:0:
284,200,145168,1,8,0:0:0:0:
284,200,145336,1,8,0:0:0:0:
284,200,145842,1,8,0:0:0:0:
284,200,146179,1,8,0:0:0:0:
284,200,146347,1,8,0:0:0:0:
284,200,146685,1,8,0:0:0:0:
284,200,147022,1,8,0:0:0:0:
284,200,147190,1,8,0:0:0:0:
284,200,147359,1,8,0:0:0:0:
284,200,147696,1,8,0:0:0:0:
284,200,147864,1,8,0:0:0:0:
284,200,148033,1,8,0:0:0:0:
284,200,148538,1,8,0:0:0:0:
284,200,148876,1,8,0:0:0:0:
284,200,149044,1,8,0:0:0:0:
284,200,149381,1,8,0:0:0:0:
284,200,149634,1,8,0:0:0:0:
300,224,149943,1,8,0:0:0:0:
284,212,150168,1,8,0:0:0:0:
284,200,150392,1,8,0:0:0:0:
264,224,150561,1,8,0:0:0:0:
264,224,150729,1,8,0:0:0:0:
264,224,150898,1,8,0:0:0:0:
264,224,151067,1,8,0:0:0:0:
264,224,151235,1,8,0:0:0:0:
264,224,151404,1,8,0:0:0:0:
292,264,151488,1,8,0:0:0:0:
264,224,151572,1,8,0:0:0:0:
288,232,151614,1,8,0:0:0:0:
288,232,151656,1,8,0:0:0:0:
288,232,151699,1,8,0:0:0:0:
288,232,151741,1,8,0:0:0:0:
292,268,153763,1,12,0:0:0:0:
248,272,154100,1,12,0:0:0:0:
248,272,154269,1,12,0:0:0:0:
244,196,154437,5,4,0:0:0:0:
208,228,154774,1,0,0:0:0:0:
244,264,154859,1,0,0:0:0:0:
264,236,154943,1,8,0:0:0:0:
244,248,155027,1,0,0:0:0:0:
320,232,155112,1,8,0:0:0:0:
264,244,155280,1,0,0:0:0:0:
252,240,155364,1,0,0:0:0:0:
296,252,155449,1,8,0:0:0:0:
272,232,155617,1,0,0:0:0:0:
264,228,155701,1,0,0:0:0:0:
264,236,155786,1,8,0:0:0:0:
272,224,155870,1,0,0:0:0:0:
272,224,155954,1,0,0:0:0:0:
272,224,156038,1,0,0:0:0:0:
248,248,156123,1,8,0:0:0:0:
324,244,156291,1,8,0:0:0:0:
324,244,156376,1,8,0:0:0:0:
324,244,156460,1,0,0:0:0:0:
248,232,156628,1,0,0:0:0:0:
248,232,156713,1,0,0:0:0:0:
248,232,156797,1,0,0:0:0:0:
248,232,156881,1,0,0:0:0:0:
248,220,156965,1,8,0:0:0:0:
252,224,157050,1,8,0:0:0:0:
272,216,157134,1,0,0:0:0:0:
272,216,157303,1,0,0:0:0:0:
268,216,157387,1,0,0:0:0:0:
280,248,157471,1,8,0:0:0:0:
280,252,157640,1,0,0:0:0:0:
280,252,157724,1,0,0:0:0:0:
276,252,157808,1,0,0:0:0:0:
252,240,157977,1,0,0:0:0:0:
256,240,158061,1,0,0:0:0:0:
272,240,158145,1,8,0:0:0:0:
264,240,158201,1,8,0:0:0:0:
264,240,158258,1,8,0:0:0:0:
264,240,158314,1,8,0:0:0:0:
256,228,158482,1,0,0:0:0:0:
272,224,158538,1,0,0:0:0:0:
268,224,158595,1,0,0:0:0:0:
268,224,158651,1,0,0:0:0:0:
260,224,158819,1,8,0:0:0:0:
260,224,158876,1,8,0:0:0:0:
268,244,158932,1,0,0:0:0:0:
260,232,158988,1,8,0:0:0:0:
268,208,159156,1,8,0:0:0:0:
264,240,159213,1,8,0:0:0:0:
264,240,159269,1,0,0:0:0:0:
264,240,159325,1,0,0:0:0:0:
280,248,159494,1,0,0:0:0:0:
280,248,159662,1,0,0:0:0:0:
264,216,159831,1,8,0:0:0:0:
264,224,159915,1,8,0:0:0:0:
252,228,159999,1,0,0:0:0:0:
252,228,160083,1,0,0:0:0:0:
252,228,160168,1,0,0:0:0:0:
252,228,160252,1,0,0:0:0:0:
264,216,160336,1,8,0:0:0:0:
264,216,160421,1,8,0:0:0:0:
264,224,160505,1,0,0:0:0:0:
260,224,160589,1,0,0:0:0:0:
260,224,160673,1,0,0:0:0:0:
260,224,160758,1,0,0:0:0:0:
268,232,160842,1,8,0:0:0:0:
268,232,160926,1,8,0:0:0:0:
288,224,161010,1,0,0:0:0:0:
288,224,161095,1,0,0:0:0:0:
288,224,161179,1,0,0:0:0:0:
288,224,161263,1,0,0:0:0:0:
292,220,161347,1,8,0:0:0:0:
304,232,161432,1,0,0:0:0:0:
292,212,161516,1,8,0:0:0:0:
292,212,161600,1,8,0:0:0:0:
288,224,161685,1,0,0:0:0:0:
288,224,161769,1,0,0:0:0:0:
288,216,161853,1,8,0:0:0:0:
288,216,161937,1,8,0:0:0:0:
288,216,162022,1,8,0:0:0:0:
288,216,162106,1,8,0:0:0:0:
288,216,162190,1,8,0:0:0:0:
288,216,162274,1,8,0:0:0:0:
292,216,162359,1,0,0:0:0:0:
292,216,162415,1,8,0:0:0:0:
292,212,162471,1,8,0:0:0:0:
292,212,162527,1,0,0:0:0:0:
292,212,162696,1,0,0:0:0:0:
288,216,162780,1,8,0:0:0:0:
288,216,162864,1,8,0:0:0:0:
272,216,163033,1,0,0:0:0:0:
296,212,163117,1,8,0:0:0:0:
296,212,163201,1,8,0:0:0:0:
280,208,163286,1,0,0:0:0:0:
300,212,163370,1,0,0:0:0:0:
296,212,163454,1,0,0:0:0:0:
292,212,163538,1,0,0:0:0:0:
208,240,163707,1,8,0:0:0:0:
272,224,163876,1,0,0:0:0:0:
272,224,164044,1,8,0:0:0:0:
272,224,164128,1,8,0:0:0:0:
272,220,164213,1,8,0:0:0:0:
224,240,164381,1,8,0:0:0:0:
280,212,164465,1,8,0:0:0:0:
276,216,164550,1,8,0:0:0:0:
260,248,164718,1,0,0:0:0:0:
260,248,164803,1,0,0:0:0:0:
248,236,164887,1,8,0:0:0:0:
248,236,164971,1,8,0:0:0:0:
272,244,165055,1,0,0:0:0:0:
272,240,165140,1,0,0:0:0:0:
272,240,165224,1,0,0:0:0:0:
272,228,165392,1,0,0:0:0:0:
272,228,165477,1,0,0:0:0:0:
300,224,165561,1,8,0:0:0:0:
256,236,165645,1,0,0:0:0:0:
260,248,165729,1,8,0:0:0:0:
256,244,165814,1,8,0:0:0:0:
280,256,165898,1,0,0:0:0:0:
264,236,165982,1,8,0:0:0:0:
272,244,166067,1,0,0:0:0:0:
256,248,166235,1,0,0:0:0:0:
248,252,166404,1,8,0:0:0:0:
252,248,166488,1,0,0:0:0:0:
252,248,166572,1,0,0:0:0:0:
264,236,166741,1,0,0:0:0:0:
268,236,166825,1,0,0:0:0:0:
256,240,166909,1,8,0:0:0:0:
288,256,167078,1,0,0:0:0:0:
288,256,167134,1,0,0:0:0:0:
288,256,167190,1,0,0:0:0:0:
264,260,167246,1,8,0:0:0:0:
308,256,167415,1,0,0:0:0:0:
308,256,167499,1,0,0:0:0:0:
308,256,167583,1,0,0:0:0:0:
308,256,167668,1,0,0:0:0:0:
308,256,167752,1,0,0:0:0:0:
328,256,167921,1,8,0:0:0:0:
312,260,168089,1,0,0:0:0:0:
316,264,168258,1,0,0:0:0:0:
320,240,168342,1,0,0:0:0:0:
300,260,168426,1,8,0:0:0:0:
312,248,168595,1,0,0:0:0:0:
312,248,168763,1,8,0:0:0:0:
312,248,168847,1,8,0:0:0:0:
304,256,168932,1,0,0:0:0:0:
304,256,169100,1,0,0:0:0:0:
296,248,169269,1,8,0:0:0:0:
320,236,169437,1,0,0:0:0:0:
320,236,169494,1,0,0:0:0:0:
320,236,169550,1,0,0:0:0:0:
312,240,169606,1,8,0:0:0:0:
296,248,169774,1,0,0:0:0:0:
344,252,169817,1,0,0:0:0:0:
328,240,169943,1,8,0:0:0:0:
328,240,169985,1,8,0:0:0:0:
316,248,170112,1,8,0:0:0:0:
316,248,170154,1,8,0:0:0:0:
324,232,170280,1,0,0:0:0:0:
324,232,170322,1,0,0:0:0:0:
352,244,170449,1,0,0:0:0:0:
352,244,170491,1,0,0:0:0:0:
340,264,170617,1,8,0:0:0:0:
352,264,170659,1,8,0:0:0:0:
376,260,170701,1,0,0:0:0:0:
380,256,170786,1,0,0:0:0:0:
376,256,170870,1,0,0:0:0:0:
376,256,170954,1,0,0:0:0:0:
376,256,171038,1,0,0:0:0:0:
376,256,171123,1,8,0:0:0:0:
344,264,171207,1,0,0:0:0:0:
348,264,171291,1,0,0:0:0:0:
344,260,171376,1,0,0:0:0:0:
344,260,171460,1,0,0:0:0:0:
344,260,171544,1,0,0:0:0:0:
352,248,171628,1,8,0:0:0:0:
344,252,171713,1,0,0:0:0:0:
344,252,171797,1,0,0:0:0:0:
336,256,171881,1,0,0:0:0:0:
356,260,171965,1,8,0:0:0:0:
344,256,172134,1,8,0:0:0:0:
328,272,172218,1,0,0:0:0:0:
328,272,172303,1,0,0:0:0:0:
328,272,172387,1,0,0:0:0:0:
328,272,172471,1,0,0:0:0:0:
344,260,172555,1,8,0:0:0:0:
344,264,172640,1,8,0:0:0:0:
312,212,172851,1,8,0:0:0:0:
312,212,172893,1,8,0:0:0:0:
312,212,172935,1,8,0:0:0:0:
344,256,172977,1,8,0:0:0:0:
316,236,173145,1,12,0:0:0:0:
260,184,173314,5,0,0:0:0:0:
260,184,173398,1,0,0:0:0:0:
260,184,173483,1,8,0:0:0:0:
260,184,173651,1,0,0:0:0:0:
260,184,173820,1,8,0:0:0:0:
264,236,173988,1,8,0:0:0:0:
264,236,174072,1,8,0:0:0:0:
260,184,174157,1,8,0:0:0:0:
296,248,174325,1,0,0:0:0:0:
260,184,174494,1,8,0:0:0:0:
260,184,174578,1,8,0:0:0:0:
260,184,174662,1,0,0:0:0:0:
256,272,174831,1,0,0:0:0:0:
260,184,174999,1,8,0:0:0:0:
264,272,175168,1,0,0:0:0:0:
264,272,175252,1,0,0:0:0:0:
260,184,175336,1,0,0:0:0:0:
268,212,175505,1,0,0:0:0:0:
260,184,175674,1,8,0:0:0:0:
260,184,175786,1,8,0:0:0:0:
260,184,175898,1,8,0:0:0:0:
260,184,176011,1,12,0:0:0:0:
260,184,176517,1,0,0:0:0:0:
260,184,176601,1,0,0:0:0:0:
260,184,176686,1,8,0:0:0:0:
260,184,176853,1,0,0:0:0:0:
260,184,177022,1,8,0:0:0:0:
260,184,177106,1,8,0:0:0:0:
260,184,177190,1,8,0:0:0:0:
264,208,177443,1,0,0:0:0:0:
260,184,177527,1,8,0:0:0:0:
256,216,177696,1,8,0:0:0:0:
260,184,177865,1,8,0:0:0:0:
260,184,177949,1,8,0:0:0:0:
260,184,178033,1,0,0:0:0:0:
200,208,178370,1,0,0:0:0:0:
224,224,178707,1,8,0:0:0:0:
224,224,178763,1,8,0:0:0:0:
224,224,178819,1,8,0:0:0:0:
224,224,178876,1,8,0:0:0:0:
216,232,179044,1,0,0:0:0:0:
208,200,179213,1,8,0:0:0:0:
224,208,179269,1,8,0:0:0:0:
212,232,179325,1,0,0:0:0:0:
216,232,179381,1,0,0:0:0:0:
216,232,179550,1,0,0:0:0:0:
256,192,179718,5,0,0:0:0:0:
224,264,179803,1,0,0:0:0:0:
224,264,179887,1,0,0:0:0:0:
256,192,180055,5,12,0:0:0:0:
256,192,180223,1,4,0:0:0:0:
256,192,180392,1,12,0:0:0:0:
256,192,180560,1,4,0:0:0:0:
268,208,180729,1,8,0:0:0:0:
256,208,180898,1,8,0:0:0:0:
256,208,180954,1,8,0:0:0:0:
256,208,181010,1,8,0:0:0:0:
252,204,181067,1,8,0:0:0:0:
256,192,181235,1,0,0:0:0:0:
256,192,181319,1,0,0:0:0:0:
256,192,181404,1,0,0:0:0:0:
256,192,181572,1,0,0:0:0:0:
236,196,181657,1,0,0:0:0:0:
256,192,181741,1,8,0:0:0:0:
256,192,181910,1,4,0:0:0:0:
256,192,182078,1,0,0:0:0:0:
144,236,182162,1,0,0:0:0:0:
256,192,182247,1,8,0:0:0:0:
256,192,182415,1,4,0:0:0:0:
256,192,182584,1,8,0:0:0:0:
256,192,182668,1,8,0:0:0:0:
256,192,182752,1,8,0:0:0:0:
256,192,182921,1,4,0:0:0:0:
256,192,183089,1,8,0:0:0:0:
256,192,183174,1,8,0:0:0:0:
256,192,183258,1,0,0:0:0:0:
132,176,183426,1,4,0:0:0:0:
256,192,183595,1,12,0:0:0:0:
256,192,183763,1,4,0:0:0:0:
256,192,183932,1,8,0:0:0:0:
256,192,183988,1,8,0:0:0:0:
256,192,184044,1,8,0:0:0:0:
256,192,184101,1,0,0:0:0:0:
272,184,184269,1,0,0:0:0:0:
256,192,184353,1,0,0:0:0:0:
256,192,184438,1,8,0:0:0:0:
256,192,184606,1,0,0:0:0:0:
256,192,184943,1,12,0:0:0:0:
256,192,185280,1,8,0:0:0:0:
252,188,185336,1,0,0:0:0:0:
252,188,185393,1,0,0:0:0:0:
248,188,185449,1,8,0:0:0:0:
256,192,185786,1,0,0:0:0:0:
256,192,185954,1,0,0:0:0:0:
256,192,186038,1,0,0:0:0:0:
256,192,186123,1,0,0:0:0:0:
256,192,186292,1,0,0:0:0:0:
256,192,186460,1,8,0:0:0:0:
256,192,186629,1,0,0:0:0:0:
256,192,186685,1,0,0:0:0:0:
256,192,186741,1,0,0:0:0:0:
260,196,186797,1,8,0:0:0:0:
228,240,187303,1,0,0:0:0:0:
224,248,187388,1,0,0:0:0:0:
224,244,187472,1,0,0:0:0:0:
256,192,187640,1,0,0:0:0:0:
264,188,187808,1,8,0:0:0:0:
260,188,187893,1,8,0:0:0:0:
256,192,187977,1,0,0:0:0:0:
256,192,188145,1,0,0:0:0:0:
264,192,188342,1,8,0:0:0:0:
264,192,188385,1,0,0:0:0:0:
260,192,188426,1,8,0:0:0:0:
256,192,188468,1,0,0:0:0:0:
256,192,188651,1,8,0:0:0:0:
264,188,188820,1,0,0:0:0:0:
260,192,188988,1,0,0:0:0:0:
256,192,189157,1,8,0:0:0:0:
252,188,189241,1,8,0:0:0:0:
252,188,189325,1,8,0:0:0:0:
256,192,189494,1,8,0:0:0:0:
264,188,189831,1,0,0:0:0:0:
256,192,190336,1,0,0:0:0:0:
260,192,190674,1,8,0:0:0:0:
256,192,190758,1,0,0:0:0:0:
268,192,190842,1,0,0:0:0:0:
292,192,191011,1,8,0:0:0:0:
276,200,191095,1,8,0:0:0:0:
268,192,191179,1,0,0:0:0:0:
268,192,191348,1,0,0:0:0:0:
268,192,191516,1,8,0:0:0:0:
280,188,191685,1,0,0:0:0:0:
276,188,191769,1,0,0:0:0:0:
276,188,191853,1,0,0:0:0:0:
276,188,192022,1,0,0:0:0:0:
256,212,192078,1,0,0:0:0:0:
256,212,192134,1,0,0:0:0:0:
272,220,192190,1,8,0:0:0:0:
256,200,192359,1,0,0:0:0:0:
256,200,192443,1,0,0:0:0:0:
260,192,192527,1,8,0:0:0:0:
256,212,192696,1,0,0:0:0:0:
264,208,192752,1,0,0:0:0:0:
264,208,192808,1,0,0:0:0:0:
252,212,192865,1,0,0:0:0:0:
264,196,193033,1,8,0:0:0:0:
264,200,193202,1,8,0:0:0:0:
264,200,193314,1,0,0:0:0:0:
264,200,193426,1,0,0:0:0:0:
266,201,193539,1,8,0:0:0:0:
