osu file format v14

[General]
AudioFilename: audio.mp3
AudioLeadIn: 0
PreviewTime: -1
Countdown: 0
SampleSet: None
StackLeniency: 0.7
Mode: 0
LetterboxInBreaks: 0
WidescreenStoryboard: 1

[Editor]
DistanceSpacing: 1.5
BeatDivisor: 4
GridSize: 8
TimelineZoom: 1.999999

[Metadata]
Title:Flamingo (Berd Edition)
TitleUnicode:Flamingo (Berd Edition)
Artist:Kero Kero Bonito
ArtistUnicode:Kero Kero Bonito
Creator:nistorcristi99
Version:henry11's Insane
Source:
Tags:kero kero bonito flamingo berd edition memes lol
BeatmapID:1474772
BeatmapSetID:696097

[Difficulty]
HPDrainRate:7
CircleSize:4.7
OverallDifficulty:6
ApproachRate:9.2
SliderMultiplier:2.4
SliderTickRate:1

[Events]
//Background and Video events
Video,0,"Flamingo.mp4"
0,0,"flominga.jpg",0,0
//Break Periods
//Storyboard Layer 0 (Background)
//Storyboard Layer 1 (Fail)
//Storyboard Layer 2 (Pass)
//Storyboard Layer 3 (Foreground)
//Storyboard Sound Samples

[TimingPoints]
910,366.97247706422,4,2,0,100,1,0
910,-100,4,2,0,31,0,0
6873,-100,4,2,0,5,0,0
7148,-100,4,2,0,31,0,0
12653,-66.6666666666667,4,3,0,40,0,0
20726,-66.6666666666667,4,3,0,50,0,0
21093,-66.6666666666667,4,3,0,40,0,0
30267,-1000,4,3,0,40,0,0
31001,-100,4,3,0,40,0,0
33020,-66.6666666666667,4,3,0,40,0,0

[Colours]
Combo1 : 255,255,255
Combo2 : 255,255,255

[HitObjects]
61,65,910,6,0,P|145:53|269:142,1,240,0|8,0:0|0:0,0:0:0:0:
152,192,1460,2,0,B|224:264|224:264|280:224,1,120
320,256,2010,2,0,P|392:235|415:191,1,120,8|0,0:0|0:0,0:0:0:0:
304,152,2377,1,0,0:0:0:0:
207,94,2561,6,0,B|130:95|130:95|51:62,1,120,0|8,0:0|0:0,0:0:0:0:
122,244,3111,1,0,0:0:0:0:
122,244,3203,1,0,0:0:0:0:
122,244,3295,1,0,0:0:0:0:
248,208,3478,1,8,0:0:0:0:
400,128,3662,2,0,B|352:208|352:208|408:256,1,120
280,280,4212,6,0,P|221:281|178:320,1,120,8|0,0:0|0:0,0:0:0:0:
112,208,4579,2,0,B|120:136|120:136|168:152,1,120
280,216,4946,2,0,B|328:96|328:96|248:176,1,240,8|0,0:0|0:0,0:0:0:0:
232,80,5497,1,0,0:0:0:0:
176,192,5680,2,0,B|120:240|120:240|176:264,1,120,8|0,0:0|0:0,0:0:0:0:
152,72,6047,1,0,0:0:0:0:
58,57,6231,6,0,L|60:139,1,60
58,206,6414,2,0,L|62:289,1,60,8|0,0:0|0:0,0:0:0:0:
150,262,6598,2,0,L|149:169,1,60
149,112,6781,2,0,L|148:38,1,60
232,64,7148,2,0,B|288:120|288:120|344:72,1,120,8|0,0:0|0:0,0:0:0:0:
368,240,7515,2,0,B|272:232|272:232|268:255,1,120
184,168,7882,5,8,0:0:0:0:
184,168,7974,1,0,0:0:0:0:
184,168,8065,1,0,0:0:0:0:
64,272,8249,2,0,B|66:136|66:136|163:73,1,240,0|8,0:0|0:0,0:0:0:0:
268,143,8983,2,0,B|168:190|168:190|154:319,1,240,0|8,0:0|0:0,0:0:0:0:
232,304,9717,2,0,B|315:343|315:343|387:346|387:346|445:279,1,240,0|8,0:0|0:0,0:0:0:0:
144,208,10451,1,0,0:0:0:0:
286,107,10634,1,0,0:0:0:0:
305,285,10818,6,0,P|444:263|473:166,1,240,8|4,0:0|0:0,0:0:0:0:
144,256,12653,5,0,0:0:0:0:
288,320,12836,1,0,0:0:0:0:
264,120,13020,1,0,0:0:0:0:
136,64,13203,6,0,P|92:141|85:230,1,180,0|8,0:0|0:0,0:0:0:0:
243,165,13570,2,0,P|216:244|288:288,1,180
332,106,13937,1,0,0:0:0:0:
162,46,14121,1,0,0:0:0:0:
88,192,14487,2,0,L|287:193,1,180.000006866455
272,272,14854,2,8,L|92:272,1,180.000006866455,8|0,0:0|0:0,0:0:0:0:
248,66,15221,5,0,0:0:0:0:
344,176,15405,1,0,0:0:0:0:
156,213,15588,1,0,0:0:0:0:
120,48,15772,2,0,P|112:155|129:220,2,90.0000034332277
392,72,16139,6,0,L|342:187,1,90.0000034332277
288,304,16322,2,0,L|339:188,1,90.0000034332277,8|0,0:0|0:0,0:0:0:0:
200,152,16506,2,0,L|343:176,1,90.0000034332277
424,216,16689,1,0,0:0:0:0:
400,96,16873,2,0,L|312:128,2,90.0000034332277
252,193,17240,6,0,P|255:294|321:332,1,180.000006866455
443,204,17607,1,0,0:0:0:0:
344,264,17790,1,8,0:0:0:0:
336,144,18157,2,0,B|240:216|240:216|208:304,1,180.000006866455
128,240,18524,2,0,B|80:176|80:176|160:176|160:176|112:96|112:96|200:104|200:104|248:104,1,360.000013732911
424,112,19258,2,0,P|315:112|225:90,1,180.000006866455,8|0,0:0|0:0,0:0:0:0:
224,216,19625,2,0,B|192:304|192:304|104:264,1,180.000006866455
224,120,19992,1,0,0:0:0:0:
142,35,20176,5,0,0:0:0:0:
321,48,20359,1,0,0:0:0:0:
345,226,20543,1,0,0:0:0:0:
168,272,20726,1,8,0:0:0:0:
93,167,20910,2,0,P|195:145|262:190,1,180.000006866455
392,112,21276,5,0,0:0:0:0:
392,112,21368,1,0,0:0:0:0:
392,112,21460,1,0,0:0:0:0:
139,244,21643,5,0,0:0:0:0:
144,64,21827,1,0,0:0:0:0:
323,67,22010,1,0,0:0:0:0:
334,246,22194,1,8,0:0:0:0:
139,244,22377,1,0,0:0:0:0:
144,64,22561,5,0,0:0:0:0:
328,72,22744,1,0,0:0:0:0:
334,246,22928,1,0,0:0:0:0:
139,244,23111,1,0,0:0:0:0:
144,64,23295,1,0,0:0:0:0:
324,68,23478,5,0,0:0:0:0:
333,247,23662,1,8,0:0:0:0:
139,244,23845,1,0,0:0:0:0:
144,64,24029,1,0,0:0:0:0:
323,67,24212,1,0,0:0:0:0:
333,247,24396,1,0,0:0:0:0:
160,184,24579,6,0,L|74:244,1,90.0000034332277
160,232,24763,1,0,0:0:0:0:
160,272,24854,2,0,L|235:222,1,90.0000034332277
104,120,25130,5,8,0:0:0:0:
248,72,25313,2,0,P|363:114|413:162,1,180.000006866455
289,216,25680,1,0,0:0:0:0:
289,216,25772,1,0,0:0:0:0:
289,216,25864,2,0,P|427:213|475:162,1,180.000006866455
271,75,26231,6,0,L|88:126,1,180.000006866455
185,188,26598,2,0,P|336:133|372:98,1,180.000006866455,8|0,0:0|0:0,0:0:0:0:
320,232,26965,2,0,P|400:304|464:272,1,180.000006866455
251,76,27332,1,0,0:0:0:0:
400,152,27515,1,0,0:0:0:0:
36,96,27882,6,0,B|80:191|81:191|199:180,1,180.000006866455,0|8,0:0|0:0,0:0:0:0:
377,124,28249,1,0,0:0:0:0:
285,319,28432,1,0,0:0:0:0:
86,234,28616,1,0,0:0:0:0:
208,40,28799,2,0,B|152:80|152:80|232:160,1,180.000006866455
360,88,29166,1,0,0:0:0:0:
376,256,29350,1,0,0:0:0:0:
176,192,29533,1,8,0:0:0:0:
376,176,29900,6,0,P|401:68|336:119,1,270.000010299683
344,152,30267,2,0,L|296:168,1,48,0|8,0:0|0:0,0:0:0:0:
128,120,31368,1,0,0:0:0:0:
136,256,31552,2,0,B|216:240|216:240|168:200,1,120
288,152,31919,6,0,P|234:132|190:116,1,60
160,72,32102,2,0,L|223:31,1,60
312,56,32286,2,0,L|308:121,1,60
208,192,32469,6,0,P|213:282|250:316,1,120,8|0,0:0|0:0,0:0:0:0:
352,336,32836,1,0,0:0:0:0:
408,224,33020,5,0,0:0:0:0:
408,224,33111,1,0,0:0:0:0:
408,224,33203,2,0,P|275:235|226:205,1,180.000006866455
112,168,33570,1,0,0:0:0:0:
194,95,33754,2,0,P|305:58|399:58,1,180.000006866455,0|8,0:0|0:0,0:0:0:0:
264,184,34304,5,0,0:0:0:0:
131,93,34671,1,0,0:0:0:0:
131,93,34763,1,0,0:0:0:0:
131,93,34854,2,0,P|306:88|320:95,1,180.000006866455
136,248,35221,1,0,0:0:0:0:
328,176,35405,1,12,0:0:0:0:
