osu file format v14

[General]
AudioFilename: audio.mp3
AudioLeadIn: 0
PreviewTime: -1
Countdown: 0
SampleSet: Soft
StackLeniency: 0.7
Mode: 0
LetterboxInBreaks: 0
WidescreenStoryboard: 1

[Editor]
DistanceSpacing: 2
BeatDivisor: 4
GridSize: 16
TimelineZoom: 1.399999

[Metadata]
Title:Flamingo (Berd Edition)
TitleUnicode:Flamingo (Berd Edition)
Artist:Kero Kero Bonito
ArtistUnicode:Kero Kero Bonito
Creator:nistorcristi99
Version:Baby Flamingo
Source:
Tags:kero kero bonito flamingo berd edition memes lol
BeatmapID:1475601
BeatmapSetID:696097

[Difficulty]
HPDrainRate:6.4
CircleSize:4.2
OverallDifficulty:7
ApproachRate:8.7
SliderMultiplier:0.9
SliderTickRate:1

[Events]
//Background and Video events
Video,0,"Flamingo.mp4"
0,0,"flominga.jpg",0,0
//Break Periods
//Storyboard Layer 0 (Background)
//Storyboard Layer 1 (Fail)
//Storyboard Layer 2 (Pass)
//Storyboard Layer 3 (Foreground)
//Storyboard Sound Samples

[TimingPoints]
910,366.97247706422,4,2,0,100,1,0
12653,-100,4,2,0,100,0,1
17790,-50,4,2,0,100,0,1
18157,-66.6666666666667,4,2,0,100,0,1
18524,-100,4,2,0,100,0,1
18891,-100,4,2,0,5,0,1
19258,-100,4,2,0,100,0,1
24396,-100,4,2,0,100,0,0
29533,-50,4,2,0,100,0,1
29900,-66.6666666666667,4,2,0,100,0,1
30267,-100,4,2,0,100,0,1
30634,-100,4,2,0,5,0,1
31001,-100,4,2,0,75,0,1

[HitObjects]
176,176,909,5,0,0:0:0:0:
304,128,1276,1,10,0:0:0:0:
304,128,1460,1,0,0:0:0:0:
304,128,1643,2,0,L|328:176,1,45
368,256,2010,5,10,0:0:0:0:
272,272,2194,1,0,0:0:0:0:
176,272,2377,1,0,0:0:0:0:
112,208,2561,2,0,L|112:144,1,45,0|10,0:0|0:0,0:0:0:0:
192,128,2928,6,0,L|226:99,1,45
320,96,3295,1,0,0:0:0:0:
416,96,3478,2,0,L|416:144,1,45,10|0,0:0|0:0,0:0:0:0:
416,256,3845,1,0,0:0:0:0:
256,288,4212,5,10,0:0:0:0:
176,224,4396,1,0,0:0:0:0:
288,144,4579,2,0,L|256:192,1,45
160,96,4946,2,0,L|192:136,1,45,10|0,0:0|0:0,0:0:0:0:
304,80,5313,6,0,L|264:128,1,45
416,96,5680,1,10,0:0:0:0:
416,96,5864,1,0,0:0:0:0:
416,192,6047,1,0,0:0:0:0:
352,256,6231,1,0,0:0:0:0:
272,304,6414,2,0,L|224:304,1,45,10|0,0:0|0:0,0:0:0:0:
144,304,6781,1,0,0:0:0:0:
80,160,7148,5,10,0:0:0:0:
160,112,7332,1,0,0:0:0:0:
240,160,7515,1,0,0:0:0:0:
320,112,7698,1,0,0:0:0:0:
416,144,7882,2,8,L|416:208,1,45,10|0,0:0|0:0,0:0:0:0:
368,288,8249,5,0,0:0:0:0:
368,288,8432,1,0,0:0:0:0:
256,288,8616,2,0,L|256:240,1,45,10|0,0:0|0:0,0:0:0:0:
256,128,8983,1,0,0:0:0:0:
160,240,9350,5,10,0:0:0:0:
96,176,9533,2,0,L|64:144,1,45
128,80,9900,1,0,0:0:0:0:
224,64,10084,1,10,0:0:0:0:
224,64,10176,1,0,0:0:0:0:
224,64,10267,1,0,0:0:0:0:
304,80,10451,6,0,L|352:64,1,45
362,135,10818,2,0,L|400:160,1,45,10|0,0:0|0:0,0:0:0:0:
416,256,11185,1,4,0:0:0:0:
112,96,12653,2,0,L|112:128,1,22.5
112,176,12836,2,0,L|112:208,1,22.5
176,96,13020,2,0,L|176:128,1,22.5
176,176,13203,1,0,0:0:0:0:
192,256,13387,6,0,L|240:256,1,45,10|0,0:0|0:0,0:0:0:0:
320,256,13754,2,0,L|320:208,1,45
320,128,14121,1,0,0:0:0:0:
240,128,14304,2,0,L|195:149,1,45
208,224,14671,2,0,L|259:203,1,45,0|10,0:0|0:0,0:0:0:0:
272,288,15038,2,0,L|223:303,1,45
144,304,15405,1,0,0:0:0:0:
144,208,15588,1,0,0:0:0:0:
192,96,16139,5,0,0:0:0:0:
192,96,16231,1,0,0:0:0:0:
192,96,16322,1,10,0:0:0:0:
272,96,16506,2,0,L|336:96,1,45
320,176,16873,1,0,0:0:0:0:
320,256,17056,2,0,L|272:256,1,45
192,256,17423,1,0,0:0:0:0:
144,176,17607,1,0,0:0:0:0:
176,96,17790,6,0,B|208:64|208:64|256:64|256:64|288:96,1,135,10|0,0:0|0:0,0:0:0:0:
285,93,18157,2,0,P|284:144|284:200,1,101.250003862381
283,194,18524,2,0,L|192:196,1,90
96,192,19258,5,10,0:0:0:0:
160,128,19442,1,0,0:0:0:0:
224,64,19625,2,0,L|280:64,1,45
272,160,19992,2,0,L|227:160,1,45
224,256,20359,1,0,0:0:0:0:
304,256,20543,2,0,L|368:256,1,45,0|10,0:0|0:0,0:0:0:0:
416,112,21276,5,0,0:0:0:0:
416,112,21368,1,0,0:0:0:0:
416,112,21460,1,0,0:0:0:0:
320,112,21643,2,0,L|275:112,1,45
192,112,22010,2,0,L|192:160,1,45,0|10,0:0|0:0,0:0:0:0:
192,240,22377,1,0,0:0:0:0:
192,240,22561,5,0,0:0:0:0:
272,240,22744,2,0,L|272:176,1,45
272,112,23111,2,0,L|320:112,1,45
384,112,23478,2,0,L|384:176,1,45,0|10,0:0|0:0,0:0:0:0:
384,240,23845,1,0,0:0:0:0:
304,240,24029,2,0,L|256:240,1,45
176,240,24396,6,0,L|176:288,2,45
96,240,24946,2,0,L|96:192,1,45,0|10,0:0|0:0,0:0:0:0:
96,112,25313,1,0,0:0:0:0:
96,112,25497,1,0,0:0:0:0:
176,112,25680,2,0,L|240:112,1,45
224,192,26047,6,0,L|176:192,1,45
176,272,26414,2,0,L|224:272,1,45,0|10,0:0|0:0,0:0:0:0:
304,272,26781,2,0,L|304:224,1,45
304,144,27148,1,0,0:0:0:0:
304,144,27332,1,0,0:0:0:0:
432,96,27882,5,0,0:0:0:0:
368,128,28065,2,0,L|320:160,1,45,10|0,0:0|0:0,0:0:0:0:
272,192,28432,2,0,L|224:224,1,45
192,288,28799,1,0,0:0:0:0:
192,288,28983,1,0,0:0:0:0:
272,304,29166,2,0,L|272:240,1,45
272,192,29533,6,0,L|416:192,1,135,10|0,0:0|0:0,0:0:0:0:
400,144,29900,2,0,L|298:144,1,101.250003862381
320,96,30267,2,0,L|416:96,1,90
416,192,31001,5,10,0:0:0:0:
336,192,31185,1,0,0:0:0:0:
336,192,31368,1,0,0:0:0:0:
256,192,31552,2,0,L|211:192,1,45
128,192,31919,2,0,L|128:128,1,45
128,64,32286,1,0,0:0:0:0:
208,64,32469,1,10,0:0:0:0:
368,128,33020,5,0,0:0:0:0:
368,128,33111,1,0,0:0:0:0:
368,128,33203,1,0,0:0:0:0:
304,192,33387,2,0,L|256:224,1,45
192,256,33754,1,0,0:0:0:0:
192,256,33937,1,10,0:0:0:0:
160,176,34304,1,0,0:0:0:0:
224,96,34671,5,0,0:0:0:0:
224,96,34763,1,0,0:0:0:0:
224,96,34854,1,0,0:0:0:0:
320,96,35038,1,2,0:0:0:0:
288,208,35221,1,0,0:0:0:0:
288,208,35313,1,0,0:0:0:0:
288,208,35405,1,14,0:0:0:0:
