osu file format v14

[General]
AudioFilename: audio.mp3
AudioLeadIn: 0
PreviewTime: 4825
Countdown: 1
SampleSet: Soft
StackLeniency: 0.4
Mode: 0
LetterboxInBreaks: 0
WidescreenStoryboard: 0

[Editor]
DistanceSpacing: 1
BeatDivisor: 4
GridSize: 8
TimelineZoom: 1

[Metadata]
Title:Szamolo Dal
TitleUnicode:Számoló Dal
Artist:KerekMese
ArtistUnicode:KerekMese
Creator:Nidasimno
Version:[lg(10)*sin(pi/2)*cos(2*pi)]/420^0
Source:KerekMese
Tags:szamolo dal gyerekeknek meme hungarian egy ketto harom negy ot hat het nyolc kilenc math matek sin log cos nyuszi bunny nyul almafa katica kiskacsa porszivo ponilo pillango repulo serpenyo esernyo
BeatmapID:1458791
BeatmapSetID:689093

[Difficulty]
HPDrainRate:6
CircleSize:4
OverallDifficulty:7
ApproachRate:8
SliderMultiplier:1.2
SliderTickRate:1

[Events]
//Background and Video events
0,0,"nyuszi.jpg",0,0
//Break Periods
2,37575,39925
2,42075,42775
2,44925,47275
2,78087,80233
2,82353,83054
2,85174,86908
//Storyboard Layer 0 (Background)
//Storyboard Layer 1 (Fail)
//Storyboard Layer 2 (Pass)
//Storyboard Layer 3 (Foreground)
//Storyboard Sound Samples

[TimingPoints]
25,300,4,2,0,100,1,0
4825,-83.3333333333333,4,2,0,100,0,0
48025,275.229357798165,4,2,0,100,1,0
48031,-83.3333333333333,4,2,0,100,0,0
87658,253.69978858351,4,2,0,100,1,0
87658,-71.4285714285714,4,2,0,100,0,0

[HitObjects]
90,98,25,5,0,0:0:0:0:
126,186,325,1,0,0:0:0:0:
185,111,625,2,0,P|258:98|304:120,1,120,8|0,0:0|0:0,0:0:0:0:
164,322,1225,5,0,0:0:0:0:
173,237,1525,1,0,0:0:0:0:
240,184,1825,2,0,P|262:238|229:304,1,120,8|0,0:0|0:0,0:0:0:0:
60,216,2425,1,0,0:0:0:0:
60,216,2725,2,0,B|87:216|108:233|108:233|119:228|119:228|149:248|192:231,1,120,0|8,0:0|0:0,0:0:0:0:
326,307,3325,1,0,0:0:0:0:
225,42,3625,1,0,0:0:0:0:
215,70,3925,1,0,0:0:0:0:
215,100,4225,1,0,0:0:0:0:
225,128,4525,1,0,0:0:0:0:
324,186,4825,5,6,0:0:0:0:
153,80,5125,2,0,P|225:46|287:70,1,143.999995605469,0|8,0:0|0:0,0:0:0:0:
167,192,5725,2,0,P|149:225|137:265,1,71.9999978027344
221,149,6025,2,0,P|166:193|138:259,1,143.999995605469
179,347,6475,6,0,P|154:356|50:225,1,215.999993408203
221,149,7225,2,0,P|295:141|363:108,2,143.999995605469
128,178,8125,2,0,P|122:140|146:84,1,71.9999978027344
77,178,8425,6,0,P|75:124|101:37,2,143.999995605469
104,313,9325,1,0,0:0:0:0:
285,247,9625,2,0,P|362:242|413:293,1,143.999995605469
325,334,10225,1,0,0:0:0:0:
342,133,10525,2,0,P|350:167|343:203,1,71.9999978027344
342,133,10825,2,0,P|331:71|345:11,1,125.999996154785
431,72,11275,1,0,0:0:0:0:
431,72,11725,1,0,0:0:0:0:
256,64,12025,5,0,0:0:0:0:
256,112,12625,1,0,0:0:0:0:
256,152,13225,1,0,0:0:0:0:
310,384,14425,2,0,L|348:245,1,143.999995605469
303,157,15025,5,0,0:0:0:0:
220,304,15325,1,0,0:0:0:0:
429,192,15625,2,0,P|355:146|297:162,2,143.999995605469
429,192,16525,1,0,0:0:0:0:
341,18,16825,2,0,L|303:157,1,143.999995605469
230,80,17425,5,0,0:0:0:0:
353,206,17725,2,2,L|302:155,1,71.9999978027344,0|0,0:0|0:0,0:0:0:0:
303,156,18025,2,0,P|245:190|170:167,1,143.999995605469
108,151,18475,2,0,P|143:152|174:170,1,71.9999978027344
232,81,18925,1,0,0:0:0:0:
253,360,19225,2,0,L|243:216,1,143.999995605469
158,142,19825,1,0,0:0:0:0:
139,284,20125,5,0,0:0:0:0:
232,81,20425,2,0,P|171:44|104:62,2,143.999995605469
232,81,21325,1,0,0:0:0:0:
256,320,21625,1,0,0:0:0:0:
256,272,22225,1,0,0:0:0:0:
256,232,22825,1,0,0:0:0:0:
49,132,24025,2,0,P|12:192|30:259,1,143.999995605469
32,256,24625,5,0,0:0:0:0:
216,256,24925,1,0,0:0:0:0:
216,256,25075,1,0,0:0:0:0:
216,256,25225,1,0,0:0:0:0:
260,190,25525,1,0,0:0:0:0:
253,329,25825,1,0,0:0:0:0:
135,254,26125,1,0,0:0:0:0:
283,10,26425,2,0,P|215:29|182:91,1,143.999995605469
182,90,27025,5,0,0:0:0:0:
360,192,27325,1,0,0:0:0:0:
360,192,27475,1,0,0:0:0:0:
360,192,27625,1,0,0:0:0:0:
415,108,27925,1,0,0:0:0:0:
406,283,28225,1,0,0:0:0:0:
258,189,28525,1,0,0:0:0:0:
258,189,28675,1,0,0:0:0:0:
258,189,28825,2,0,P|210:242|127:252,1,143.999995605469
182,90,29425,5,0,0:0:0:0:
258,189,29725,1,0,0:0:0:0:
258,189,29875,1,0,0:0:0:0:
258,189,30025,1,0,0:0:0:0:
204,307,30325,1,0,0:0:0:0:
382,190,30625,1,0,0:0:0:0:
200,78,30925,1,0,0:0:0:0:
382,190,31225,1,0,0:0:0:0:
120,192,31825,1,0,0:0:0:0:
256,192,32425,1,0,0:0:0:0:
189,40,33625,6,0,P|257:18|333:50,1,143.999995605469
323,41,34075,1,0,0:0:0:0:
258,257,34375,2,0,B|279:188|246:162|257:103,1,143.999995605469
332,45,34825,5,0,0:0:0:0:
121,170,35125,1,0,0:0:0:0:
121,170,35275,6,0,P|157:204|211:206,1,71.9999978027344
411,192,36025,6,0,P|382:238|407:320,1,143.999995605469
467,258,36625,1,0,0:0:0:0:
310,346,36925,1,0,0:0:0:0:
310,346,37075,1,0,0:0:0:0:
310,346,37225,2,0,L|221:317,1,71.9999978027344
256,192,40675,12,0,41875,0:0:0:0:
256,192,43525,12,0,44725,0:0:0:0:
254,32,48025,6,0,B|241:73|273:121|248:176,1,120
253,299,48575,1,0,0:0:0:0:
166,120,48850,2,0,P|174:197|189:218,1,71.9999978027344
253,299,49125,2,0,P|183:294|108:332,1,143.999995605469
64,254,49538,2,0,P|40:283|28:335,1,71.9999978027344
253,299,49951,5,0,0:0:0:0:
271,183,50226,2,0,P|202:179|166:120,2,143.999995605469
366,104,51052,2,0,L|283:54,1,71.9999978027344
137,35,51327,6,0,P|206:46|244:105,2,143.999995605469
146,133,52153,2,0,L|102:190,1,71.9999978027344
97,283,52428,2,0,B|116:233|71:180|71:180|127:197,1,143.999995605469
2,254,52979,1,0,0:0:0:0:
248,264,53254,2,0,L|190:220,1,71.9999978027344
344,268,53529,2,0,P|332:308|228:359,1,143.999995605469
192,316,53942,2,0,L|249:359,1,71.9999978027344
249,359,54355,1,0,0:0:0:0:
256,64,54630,5,0,0:0:0:0:
256,112,55180,1,0,0:0:0:0:
256,152,55731,1,0,0:0:0:0:
377,115,56832,2,0,B|402:162|471:162|471:162|422:194,1,143.999995605469
368,240,57382,5,0,0:0:0:0:
471,52,57658,2,0,L|438:151,1,71.9999978027344
368,240,57933,2,0,P|346:208|389:111,2,143.999995605469
368,240,58758,1,0,0:0:0:0:
176,272,59034,2,0,P|253:301|283:358,1,143.999995605469
214,189,59584,5,0,0:0:0:0:
178,49,59859,2,0,L|195:118,1,71.9999978027344
176,272,60135,2,0,P|246:268|298:220,1,143.999995605469
196,119,60547,2,0,L|213:188,1,71.9999978027344
258,363,60960,1,0,0:0:0:0:
44,255,61236,2,0,P|113:239|176:272,1,143.999995605469
258,363,61786,1,0,0:0:0:0:
101,333,62061,6,0,L|106:247,1,71.9999978027344
104,46,62336,2,0,P|128:106|102:182,2,143.999995605469
32,113,63162,1,0,0:0:0:0:
256,320,63437,1,0,0:0:0:0:
256,272,63988,1,0,0:0:0:0:
256,232,64538,1,0,0:0:0:0:
256,104,65639,1,0,0:0:0:0:
356,237,65914,1,0,0:0:0:0:
421,84,66190,5,0,0:0:0:0:
343,140,66465,1,0,0:0:0:0:
343,140,66602,1,0,0:0:0:0:
343,140,66740,1,0,0:0:0:0:
441,183,67015,1,0,0:0:0:0:
330,34,67291,1,0,0:0:0:0:
258,204,67566,1,0,0:0:0:0:
66,82,67841,1,0,0:0:0:0:
141,257,68116,1,0,0:0:0:0:
256,104,68392,5,0,0:0:0:0:
154,146,68667,1,0,0:0:0:0:
154,146,68804,1,0,0:0:0:0:
154,146,68942,1,0,0:0:0:0:
52,190,69217,1,0,0:0:0:0:
167,37,69493,1,0,0:0:0:0:
254,259,69768,1,0,0:0:0:0:
254,259,69905,1,0,0:0:0:0:
254,259,70043,1,0,0:0:0:0:
52,190,70318,1,0,0:0:0:0:
314,137,70593,5,0,0:0:0:0:
157,332,70869,1,0,0:0:0:0:
157,332,71006,1,0,0:0:0:0:
157,332,71144,1,0,0:0:0:0:
167,37,71419,1,0,0:0:0:0:
382,190,71695,1,0,0:0:0:0:
157,332,71970,1,0,0:0:0:0:
382,190,72245,1,0,0:0:0:0:
120,192,72795,1,0,0:0:0:0:
256,192,73346,1,0,0:0:0:0:
183,84,74447,6,0,B|239:64|287:107|335:84,1,143.999995605469
325,87,74859,1,0,0:0:0:0:
222,185,75135,2,0,P|246:252|319:274,1,143.999995605469
325,87,75547,5,0,0:0:0:0:
155,283,75823,1,0,0:0:0:0:
156,283,75960,6,0,P|179:309|215:335,1,71.9999978027344
486,268,76648,2,0,P|432:301|345:273,2,143.999995605469
183,84,77475,1,0,0:0:0:0:
183,84,77612,1,0,0:0:0:0:
183,84,77750,2,0,L|112:75,1,71.9999978027344
256,192,80983,12,0,82153,0:0:0:0:
256,192,83804,12,0,84974,0:0:0:0:
108,102,87658,6,0,B|100:162|55:200|55:200|139:199|142:209,1,167.999994873047
201,305,88165,1,0,0:0:0:0:
108,102,88419,1,0,0:0:0:0:
257,368,88672,2,0,P|284:309|228:222,1,167.999994873047
180,162,89053,2,0,P|157:221|160:253,1,83.9999974365235
257,368,89433,5,0,0:0:0:0:
502,177,89687,2,0,P|430:252|368:246,1,167.999994873047
200,304,90194,1,0,0:0:0:0:
385,80,90448,2,0,L|418:186,1,83.9999974365235
497,309,90702,2,0,P|388:338|314:308,1,167.999994873047
258,329,91082,6,0,P|312:314|349:329,1,83.9999974365235
497,309,91463,1,0,0:0:0:0:
254,28,91717,2,0,B|229:79|289:123|252:196,1,167.999994873047
145,143,92224,1,0,0:0:0:0:
420,80,92478,2,0,B|340:58,1,83.9999974365235
254,192,92731,2,0,P|373:203|403:169,1,167.999994873047
321,126,93112,1,0,0:0:0:0:
321,126,93493,1,0,0:0:0:0:
256,320,93746,5,0,0:0:0:0:
256,272,94254,1,0,0:0:0:0:
256,232,94761,1,0,0:0:0:0:
381,24,95776,2,0,L|356:195,1,167.999994873047
337,321,96283,5,0,0:0:0:0:
380,24,96537,2,0,L|363:139,1,83.9999974365235
337,321,96791,2,0,L|362:150,1,167.999994873047
216,101,97298,2,0,P|146:72|69:137,1,167.999994873047
175,321,97805,2,0,L|151:154,1,167.999994873047
131,24,98312,5,0,0:0:0:0:
174,321,98566,2,0,L|157:205,1,83.9999974365235
131,24,98820,2,0,L|156:194,1,167.999994873047
266,226,99201,2,0,P|194:304|126:306,1,167.999994873047
155,190,99581,1,0,0:0:0:0:
512,189,99835,2,0,L|342:154,1,167.999994873047
182,121,100342,1,0,0:0:0:0:
512,189,100596,2,0,L|426:171,1,83.9999974365235
153,236,100850,6,0,P|235:231|296:160,1,167.999994873047
357,223,101230,2,0,P|335:259|303:286,1,83.9999974365235
357,223,101611,1,0,0:0:0:0:
256,64,101865,1,0,0:0:0:0:
256,112,102373,1,0,0:0:0:0:
256,152,102880,1,0,0:0:0:0:
236,288,103894,1,0,0:0:0:0:
358,125,104148,1,0,0:0:0:0:
438,312,104402,5,0,0:0:0:0:
343,244,104655,1,0,0:0:0:0:
343,244,104782,1,0,0:0:0:0:
343,244,104909,1,0,0:0:0:0:
451,196,105163,1,0,0:0:0:0:
329,360,105416,1,0,0:0:0:0:
256,192,105670,1,0,0:0:0:0:
39,321,105924,1,0,0:0:0:0:
132,104,106178,1,0,0:0:0:0:
275,294,106431,5,0,0:0:0:0:
154,238,106685,1,0,0:0:0:0:
154,238,106812,1,0,0:0:0:0:
154,238,106939,1,0,0:0:0:0:
164,377,107192,1,0,0:0:0:0:
22,187,107446,1,0,0:0:0:0:
407,268,107700,1,0,0:0:0:0:
407,268,107827,1,0,0:0:0:0:
407,268,107953,1,0,0:0:0:0:
267,37,108207,1,0,0:0:0:0:
118,237,108461,5,0,0:0:0:0:
407,268,108715,1,0,0:0:0:0:
407,268,108841,1,0,0:0:0:0:
407,268,108968,1,0,0:0:0:0:
134,94,109222,1,0,0:0:0:0:
458,133,109476,1,0,0:0:0:0:
245,347,109729,1,0,0:0:0:0:
382,190,109983,1,0,0:0:0:0:
120,192,110490,1,0,0:0:0:0:
256,192,110998,1,0,0:0:0:0:
411,57,112013,6,0,P|412:185|403:230,1,167.999994873047
404,223,112393,1,0,0:0:0:0:
91,186,112647,2,0,B|142:219|220:156|271:203,1,167.999994873047
404,223,113027,5,0,0:0:0:0:
142,318,113281,1,0,0:0:0:0:
142,318,113408,6,0,L|215:276,1,83.9999974365235
411,57,114042,2,0,P|357:24|257:64,2,167.999994873047
72,67,114803,1,0,0:0:0:0:
72,67,114930,1,0,0:0:0:0:
72,67,115056,2,0,L|86:160,1,83.9999974365235
336,115,116104,5,0,0:0:0:0:
163,319,116357,1,0,0:0:0:0:
72,67,116611,1,0,0:0:0:0:
163,319,116865,5,0,0:0:0:0:
88,106,116992,1,0,0:0:0:0:
256,192,117562,5,0,0:0:0:0:
