osu file format v14

[General]
AudioFilename: audio.ogg
AudioLeadIn: 0
PreviewTime: 51590
Countdown: 0
SampleSet: Soft
StackLeniency: 0.7
Mode: 3
LetterboxInBreaks: 0
SpecialStyle: 0
WidescreenStoryboard: 1

[Editor]
DistanceSpacing: 1
BeatDivisor: 4
GridSize: 32
TimelineZoom: 2

[Metadata]
Title:Back to the City
TitleUnicode:Back to the City
Artist:Kep1er
ArtistUnicode:케플러
Creator:Ilham
Version:Ferdi's Normal
Source:
Tags:FerdiXIA- Gahyeonln fvrex xtrippin Kepler BTC LOVESTRUCK! WAKEONE Swing Entertainment JulY 이수정 Lee Su Jeong VERYGOODS 최지윤 Choi Ji Yoon 153 Joombas Janey MUMW Justin Reinstein Jjean Korean Pop KPop K-Pop 김채현 Kim Chae Hyun Chaehyun 휴닝바히에 Huening Bahiyyih 최유진 Choi Yu Jin Yujin 김다연 Kim Da Yeon Dayeon 서영은 Seo Young Eun Youngeun 강예서 Kang Ye Seo Yeseo 江崎ひかる 히카루 Ezaki Hikaru 坂本舞白 마시로 Sakamoto Mashiro 沈小婷 샤오팅 Shen Xiaoting
BeatmapID:4094058
BeatmapSetID:1972972

[Difficulty]
HPDrainRate:7
CircleSize:4
OverallDifficulty:7
ApproachRate:5
SliderMultiplier:1.4
SliderTickRate:1

[Events]
//Background and Video events
0,0,"BG Yujin.jpg",0,0
//Break Periods
//Storyboard Layer 0 (Background)
//Storyboard Layer 1 (Fail)
//Storyboard Layer 2 (Pass)
//Storyboard Layer 3 (Foreground)
//Storyboard Layer 4 (Overlay)
//Storyboard Sound Samples
Sample,49302,0,"special03.wav",70
Sample,59641,0,"echo_snare1.wav",35
Sample,92691,0,"special03.wav",70
Sample,103030,0,"echo_snare1.wav",35
Sample,113878,0,"echo_snare1.wav",35
Sample,153369,0,"echo_snare1.wav",70
Sample,158624,0,"echo_snare1.wav",35
Sample,169471,0,"echo_snare1.wav",35
Sample,180319,0,"echo_snare1.wav",35
Sample,191166,0,"echo_snare1.wav",35

[TimingPoints]
10997,338.983050847458,4,2,1,40,1,0
54725,-100.0,4,2,1,55,0,1
76081,-100.0,4,2,1,40,0,0
98115,-100.0,4,2,1,55,0,1
130319,-100.0,4,2,1,40,0,0
156420,-100.0,4,2,1,55,0,1
196759,-100.0,4,2,1,40,0,0

[HitObjects]
64,192,488,128,0,827:0:0:0:25:electronic04.wav
448,192,658,1,0,0:0:0:0:
192,192,827,1,0,0:0:0:50:snare17.wav
448,192,996,128,0,1335:0:0:0:0:
320,192,1166,1,0,0:0:0:25:electronic04.wav
64,192,1335,1,0,0:0:0:25:electronic04.wav
192,192,1505,128,0,1844:0:0:0:50:snare17.wav
320,192,1674,1,0,0:0:0:0:
448,192,1844,1,0,0:0:0:25:electronic04.wav
320,192,2013,128,0,2352:0:0:0:25:electronic04.wav
64,192,2183,1,0,0:0:0:50:snare17.wav
192,192,2352,1,0,0:0:0:0:
448,192,2522,1,0,0:0:0:25:electronic04.wav
320,192,2691,1,0,0:0:0:25:electronic04.wav
64,192,2861,128,0,3200:0:0:0:50:snare17.wav
192,192,3030,1,0,0:0:0:25:electronic04.wav
448,192,3200,128,0,3539:0:0:0:25:electronic04.wav
320,192,3369,1,0,0:0:0:0:
64,192,3539,1,0,0:0:0:50:snare17.wav
192,192,3708,128,0,4047:0:0:0:0:
320,192,3878,1,0,0:0:0:25:electronic04.wav
64,192,4047,1,0,0:0:0:25:electronic04.wav
320,192,4217,128,0,4556:0:0:0:50:snare17.wav
448,192,4386,1,0,0:0:0:0:
192,192,4556,1,0,0:0:0:25:electronic04.wav
64,192,4725,128,0,5064:0:0:0:25:electronic04.wav
448,192,4895,1,0,0:0:0:50:snare17.wav
320,192,5064,1,0,0:0:0:0:
192,192,5234,1,0,0:0:0:25:electronic04.wav
64,192,5403,1,0,0:0:0:25:electronic04.wav
448,192,5573,128,0,5912:0:0:0:50:snare17.wav
192,192,5742,1,0,0:0:0:25:electronic04.wav
320,192,5912,128,0,6590:0:0:0:25:electronic04.wav
192,192,6251,1,0,0:0:0:50:snare17.wav
448,192,6420,1,0,0:0:0:0:
64,192,6590,128,0,7607:0:0:0:25:electronic04.wav
320,192,6929,1,0,0:0:0:50:snare17.wav
192,192,7268,1,0,0:0:0:25:electronic04.wav
320,192,7437,1,0,0:0:0:0:
448,192,7607,1,0,0:0:0:50:snare17.wav
192,192,7946,1,0,0:0:0:25:electronic04.wav
64,192,8115,1,0,0:0:0:25:electronic04.wav
448,192,8285,1,0,0:0:0:50:snare17.wav
320,192,8454,1,0,0:0:0:25:electronic04.wav
192,192,8624,128,0,8963:0:0:0:25:electronic04.wav
64,192,8793,1,0,0:0:0:0:
448,192,8963,128,0,9302:0:0:0:50:snare17.wav
64,192,9302,1,0,0:0:0:25:electronic04.wav
192,192,9471,1,0,0:0:0:25:electronic04.wav
320,192,9641,128,0,9980:0:0:0:50:snare17.wav
448,192,9980,1,0,0:0:0:25:electronic04.wav
64,192,10149,1,0,0:0:0:0:
320,192,10319,1,0,0:0:0:50:snare17.wav
192,192,10658,1,0,0:0:0:25:electronic04.wav
320,192,10827,1,0,0:0:0:70:echo_snare1.wav
448,192,10827,1,0,0:0:0:0:
64,192,10996,1,0,0:0:0:70:echo_snare1.wav
192,192,10996,1,0,0:0:0:0:
448,192,11166,1,0,0:0:0:40:LR_Clap Reverb.wav
192,192,11335,128,2,11674:0:0:0:0:
320,192,11674,1,8,0:0:0:0:
448,192,11674,1,0,0:0:0:0:
320,192,12013,128,2,12352:0:0:0:0:
192,192,12183,1,2,0:0:0:0:
64,192,12352,1,8,0:0:0:0:
448,192,12352,1,0,0:0:0:0:
192,192,12691,128,2,13030:0:0:0:0:
64,192,13030,1,8,0:0:0:0:
448,192,13030,1,0,0:0:0:0:
320,192,13369,1,2,0:0:0:0:
192,192,13539,1,2,0:0:0:0:
320,192,13708,1,8,0:0:0:0:
448,192,13708,1,0,0:0:0:0:
64,192,13878,1,2,0:0:0:0:
192,192,14047,1,2,0:0:0:0:
64,192,14386,1,8,0:0:0:0:
448,192,14386,1,0,0:0:0:0:
320,192,14725,128,2,15064:0:0:0:0:
64,192,14895,1,2,0:0:0:0:
192,192,15064,1,8,0:0:0:0:
448,192,15064,1,0,0:0:0:0:
320,192,15403,1,2,0:0:0:0:
64,192,15742,1,8,0:0:0:0:
192,192,15742,1,0,0:0:0:0:
320,192,16081,1,2,0:0:0:0:
64,192,16251,1,2,0:0:0:0:
192,192,16251,1,0,0:0:0:0:
320,192,16420,1,8,0:0:0:0:
448,192,16420,128,0,16759:0:0:0:0:
64,192,16759,1,2,0:0:0:0:
192,192,17098,1,8,0:0:0:0:
320,192,17098,1,0,0:0:0:0:
448,192,17437,1,2,0:0:0:0:
320,192,17607,1,2,0:0:0:0:
64,192,17776,1,8,0:0:0:0:
192,192,17776,1,0,0:0:0:0:
320,192,17946,128,0,18454:0:0:0:0:
448,192,18115,1,2,0:0:0:0:
64,192,18454,1,8,0:0:0:0:
192,192,18454,1,0,0:0:0:0:
64,192,18793,1,2,0:0:0:0:
192,192,18963,1,2,0:0:0:0:
320,192,19132,1,8,0:0:0:0:
448,192,19132,1,0,0:0:0:0:
64,192,19302,128,2,19810:0:0:0:0:
192,192,19471,1,2,0:0:0:0:
320,192,19810,1,8,0:0:0:0:
448,192,19810,1,0,0:0:0:0:
192,192,20149,1,2,0:0:0:0:
320,192,20319,1,2,0:0:0:0:
64,192,20488,1,8,0:0:0:0:
192,192,20488,1,0,0:0:0:0:
448,192,20827,1,2,0:0:0:0:
192,192,21166,1,8,0:0:0:0:
320,192,21166,1,0,0:0:0:0:
64,192,21505,1,2,0:0:0:0:
320,192,21674,1,2,0:0:0:0:
448,192,21674,1,0,0:0:0:0:
64,192,21844,128,8,22183:0:0:0:0:
192,192,21844,1,0,0:0:0:0:
320,192,22013,1,0,0:0:0:40:LR_Clap Reverb.wav
448,192,22183,128,2,22522:0:0:0:0:
64,192,22522,1,8,0:0:0:0:
192,192,22522,1,0,0:0:0:0:
320,192,22861,128,2,23200:0:0:0:0:
448,192,23030,1,2,0:0:0:0:
64,192,23200,1,8,0:0:0:0:
192,192,23200,1,0,0:0:0:0:
320,192,23539,1,2,0:0:0:0:
64,192,23878,1,8,0:0:0:0:
448,192,23878,1,0,0:0:0:0:
192,192,24217,1,2,0:0:0:0:
64,192,24386,1,2,0:0:0:0:
320,192,24556,1,8,0:0:0:0:
448,192,24556,1,0,0:0:0:0:
192,192,24725,1,2,0:0:0:0:
320,192,24895,1,2,0:0:0:0:
64,192,25234,1,8,0:0:0:0:
448,192,25234,1,0,0:0:0:0:
192,192,25573,128,2,25912:0:0:0:0:
64,192,25742,1,2,0:0:0:0:
320,192,25912,1,8,0:0:0:0:
448,192,25912,1,0,0:0:0:0:
64,192,26251,1,2,0:0:0:0:
192,192,26590,1,8,0:0:0:0:
320,192,26590,1,0,0:0:0:0:
448,192,26929,1,2,0:0:0:0:
64,192,27098,1,2,0:0:0:0:
192,192,27098,1,0,0:0:0:0:
320,192,27268,1,8,0:0:0:0:
448,192,27268,128,0,27607:0:0:0:70:echo_snare1.wav
64,192,27607,1,2,0:0:0:0:
192,192,27946,1,8,0:0:0:0:
448,192,27946,1,0,0:0:0:0:
320,192,28285,1,2,0:0:0:0:
192,192,28454,1,2,0:0:0:0:
64,192,28624,1,8,0:0:0:0:
448,192,28624,1,0,0:0:0:0:
320,192,28963,1,2,0:0:0:0:
64,192,29302,1,8,0:0:0:0:
192,192,29302,1,0,0:0:0:0:
320,192,29641,1,2,0:0:0:0:
192,192,29810,1,2,0:0:0:0:
320,192,29980,1,8,0:0:0:0:
448,192,29980,1,0,0:0:0:0:
64,192,30149,1,2,0:0:0:0:
192,192,30319,1,2,0:0:0:0:
320,192,30658,128,8,30997:0:0:0:0:
448,192,30658,1,0,0:0:0:0:
192,192,30997,128,2,31335:0:0:0:0:
64,192,31166,1,2,0:0:0:0:
320,192,31335,1,8,0:0:0:0:
448,192,31335,1,0,0:0:0:0:
64,192,31505,128,0,31844:0:0:0:0:
192,192,31674,1,2,0:0:0:0:
320,192,31844,128,0,32352:0:0:0:0:
448,192,32013,1,8,0:0:0:0:
64,192,32352,1,2,0:0:0:0:
320,192,32522,1,2,0:0:0:0:
448,192,32522,1,0,0:0:0:0:
64,192,32691,1,8,0:0:0:0:
192,192,32691,1,0,0:0:0:70:echo_snare1.wav
320,192,32861,1,2,0:0:0:0:
64,192,33030,128,2,33369:0:0:0:0:
448,192,33030,1,4,0:0:0:0:
192,192,33369,1,8,0:0:0:0:
320,192,33369,1,0,0:0:0:0:
448,192,33708,1,2,0:0:0:0:
320,192,33878,1,2,0:0:0:0:
64,192,34047,1,8,0:0:0:0:
192,192,34047,128,0,34725:0:0:0:0:
320,192,34386,1,2,0:0:0:0:
64,192,34725,1,8,0:0:0:0:
448,192,34725,1,0,0:0:0:0:
192,192,35064,1,2,0:0:0:0:
448,192,35234,1,2,0:0:0:0:
64,192,35403,1,8,0:0:0:0:
320,192,35403,1,0,0:0:0:0:
192,192,35573,1,2,0:0:0:0:
448,192,35742,128,2,36081:0:0:0:0:
64,192,36081,1,8,0:0:0:0:
192,192,36081,1,0,0:0:0:0:
320,192,36251,128,0,36590:0:0:0:0:
64,192,36420,1,2,0:0:0:0:
192,192,36590,1,2,0:0:0:0:
64,192,36759,128,8,37437:0:0:0:0:
448,192,36759,1,0,0:0:0:0:
320,192,37098,1,2,0:0:0:0:
192,192,37437,1,8,0:0:0:0:
448,192,37437,1,0,0:0:0:0:
320,192,37776,1,2,0:0:0:0:
64,192,37946,1,2,0:0:0:0:
192,192,37946,1,0,0:0:0:0:
320,192,38115,1,8,0:0:0:0:
448,192,38115,1,0,0:0:0:70:echo_snare1.wav
192,192,38285,1,0,0:0:0:0:
64,192,38454,128,2,38793:0:0:0:0:
320,192,38793,1,8,0:0:0:0:
448,192,38793,1,0,0:0:0:0:
192,192,39132,1,2,0:0:0:0:
320,192,39302,1,2,0:0:0:0:
64,192,39471,1,8,0:0:0:0:
448,192,39471,1,0,0:0:0:0:
192,192,39641,1,0,0:0:0:0:
320,192,39810,1,2,0:0:0:0:
64,192,40149,1,8,0:0:0:0:
192,192,40149,1,0,0:0:0:0:
448,192,40488,1,2,0:0:0:0:
320,192,40658,1,2,0:0:0:0:
64,192,40827,1,8,0:0:0:0:
192,192,40827,1,0,0:0:0:0:
448,192,40997,128,2,41505:0:0:0:0:
192,192,41166,1,2,0:0:0:0:
64,192,41505,1,8,0:0:0:0:
320,192,41505,1,0,0:0:0:0:
64,192,41844,1,2,0:0:0:0:
192,192,42013,1,2,0:0:0:0:
320,192,42183,1,8,0:0:0:0:
448,192,42183,1,0,0:0:0:0:
64,192,42352,128,0,42861:0:0:0:0:
448,192,42522,1,2,0:0:0:0:
192,192,42861,1,8,0:0:0:0:
320,192,42861,1,0,0:0:0:0:
448,192,43200,1,2,0:0:0:0:
64,192,43369,1,2,0:0:0:0:
192,192,43369,1,0,0:0:0:0:
320,192,43539,1,8,0:0:0:0:
448,192,43539,1,0,0:0:0:70:echo_snare1.wav
192,192,43708,1,0,0:0:0:40:LR_Clap Reverb.wav
64,192,43878,128,2,44217:0:0:0:0:
448,192,44047,1,0,0:0:0:0:
192,192,44217,1,8,0:0:0:0:
320,192,44217,1,0,0:0:0:0:
448,192,44386,128,0,44725:0:0:0:0:
64,192,44556,1,2,0:0:0:0:
192,192,44725,1,2,0:0:0:0:
320,192,44895,128,8,45234:0:0:0:0:
448,192,44895,1,0,0:0:0:0:
64,192,45234,128,2,45573:0:0:0:0:
192,192,45403,1,0,0:0:0:0:
320,192,45573,1,8,0:0:0:0:
448,192,45573,1,0,0:0:0:0:
192,192,45742,128,0,46081:0:0:0:0:
64,192,45912,1,2,0:0:0:0:
448,192,46081,1,2,0:0:0:0:
64,192,46251,1,8,0:0:0:0:
320,192,46251,1,0,0:0:0:0:
192,192,46420,1,2,0:0:0:0:
448,192,46590,128,2,46929:0:0:0:0:
64,192,46759,1,0,0:0:0:0:
192,192,46929,1,8,0:0:0:0:
320,192,46929,1,0,0:0:0:0:
64,192,47098,128,0,47437:0:0:0:0:
448,192,47268,1,2,0:0:0:0:
320,192,47437,1,2,0:0:0:0:
64,192,47607,1,8,0:0:0:0:
192,192,47607,128,0,47946:0:0:0:0:
448,192,47946,128,2,48285:0:0:0:0:
64,192,48115,1,0,0:0:0:0:
192,192,48285,1,8,0:0:0:0:
320,192,48285,1,0,0:0:0:0:
64,192,48454,1,0,0:0:0:0:
448,192,48624,1,2,0:0:0:0:
192,192,48793,1,2,0:0:0:0:
320,192,48793,1,0,0:0:0:0:
64,192,48963,128,8,49302:0:0:0:0:
448,192,48963,1,0,0:0:0:70:echo_snare1.wav
192,192,49132,1,2,0:0:0:0:
448,192,49302,128,2,49641:0:0:0:0:
320,192,49641,1,0,0:0:0:0:
64,192,49810,1,2,0:0:0:0:
192,192,49980,128,8,50319:0:0:0:0:
320,192,49980,1,0,0:0:0:0:
64,192,50149,1,2,0:0:0:0:
320,192,50319,128,0,50658:0:0:0:0:
448,192,50488,1,0,0:0:0:0:
64,192,50658,128,2,50997:0:0:0:0:
192,192,50997,1,0,0:0:0:0:
320,192,51166,1,0,0:0:0:0:
64,192,51335,1,8,0:0:0:0:
448,192,51335,1,0,0:0:0:0:
192,192,51505,1,2,0:0:0:0:
320,192,51674,128,2,52013:0:0:0:0:
64,192,51844,1,2,0:0:0:0:
448,192,52013,128,0,52522:0:0:0:0:
192,192,52352,1,0,0:0:0:0:
64,192,52522,128,0,52861:0:0:0:0:
320,192,52691,1,0,0:0:0:0:
192,192,52861,128,0,53369:0:0:0:0:
448,192,53030,1,0,0:0:0:0:
320,192,53369,128,0,53708:0:0:0:0:
64,192,53539,1,0,0:0:0:0:
192,192,53708,1,0,0:0:0:0:
448,192,53878,128,0,54217:0:0:0:0:
320,192,54047,1,0,0:0:0:0:
64,192,54217,1,8,0:0:0:0:
192,192,54217,1,0,0:0:0:0:
320,192,54386,1,0,0:0:0:70:echo_snare1.wav
448,192,54386,1,0,0:0:0:0:
192,192,54556,1,0,0:0:0:40:LR_Clap Reverb.wav
64,192,54725,1,2,0:0:0:0:
448,192,54725,1,4,0:0:0:0:
320,192,55064,1,8,0:0:0:0:
448,192,55064,1,0,0:0:0:0:
64,192,55234,1,0,0:0:0:0:
192,192,55403,1,2,0:0:0:0:
320,192,55573,1,2,0:0:0:0:
64,192,55742,1,8,0:0:0:0:
192,192,55742,1,0,0:0:0:0:
448,192,55912,1,0,0:0:0:0:
64,192,56081,1,2,0:0:0:0:
448,192,56251,1,0,0:0:0:0:
192,192,56420,1,8,0:0:0:0:
320,192,56420,1,0,0:0:0:0:
64,192,56590,1,0,0:0:0:0:
320,192,56759,1,2,0:0:0:0:
192,192,56929,1,2,0:0:0:0:
64,192,57098,1,8,0:0:0:0:
448,192,57098,1,0,0:0:0:0:
192,192,57268,1,2,0:0:0:0:
320,192,57437,1,2,0:0:0:0:
192,192,57776,1,8,0:0:0:0:
448,192,57776,1,0,0:0:0:0:
64,192,57946,1,0,0:0:0:0:
320,192,58115,1,2,0:0:0:0:
192,192,58285,1,2,0:0:0:0:
64,192,58454,1,8,0:0:0:0:
448,192,58454,1,0,0:0:0:0:
320,192,58624,1,0,0:0:0:0:
192,192,58793,1,2,0:0:0:0:
448,192,58963,1,0,0:0:0:0:
64,192,59132,1,8,0:0:0:0:
192,192,59132,1,0,0:0:0:0:
320,192,59302,1,0,0:0:0:0:
448,192,59471,1,2,0:0:0:0:
192,192,59641,1,2,0:0:0:0:
320,192,59810,1,8,0:0:0:0:
448,192,59810,1,0,0:0:0:35:echo_snare1.wav
64,192,59980,1,2,0:0:0:0:
192,192,60149,128,2,60488:0:0:0:0:
64,192,60488,1,8,0:0:0:0:
448,192,60488,128,0,60827:0:0:0:0:
320,192,60658,1,0,0:0:0:0:
64,192,60827,128,2,61166:0:0:0:0:
192,192,60997,1,2,0:0:0:0:
320,192,61166,1,8,0:0:0:0:
448,192,61166,1,0,0:0:0:0:
192,192,61335,1,0,0:0:0:0:
64,192,61505,1,2,0:0:0:0:
320,192,61674,1,0,0:0:0:0:
64,192,61844,1,8,0:0:0:0:
448,192,61844,1,0,0:0:0:0:
192,192,62013,1,0,0:0:0:0:
320,192,62183,1,2,0:0:0:0:
448,192,62352,1,2,0:0:0:0:
64,192,62522,1,8,0:0:0:0:
192,192,62522,1,0,0:0:0:0:
448,192,62691,1,2,0:0:0:0:
320,192,62861,128,2,63200:0:0:0:0:
64,192,63200,128,8,63539:0:0:0:0:
448,192,63200,1,0,0:0:0:0:
192,192,63369,1,0,0:0:0:0:
448,192,63539,128,2,63878:0:0:0:0:
320,192,63708,1,2,0:0:0:0:
64,192,63878,1,8,0:0:0:0:
192,192,63878,1,0,0:0:0:0:
320,192,64047,1,0,0:0:0:0:
320,192,64386,1,0,0:0:0:0:
64,192,64556,1,8,0:0:0:0:
448,192,64556,1,0,0:0:0:35:echo_snare1.wav
192,192,64725,1,0,0:0:0:0:
320,192,64895,1,2,0:0:0:0:
64,192,65064,1,2,0:0:0:0:
192,192,65149,1,2,0:0:0:0:
320,192,65234,1,8,0:0:0:0:
448,192,65234,1,0,0:0:0:0:
192,192,65403,1,2,0:0:0:0:
64,192,65573,1,2,0:0:0:0:
448,192,65573,1,4,0:0:0:0:
64,192,65912,1,8,0:0:0:0:
192,192,65912,1,0,0:0:0:0:
448,192,66081,1,0,0:0:0:0:
320,192,66251,1,2,0:0:0:0:
192,192,66420,1,2,0:0:0:0:
320,192,66590,1,8,0:0:0:0:
448,192,66590,1,0,0:0:0:0:
64,192,66759,1,0,0:0:0:0:
448,192,66929,1,2,0:0:0:0:
64,192,67098,1,0,0:0:0:0:
192,192,67268,1,8,0:0:0:0:
320,192,67268,1,0,0:0:0:0:
448,192,67437,1,0,0:0:0:0:
64,192,67607,1,2,0:0:0:0:
320,192,67776,1,2,0:0:0:0:
64,192,67946,1,8,0:0:0:0:
192,192,67946,1,0,0:0:0:0:
320,192,68115,1,2,0:0:0:0:
448,192,68285,1,2,0:0:0:0:
64,192,68624,1,8,0:0:0:0:
320,192,68624,1,0,0:0:0:0:
448,192,68793,1,0,0:0:0:0:
192,192,68963,1,2,0:0:0:0:
320,192,69132,1,2,0:0:0:0:
64,192,69302,1,8,0:0:0:0:
448,192,69302,1,0,0:0:0:0:
192,192,69471,1,0,0:0:0:0:
320,192,69641,1,2,0:0:0:0:
64,192,69810,1,0,0:0:0:0:
320,192,69980,1,8,0:0:0:0:
448,192,69980,1,0,0:0:0:0:
192,192,70149,1,0,0:0:0:0:
448,192,70319,1,2,0:0:0:0:
320,192,70488,1,2,0:0:0:0:
64,192,70658,1,8,0:0:0:0:
192,192,70658,1,0,0:0:0:35:echo_snare1.wav
448,192,70827,1,2,0:0:0:0:
320,192,70997,128,2,71335:0:0:0:0:
64,192,71335,128,8,71674:0:0:0:0:
448,192,71335,1,0,0:0:0:0:
192,192,71505,1,0,0:0:0:0:
448,192,71674,128,2,72013:0:0:0:0:
320,192,71844,1,2,0:0:0:0:
64,192,72013,1,8,0:0:0:0:
192,192,72013,1,0,0:0:0:0:
320,192,72183,1,0,0:0:0:0:
192,192,72352,1,2,0:0:0:0:
448,192,72522,1,0,0:0:0:0:
64,192,72691,1,8,0:0:0:0:
192,192,72691,1,0,0:0:0:0:
320,192,72861,1,0,0:0:0:0:
192,192,73030,1,2,0:0:0:0:
64,192,73200,1,2,0:0:0:0:
320,192,73369,1,8,0:0:0:0:
448,192,73369,1,0,0:0:0:0:
192,192,73539,1,2,0:0:0:0:
64,192,73708,128,2,74047:0:0:0:0:
192,192,74047,1,8,0:0:0:0:
448,192,74047,128,0,74386:0:0:0:0:
320,192,74217,1,0,0:0:0:0:
192,192,74386,128,2,74725:0:0:0:0:
448,192,74556,1,2,0:0:0:0:
64,192,74725,1,8,0:0:0:0:
320,192,74725,1,0,0:0:0:0:
192,192,74895,1,0,0:0:0:0:
192,192,75234,1,0,0:0:0:0:
64,192,75403,1,8,0:0:0:0:
448,192,75403,1,0,0:0:0:0:
320,192,75573,1,0,0:0:0:0:
64,192,75742,1,2,0:0:0:0:
448,192,75912,1,2,0:0:0:0:
320,192,75997,1,2,0:0:0:0:
64,192,76081,1,8,0:0:0:0:
192,192,76081,1,0,0:0:0:35:echo_snare1.wav
320,192,76251,1,0,0:0:0:40:LR_Clap Reverb.wav
64,192,76420,1,2,0:0:0:0:
448,192,76420,1,0,0:0:0:0:
192,192,76759,1,8,0:0:0:0:
448,192,76759,1,0,0:0:0:0:
320,192,76929,1,0,0:0:0:0:
192,192,77098,1,2,0:0:0:0:
320,192,77268,1,2,0:0:0:0:
64,192,77437,1,8,0:0:0:0:
192,192,77437,1,0,0:0:0:0:
448,192,77607,1,0,0:0:0:0:
320,192,77776,1,2,0:0:0:0:
64,192,78115,1,8,0:0:0:0:
448,192,78115,1,0,0:0:0:0:
192,192,78285,1,0,0:0:0:0:
448,192,78454,1,2,0:0:0:0:
320,192,78624,1,2,0:0:0:0:
64,192,78793,1,8,0:0:0:0:
192,192,78793,1,0,0:0:0:0:
448,192,78963,1,2,0:0:0:0:
64,192,79132,1,2,0:0:0:0:
192,192,79471,1,8,0:0:0:0:
448,192,79471,1,0,0:0:0:0:
64,192,79641,1,0,0:0:0:0:
320,192,79810,1,2,0:0:0:0:
192,192,79980,1,2,0:0:0:0:
64,192,80149,1,8,0:0:0:0:
448,192,80149,1,0,0:0:0:0:
192,192,80319,1,0,0:0:0:0:
320,192,80488,1,2,0:0:0:0:
64,192,80827,1,8,0:0:0:0:
192,192,80827,1,0,0:0:0:0:
320,192,80997,1,0,0:0:0:0:
448,192,81166,1,2,0:0:0:0:
64,192,81335,1,2,0:0:0:0:
192,192,81335,1,0,0:0:0:0:
320,192,81505,1,8,0:0:0:0:
448,192,81505,1,0,0:0:0:35:echo_snare1.wav
192,192,81674,1,0,0:0:0:40:LR_Clap Reverb.wav
64,192,81844,1,2,0:0:0:0:
320,192,82352,1,2,0:0:0:0:
192,192,82522,1,2,0:0:0:0:
320,192,82691,1,2,0:0:0:0:
64,192,82861,1,8,0:0:0:0:
448,192,82861,1,0,0:0:0:0:
64,192,83369,1,8,0:0:0:0:
192,192,83369,1,0,0:0:0:0:
320,192,83539,1,2,0:0:0:0:
448,192,83708,1,2,0:0:0:0:
192,192,84047,1,2,0:0:0:0:
320,192,84217,1,8,0:0:0:0:
448,192,84217,1,0,0:0:0:0:
192,192,84386,1,2,0:0:0:0:
64,192,84556,1,2,0:0:0:0:
192,192,85064,1,2,0:0:0:0:
320,192,85234,1,2,0:0:0:0:
192,192,85403,1,2,0:0:0:0:
64,192,85573,1,8,0:0:0:0:
448,192,85573,1,0,0:0:0:0:
320,192,85912,1,2,0:0:0:0:
64,192,86251,1,8,0:0:0:0:
192,192,86251,1,0,0:0:0:0:
320,192,86420,1,0,0:0:0:0:
64,192,86590,1,2,0:0:0:0:
448,192,86759,1,2,0:0:0:0:
320,192,86844,1,0,0:0:0:0:
64,192,86929,1,8,0:0:0:0:
192,192,86929,1,0,0:0:0:0:
320,192,87098,1,2,0:0:0:0:
64,192,87268,128,2,87607:0:0:0:0:
192,192,87268,1,4,0:0:0:0:
448,192,87437,1,0,0:0:0:0:
192,192,87607,1,8,0:0:0:0:
320,192,87607,1,0,0:0:0:0:
448,192,87776,128,0,88285:0:0:0:0:
64,192,87946,1,2,0:0:0:0:
192,192,88115,1,2,0:0:0:0:
64,192,88285,1,8,0:0:0:0:
320,192,88285,128,0,88793:0:0:0:0:
192,192,88454,1,0,0:0:0:0:
448,192,88624,1,2,0:0:0:0:
192,192,88793,128,0,89302:0:0:0:0:
64,192,88963,1,8,0:0:0:0:
320,192,89302,1,2,0:0:0:0:
448,192,89471,1,2,0:0:0:0:
64,192,89641,1,8,0:0:0:0:
192,192,89641,1,0,0:0:0:0:
320,192,89810,1,2,0:0:0:0:
64,192,89980,128,2,90319:0:0:0:0:
320,192,90149,1,0,0:0:0:0:
192,192,90319,1,8,0:0:0:0:
448,192,90319,1,0,0:0:0:0:
320,192,90488,128,0,90827:0:0:0:0:
64,192,90658,1,2,0:0:0:0:
192,192,90827,1,2,0:0:0:0:
320,192,90997,1,8,0:0:0:0:
448,192,90997,128,0,91335:0:0:0:0:
192,192,91166,1,0,0:0:0:0:
64,192,91335,1,2,0:0:0:0:
192,192,91505,128,0,92013:0:0:0:0:
320,192,91674,1,8,0:0:0:0:
448,192,92013,1,2,0:0:0:0:
64,192,92183,1,2,0:0:0:0:
192,192,92183,1,0,0:0:0:0:
320,192,92352,1,8,0:0:0:0:
448,192,92352,128,0,92691:0:0:0:35:echo_snare1.wav
192,192,92522,1,2,0:0:0:0:
64,192,92691,128,2,93030:0:0:0:0:
320,192,93030,1,0,0:0:0:0:
192,192,93200,1,2,0:0:0:0:
320,192,93369,128,8,93708:0:0:0:0:
448,192,93369,1,0,0:0:0:0:
64,192,93539,1,2,0:0:0:0:
192,192,93708,128,0,94047:0:0:0:0:
320,192,93878,1,0,0:0:0:0:
448,192,94047,128,2,94386:0:0:0:0:
320,192,94386,1,0,0:0:0:0:
192,192,94556,1,0,0:0:0:0:
64,192,94725,1,8,0:0:0:0:
448,192,94725,1,0,0:0:0:0:
320,192,94895,1,2,0:0:0:0:
192,192,95064,128,2,95403:0:0:0:0:
448,192,95234,1,2,0:0:0:0:
64,192,95403,128,0,95912:0:0:0:0:
320,192,95742,1,0,0:0:0:0:
448,192,95912,128,0,96251:0:0:0:0:
192,192,96081,1,0,0:0:0:0:
320,192,96251,128,0,96759:0:0:0:0:
64,192,96420,1,0,0:0:0:0:
64,192,96759,128,0,97098:0:0:0:0:
448,192,96929,1,0,0:0:0:0:
192,192,97098,1,0,0:0:0:0:
320,192,97268,1,0,0:0:0:0:
192,192,97437,1,0,0:0:0:0:
320,192,97607,1,8,0:0:0:0:
448,192,97607,1,0,0:0:0:0:
64,192,97776,1,0,0:0:0:70:echo_snare1.wav
192,192,97776,1,0,0:0:0:0:
320,192,97946,1,0,0:0:0:40:LR_Clap Reverb.wav
64,192,98115,1,2,0:0:0:0:
448,192,98115,1,4,0:0:0:0:
64,192,98454,1,8,0:0:0:0:
192,192,98454,1,0,0:0:0:0:
448,192,98624,1,0,0:0:0:0:
320,192,98793,1,2,0:0:0:0:
192,192,98963,1,2,0:0:0:0:
320,192,99132,1,8,0:0:0:0:
448,192,99132,1,0,0:0:0:0:
192,192,99302,1,0,0:0:0:0:
64,192,99471,1,2,0:0:0:0:
448,192,99641,1,0,0:0:0:0:
192,192,99810,1,8,0:0:0:0:
320,192,99810,1,0,0:0:0:0:
64,192,99980,1,0,0:0:0:0:
448,192,100149,1,2,0:0:0:0:
320,192,100319,1,2,0:0:0:0:
64,192,100488,1,8,0:0:0:0:
192,192,100488,1,0,0:0:0:0:
320,192,100658,1,2,0:0:0:0:
448,192,100827,1,2,0:0:0:0:
64,192,101166,1,8,0:0:0:0:
320,192,101166,1,0,0:0:0:0:
448,192,101335,1,0,0:0:0:0:
192,192,101505,1,2,0:0:0:0:
320,192,101674,1,2,0:0:0:0:
64,192,101844,1,8,0:0:0:0:
448,192,101844,1,0,0:0:0:0:
320,192,102013,1,0,0:0:0:0:
192,192,102183,1,2,0:0:0:0:
64,192,102352,1,0,0:0:0:0:
320,192,102522,1,8,0:0:0:0:
448,192,102522,1,0,0:0:0:0:
64,192,102691,1,0,0:0:0:0:
192,192,102861,1,2,0:0:0:0:
320,192,103030,1,2,0:0:0:0:
64,192,103200,1,8,0:0:0:0:
192,192,103200,1,0,0:0:0:35:echo_snare1.wav
448,192,103369,1,2,0:0:0:0:
320,192,103539,128,2,103878:0:0:0:0:
64,192,103878,128,8,104217:0:0:0:0:
448,192,103878,1,0,0:0:0:0:
192,192,104047,1,0,0:0:0:0:
448,192,104217,128,2,104556:0:0:0:0:
320,192,104386,1,2,0:0:0:0:
64,192,104556,1,8,0:0:0:0:
192,192,104556,1,0,0:0:0:0:
320,192,104725,1,0,0:0:0:0:
448,192,104895,1,2,0:0:0:0:
192,192,105064,1,0,0:0:0:0:
64,192,105234,1,8,0:0:0:0:
448,192,105234,1,0,0:0:0:0:
320,192,105403,1,0,0:0:0:0:
192,192,105573,1,2,0:0:0:0:
64,192,105742,1,2,0:0:0:0:
320,192,105912,1,8,0:0:0:0:
448,192,105912,1,0,0:0:0:0:
64,192,106081,1,2,0:0:0:0:
192,192,106251,128,2,106590:0:0:0:0:
64,192,106590,1,8,0:0:0:0:
448,192,106590,128,0,106929:0:0:0:0:
320,192,106759,1,0,0:0:0:0:
64,192,106929,128,2,107268:0:0:0:0:
448,192,107098,1,2,0:0:0:0:
192,192,107268,1,8,0:0:0:0:
320,192,107268,1,0,0:0:0:0:
64,192,107437,1,0,0:0:0:0:
64,192,107776,1,0,0:0:0:0:
192,192,107946,1,8,0:0:0:0:
448,192,107946,1,0,0:0:0:0:
320,192,108115,1,0,0:0:0:0:
192,192,108285,1,2,0:0:0:0:
448,192,108454,1,2,0:0:0:0:
320,192,108539,1,2,0:0:0:0:
64,192,108624,1,8,0:0:0:0:
192,192,108624,1,0,0:0:0:0:
320,192,108793,1,2,0:0:0:0:
64,192,108963,1,2,0:0:0:0:
448,192,108963,1,4,0:0:0:0:
320,192,109302,1,8,0:0:0:0:
448,192,109302,1,0,0:0:0:0:
64,192,109471,1,0,0:0:0:0:
192,192,109641,1,2,0:0:0:0:
320,192,109810,1,2,0:0:0:0:
64,192,109980,1,8,0:0:0:0:
192,192,109980,1,0,0:0:0:0:
320,192,110149,1,0,0:0:0:0:
448,192,110319,1,2,0:0:0:0:
64,192,110488,1,0,0:0:0:0:
192,192,110658,1,8,0:0:0:0:
320,192,110658,1,0,0:0:0:0:
448,192,110827,1,0,0:0:0:0:
64,192,110997,1,2,0:0:0:0:
192,192,111166,1,2,0:0:0:0:
320,192,111335,1,8,0:0:0:0:
448,192,111335,1,0,0:0:0:0:
192,192,111505,1,2,0:0:0:0:
64,192,111674,1,2,0:0:0:0:
192,192,112013,1,8,0:0:0:0:
448,192,112013,1,0,0:0:0:0:
64,192,112183,1,0,0:0:0:0:
320,192,112352,1,2,0:0:0:0:
192,192,112522,1,2,0:0:0:0:
64,192,112691,1,8,0:0:0:0:
448,192,112691,1,0,0:0:0:0:
192,192,112861,1,0,0:0:0:0:
320,192,113030,1,2,0:0:0:0:
448,192,113200,1,0,0:0:0:0:
64,192,113369,1,8,0:0:0:0:
192,192,113369,1,0,0:0:0:0:
448,192,113539,1,0,0:0:0:0:
320,192,113708,1,2,0:0:0:0:
192,192,113878,1,2,0:0:0:0:
320,192,114047,1,8,0:0:0:0:
448,192,114047,1,0,0:0:0:35:echo_snare1.wav
64,192,114217,1,2,0:0:0:0:
192,192,114386,128,2,114725:0:0:0:0:
64,192,114725,1,8,0:0:0:0:
448,192,114725,128,0,115064:0:0:0:0:
320,192,114895,1,0,0:0:0:0:
64,192,115064,128,2,115403:0:0:0:0:
192,192,115234,1,2,0:0:0:0:
320,192,115403,1,8,0:0:0:0:
448,192,115403,1,0,0:0:0:0:
192,192,115573,1,0,0:0:0:0:
448,192,115742,1,2,0:0:0:0:
64,192,115912,1,0,0:0:0:0:
320,192,116081,1,8,0:0:0:0:
448,192,116081,1,0,0:0:0:0:
192,192,116251,1,0,0:0:0:0:
320,192,116420,1,2,0:0:0:0:
448,192,116590,1,2,0:0:0:0:
64,192,116759,1,8,0:0:0:0:
192,192,116759,1,0,0:0:0:0:
320,192,116929,1,2,0:0:0:0:
448,192,117098,128,2,117437:0:0:0:0:
64,192,117437,128,8,117776:0:0:0:0:
320,192,117437,1,0,0:0:0:0:
192,192,117607,1,0,0:0:0:0:
320,192,117776,128,2,118115:0:0:0:0:
64,192,117946,1,2,0:0:0:0:
192,192,118115,1,8,0:0:0:0:
448,192,118115,1,0,0:0:0:0:
320,192,118285,1,0,0:0:0:0:
320,192,118624,1,0,0:0:0:0:
64,192,118793,1,8,0:0:0:0:
448,192,118793,1,0,0:0:0:0:
192,192,118963,1,0,0:0:0:0:
320,192,119132,1,2,0:0:0:0:
64,192,119302,1,2,0:0:0:0:
192,192,119386,1,2,0:0:0:0:
320,192,119471,1,8,0:0:0:0:
448,192,119471,1,0,0:0:0:35:echo_snare1.wav
192,192,119641,1,2,0:0:0:0:
64,192,119810,1,2,0:0:0:0:
448,192,119810,1,4,0:0:0:0:
192,192,120149,1,8,0:0:0:0:
320,192,120149,1,0,0:0:0:0:
448,192,120319,1,0,0:0:0:0:
64,192,120488,1,2,0:0:0:0:
192,192,120658,1,2,0:0:0:0:
320,192,120827,1,8,0:0:0:0:
448,192,120827,1,0,0:0:0:0:
320,192,120997,1,0,0:0:0:0:
192,192,121335,1,0,0:0:0:0:
64,192,121505,1,8,0:0:0:0:
320,192,121505,1,0,0:0:0:0:
448,192,121674,1,0,0:0:0:0:
192,192,121844,1,2,0:0:0:0:
320,192,122013,1,2,0:0:0:0:
64,192,122183,1,8,0:0:0:0:
192,192,122183,1,0,0:0:0:0:
448,192,122352,1,2,0:0:0:0:
320,192,122522,1,2,0:0:0:0:
64,192,122691,1,0,0:0:0:0:
192,192,122861,1,8,0:0:0:0:
320,192,122861,1,0,0:0:0:0:
448,192,123030,1,0,0:0:0:0:
64,192,123200,1,2,0:0:0:0:
320,192,123369,1,2,0:0:0:0:
64,192,123539,1,8,0:0:0:0:
192,192,123539,1,0,0:0:0:0:
192,192,123708,1,0,0:0:0:0:
320,192,124047,1,0,0:0:0:0:
64,192,124217,1,8,0:0:0:0:
448,192,124217,1,0,0:0:0:0:
320,192,124386,1,0,0:0:0:0:
192,192,124556,1,2,0:0:0:0:
320,192,124725,1,2,0:0:0:0:
64,192,124895,1,8,0:0:0:0:
448,192,124895,1,0,0:0:0:0:
192,192,125064,1,2,0:0:0:0:
320,192,125234,128,2,125573:0:0:0:0:
192,192,125403,1,0,0:0:0:0:
64,192,125573,128,8,125912:0:0:0:0:
448,192,125573,1,0,0:0:0:0:
320,192,125742,1,0,0:0:0:0:
192,192,125912,128,2,126251:0:0:0:0:
320,192,126081,1,2,0:0:0:0:
64,192,126251,1,8,0:0:0:0:
448,192,126251,1,0,0:0:0:0:
320,192,126420,1,0,0:0:0:0:
192,192,126759,1,0,0:0:0:0:
64,192,126929,1,8,0:0:0:0:
448,192,126929,1,0,0:0:0:0:
192,192,127098,1,0,0:0:0:0:
320,192,127268,1,2,0:0:0:0:
448,192,127437,1,2,0:0:0:0:
64,192,127607,1,8,0:0:0:0:
192,192,127607,1,0,0:0:0:0:
320,192,127776,1,2,0:0:0:0:
64,192,127946,128,2,128285:0:0:0:0:
448,192,128115,1,0,0:0:0:0:
192,192,128285,128,8,128624:0:0:0:0:
320,192,128285,1,0,0:0:0:0:
64,192,128454,1,0,0:0:0:0:
448,192,128624,128,2,128963:0:0:0:0:
320,192,128793,1,2,0:0:0:0:
64,192,128963,1,8,0:0:0:0:
192,192,128963,1,0,0:0:0:0:
320,192,129132,1,0,0:0:0:0:
320,192,129471,1,0,0:0:0:0:
64,192,129641,1,8,0:0:0:0:
448,192,129641,1,0,0:0:0:0:
192,192,129810,1,0,0:0:0:0:
64,192,129980,1,2,0:0:0:0:
448,192,130149,1,2,0:0:0:0:
320,192,130234,1,2,0:0:0:0:
64,192,130319,1,8,0:0:0:0:
192,192,130319,1,0,0:0:0:35:echo_snare1.wav
448,192,130488,1,2,0:0:0:0:
320,192,130658,128,0,130997:0:0:0:25:electronic04.wav
64,192,130997,1,0,0:0:0:0:
192,192,131166,128,0,131505:0:0:0:0:
320,192,131505,1,0,0:0:0:25:electronic04.wav
448,192,131674,128,0,132352:0:0:0:0:
64,192,132013,1,0,0:0:0:25:electronic04.wav
192,192,132352,128,0,132691:0:0:0:0:
320,192,132691,1,0,0:0:0:50:snare17.wav
448,192,132861,1,0,0:0:0:0:
64,192,133030,128,0,133369:0:0:0:0:
320,192,133369,128,0,133708:0:0:0:25:electronic04.wav
192,192,133878,1,0,0:0:0:50:snare17.wav
448,192,134047,128,0,134556:0:0:0:50:snare17.wav
320,192,134556,1,0,0:0:0:0:
64,192,134725,1,0,0:0:0:25:electronic04.wav
192,192,134895,1,0,0:0:0:50:snare17.wav
320,192,135064,128,0,135403:0:0:0:0:
64,192,135403,1,0,0:0:0:50:snare17.wav
448,192,135573,1,0,0:0:0:0:
192,192,135742,1,0,0:0:0:50:snare17.wav
320,192,135912,1,0,0:0:0:25:electronic04.wav
64,192,136081,128,0,136420:0:0:0:25:electronic04.wav
448,192,136420,1,0,0:0:0:0:
192,192,136590,128,0,136759:0:0:0:50:snare17.wav
448,192,136759,1,0,0:0:0:50:snare17.wav
320,192,136929,128,0,137437:0:0:0:25:electronic04.wav
448,192,137437,128,0,137776:0:0:0:25:electronic04.wav
192,192,137776,1,0,0:0:0:0:
64,192,137946,128,0,138115:0:0:0:25:electronic04.wav
448,192,138115,1,0,0:0:0:50:snare17.wav
320,192,138285,128,0,138793:0:0:0:0:
192,192,138793,128,0,139302:0:0:0:25:electronic04.wav
448,192,139302,128,0,139641:0:0:0:0:
64,192,139471,1,0,0:0:0:50:snare17.wav
320,192,139641,1,0,0:0:0:25:electronic04.wav
64,192,139980,128,0,140488:0:0:0:0:
192,192,140149,1,0,0:0:0:25:electronic04.wav
320,192,140488,1,0,0:0:0:0:
192,192,140658,1,0,0:0:0:25:electronic04.wav
64,192,140827,1,0,0:0:0:50:snare17.wav
448,192,140827,128,0,141166:0:0:0:0:
64,192,141166,128,0,141505:0:0:0:25:electronic04.wav
320,192,141505,1,2,0:0:0:0:
448,192,141505,1,4,0:0:0:0:
192,192,141674,1,2,0:0:0:0:
448,192,141844,1,0,0:0:0:0:
320,192,142013,1,2,0:0:0:0:
64,192,142183,1,8,0:0:0:0:
192,192,142183,128,0,142522:0:0:0:0:
448,192,142352,1,2,0:0:0:0:
320,192,142522,128,0,142861:0:0:0:0:
192,192,142691,1,0,0:0:0:0:
64,192,142861,128,2,143200:0:0:0:0:
192,192,143200,1,0,0:0:0:0:
320,192,143369,1,2,0:0:0:0:
64,192,143539,1,8,0:0:0:0:
448,192,143539,1,0,0:0:0:0:
192,192,143708,1,2,0:0:0:0:
320,192,143878,1,0,0:0:0:0:
64,192,144047,1,2,0:0:0:0:
320,192,144217,128,2,144895:0:0:0:0:
192,192,144386,1,2,0:0:0:0:
64,192,144725,1,2,0:0:0:0:
192,192,144895,1,8,0:0:0:0:
448,192,144895,1,0,0:0:0:0:
64,192,145064,128,2,145573:0:0:0:0:
448,192,145403,1,0,0:0:0:0:
320,192,145573,1,2,0:0:0:0:
192,192,145742,1,0,0:0:0:0:
64,192,145912,1,2,0:0:0:0:
192,192,146081,1,2,0:0:0:0:
320,192,146251,1,8,0:0:0:0:
448,192,146251,1,0,0:0:0:0:
64,192,146420,1,2,0:0:0:0:
448,192,146590,128,8,146929:0:0:0:0:
192,192,146759,1,2,0:0:0:0:
64,192,146929,128,2,147607:0:0:0:0:
320,192,147098,1,2,0:0:0:0:
448,192,147437,1,2,0:0:0:0:
192,192,147607,1,8,0:0:0:0:
320,192,147607,1,0,0:0:0:0:
448,192,147776,1,2,0:0:0:0:
320,192,147946,1,0,0:0:0:0:
64,192,148115,1,8,0:0:0:0:
192,192,148115,1,0,0:0:0:0:
320,192,148285,128,2,148624:0:0:0:0:
64,192,148624,1,8,0:0:0:0:
448,192,148624,1,0,0:0:0:0:
192,192,148793,1,2,0:0:0:0:
320,192,148963,1,8,0:0:0:0:
448,192,148963,1,0,0:0:0:0:
64,192,149132,1,2,0:0:0:0:
448,192,149302,1,0,0:0:0:0:
320,192,149471,1,2,0:0:0:0:
192,192,149641,1,0,0:0:0:30:electronic04.wav
320,192,149810,1,0,0:0:0:30:electronic04.wav
448,192,149980,128,0,151335:0:0:0:0:
64,192,150319,1,0,0:0:0:30:electronic04.wav
320,192,150488,1,0,0:0:0:30:electronic04.wav
320,192,150997,1,0,0:0:0:30:electronic04.wav
64,192,151166,1,0,0:0:0:30:electronic04.wav
192,192,151335,1,0,0:0:0:0:
320,192,151674,1,0,0:0:0:30:electronic04.wav
192,192,151844,1,0,0:0:0:30:electronic04.wav
64,192,152013,128,0,152352:0:0:0:0:
448,192,152352,1,0,0:0:0:50:snare17.wav
448,192,152691,1,0,0:0:0:50:snare17.wav
448,192,153030,1,0,0:0:0:50:snare17.wav
64,192,153200,1,0,0:0:0:70:echo_snare1.wav
192,192,153200,1,0,0:0:0:0:
320,192,153369,1,8,0:0:0:0:
64,192,153539,1,0,0:0:0:0:
192,192,153708,1,2,0:0:0:0:
448,192,153708,128,4,154047:0:0:0:0:
64,192,154047,128,0,154386:0:0:0:0:
320,192,154386,128,0,154725:0:0:0:0:
192,192,154895,128,0,155064:0:0:0:0:
320,192,155234,1,0,0:0:0:0:
448,192,155403,128,2,155573:0:0:0:0:
64,192,155573,128,2,155742:0:0:0:0:
320,192,155742,128,2,155912:0:0:0:0:
192,192,155912,128,2,156081:0:0:0:0:
64,192,156081,1,8,0:0:0:0:
448,192,156081,1,0,0:0:0:0:
320,192,156251,1,8,0:0:0:0:
192,192,156335,1,8,0:0:0:0:
64,192,156420,1,4,0:0:0:0:
448,192,156420,1,2,0:0:0:0:
192,192,156759,1,8,0:0:0:0:
448,192,156759,1,0,0:0:0:0:
64,192,156929,1,0,0:0:0:0:
320,192,157098,1,2,0:0:0:0:
192,192,157268,1,2,0:0:0:0:
64,192,157437,1,8,0:0:0:0:
448,192,157437,1,0,0:0:0:0:
192,192,157607,1,0,0:0:0:0:
320,192,157776,1,2,0:0:0:0:
448,192,157946,1,0,0:0:0:0:
64,192,158115,1,8,0:0:0:0:
192,192,158115,1,0,0:0:0:0:
448,192,158285,1,0,0:0:0:0:
320,192,158454,1,2,0:0:0:0:
192,192,158624,1,2,0:0:0:0:
320,192,158793,1,8,0:0:0:0:
448,192,158793,1,0,0:0:0:35:echo_snare1.wav
64,192,158963,1,2,0:0:0:0:
192,192,159132,128,2,159471:0:0:0:0:
64,192,159471,1,8,0:0:0:0:
448,192,159471,128,0,159810:0:0:0:0:
320,192,159641,1,0,0:0:0:0:
64,192,159810,128,2,160149:0:0:0:0:
192,192,159980,1,2,0:0:0:0:
320,192,160149,1,8,0:0:0:0:
448,192,160149,1,0,0:0:0:0:
192,192,160319,1,0,0:0:0:0:
64,192,160488,1,2,0:0:0:0:
320,192,160658,1,0,0:0:0:0:
64,192,160827,1,8,0:0:0:0:
448,192,160827,1,0,0:0:0:0:
192,192,160997,1,0,0:0:0:0:
320,192,161166,1,2,0:0:0:0:
448,192,161335,1,2,0:0:0:0:
64,192,161505,1,8,0:0:0:0:
192,192,161505,1,0,0:0:0:0:
320,192,161674,1,2,0:0:0:0:
448,192,161844,128,2,162183:0:0:0:0:
64,192,162183,128,8,162522:0:0:0:0:
320,192,162183,1,0,0:0:0:0:
192,192,162352,1,0,0:0:0:0:
320,192,162522,128,2,162861:0:0:0:0:
64,192,162691,1,2,0:0:0:0:
192,192,162861,1,8,0:0:0:0:
448,192,162861,1,0,0:0:0:0:
64,192,163030,1,0,0:0:0:0:
64,192,163369,1,0,0:0:0:0:
320,192,163539,1,8,0:0:0:0:
448,192,163539,1,0,0:0:0:0:
192,192,163708,1,0,0:0:0:0:
320,192,163878,1,2,0:0:0:0:
64,192,164047,1,2,0:0:0:0:
192,192,164132,1,2,0:0:0:0:
320,192,164217,1,8,0:0:0:0:
448,192,164217,1,0,0:0:0:0:
192,192,164386,1,2,0:0:0:0:
64,192,164556,1,2,0:0:0:0:
448,192,164556,1,4,0:0:0:0:
64,192,164895,1,8,0:0:0:0:
192,192,164895,1,0,0:0:0:0:
448,192,165064,1,0,0:0:0:0:
320,192,165234,1,2,0:0:0:0:
192,192,165403,1,2,0:0:0:0:
320,192,165573,1,8,0:0:0:0:
448,192,165573,1,0,0:0:0:0:
192,192,165742,1,0,0:0:0:0:
64,192,165912,1,2,0:0:0:0:
448,192,166081,1,0,0:0:0:0:
192,192,166251,1,8,0:0:0:0:
320,192,166251,1,0,0:0:0:0:
64,192,166420,1,0,0:0:0:0:
448,192,166590,1,2,0:0:0:0:
320,192,166759,1,2,0:0:0:0:
64,192,166929,1,8,0:0:0:0:
192,192,166929,1,0,0:0:0:0:
320,192,167098,1,2,0:0:0:0:
448,192,167268,1,2,0:0:0:0:
64,192,167607,1,8,0:0:0:0:
320,192,167607,1,0,0:0:0:0:
448,192,167776,1,0,0:0:0:0:
192,192,167946,1,2,0:0:0:0:
320,192,168115,1,2,0:0:0:0:
64,192,168285,1,8,0:0:0:0:
448,192,168285,1,0,0:0:0:0:
320,192,168454,1,0,0:0:0:0:
192,192,168624,1,2,0:0:0:0:
64,192,168793,1,0,0:0:0:0:
320,192,168963,1,8,0:0:0:0:
448,192,168963,1,0,0:0:0:0:
64,192,169132,1,0,0:0:0:0:
192,192,169302,1,2,0:0:0:0:
320,192,169471,1,2,0:0:0:0:
64,192,169641,1,8,0:0:0:0:
192,192,169641,1,0,0:0:0:35:echo_snare1.wav
448,192,169810,1,2,0:0:0:0:
320,192,169980,128,2,170319:0:0:0:0:
64,192,170319,128,8,170658:0:0:0:0:
448,192,170319,1,0,0:0:0:0:
192,192,170488,1,0,0:0:0:0:
448,192,170658,128,2,170997:0:0:0:0:
320,192,170827,1,2,0:0:0:0:
64,192,170997,1,8,0:0:0:0:
192,192,170997,1,0,0:0:0:0:
320,192,171166,1,0,0:0:0:0:
64,192,171335,1,2,0:0:0:0:
448,192,171505,1,0,0:0:0:0:
64,192,171674,1,8,0:0:0:0:
192,192,171674,1,0,0:0:0:0:
320,192,171844,1,0,0:0:0:0:
192,192,172013,1,2,0:0:0:0:
64,192,172183,1,2,0:0:0:0:
320,192,172352,1,8,0:0:0:0:
448,192,172352,1,0,0:0:0:0:
192,192,172522,1,2,0:0:0:0:
64,192,172691,128,2,173030:0:0:0:0:
192,192,173030,1,8,0:0:0:0:
448,192,173030,128,0,173369:0:0:0:0:
320,192,173200,1,0,0:0:0:0:
192,192,173369,128,2,173708:0:0:0:0:
448,192,173539,1,2,0:0:0:0:
64,192,173708,1,8,0:0:0:0:
320,192,173708,1,0,0:0:0:0:
192,192,173878,1,0,0:0:0:0:
192,192,174217,1,0,0:0:0:0:
64,192,174386,1,8,0:0:0:0:
448,192,174386,1,0,0:0:0:0:
320,192,174556,1,0,0:0:0:0:
192,192,174725,1,2,0:0:0:0:
448,192,174895,1,2,0:0:0:0:
320,192,174980,1,2,0:0:0:0:
64,192,175064,1,8,0:0:0:0:
192,192,175064,1,0,0:0:0:35:echo_snare1.wav
320,192,175234,1,2,0:0:0:0:
64,192,175403,1,2,0:0:0:0:
448,192,175403,1,4,0:0:0:0:
192,192,175742,1,8,0:0:0:0:
320,192,175742,1,0,0:0:0:0:
64,192,175912,1,0,0:0:0:0:
448,192,176081,1,2,0:0:0:0:
320,192,176251,1,2,0:0:0:0:
64,192,176420,1,8,0:0:0:0:
192,192,176420,1,0,0:0:0:0:
192,192,176590,1,0,0:0:0:0:
320,192,176929,1,0,0:0:0:0:
192,192,177098,1,8,0:0:0:0:
448,192,177098,1,0,0:0:0:0:
320,192,177268,1,0,0:0:0:0:
64,192,177437,1,2,0:0:0:0:
192,192,177607,1,2,0:0:0:0:
320,192,177776,1,8,0:0:0:0:
448,192,177776,1,0,0:0:0:0:
192,192,177946,1,2,0:0:0:0:
64,192,178115,1,2,0:0:0:0:
448,192,178285,1,0,0:0:0:0:
192,192,178454,1,8,0:0:0:0:
320,192,178454,1,0,0:0:0:0:
448,192,178624,1,0,0:0:0:0:
64,192,178793,1,2,0:0:0:0:
192,192,178963,1,2,0:0:0:0:
320,192,179132,1,8,0:0:0:0:
448,192,179132,1,0,0:0:0:0:
320,192,179302,1,0,0:0:0:0:
192,192,179641,1,0,0:0:0:0:
64,192,179810,1,8,0:0:0:0:
448,192,179810,1,0,0:0:0:0:
192,192,179980,1,0,0:0:0:0:
320,192,180149,1,2,0:0:0:0:
192,192,180319,1,2,0:0:0:0:
64,192,180488,1,8,0:0:0:0:
448,192,180488,1,0,0:0:0:35:echo_snare1.wav
320,192,180658,1,2,0:0:0:0:
192,192,180827,128,2,181166:0:0:0:0:
64,192,180997,1,0,0:0:0:0:
320,192,181166,1,8,0:0:0:0:
448,192,181166,128,0,181505:0:0:0:0:
64,192,181335,1,0,0:0:0:0:
320,192,181505,128,2,181844:0:0:0:0:
192,192,181674,1,2,0:0:0:0:
64,192,181844,1,8,0:0:0:0:
448,192,181844,1,0,0:0:0:0:
192,192,182013,1,0,0:0:0:0:
320,192,182352,1,0,0:0:0:0:
64,192,182522,1,8,0:0:0:0:
448,192,182522,1,0,0:0:0:0:
320,192,182691,1,0,0:0:0:0:
192,192,182861,1,2,0:0:0:0:
64,192,183030,1,2,0:0:0:0:
320,192,183200,1,8,0:0:0:0:
448,192,183200,1,0,0:0:0:0:
192,192,183369,1,2,0:0:0:0:
448,192,183539,128,2,183878:0:0:0:0:
64,192,183708,1,0,0:0:0:0:
192,192,183878,1,8,0:0:0:0:
320,192,183878,128,0,184217:0:0:0:0:
448,192,184047,1,0,0:0:0:0:
64,192,184217,128,2,184556:0:0:0:0:
192,192,184386,1,2,0:0:0:0:
320,192,184556,1,8,0:0:0:0:
448,192,184556,1,0,0:0:0:0:
192,192,184725,1,0,0:0:0:0:
192,192,185064,1,0,0:0:0:0:
64,192,185234,1,8,0:0:0:0:
448,192,185234,1,0,0:0:0:0:
320,192,185403,1,0,0:0:0:0:
448,192,185573,1,2,0:0:0:0:
64,192,185742,1,2,0:0:0:0:
192,192,185827,1,2,0:0:0:0:
320,192,185912,1,8,0:0:0:0:
448,192,185912,1,0,0:0:0:35:echo_snare1.wav
192,192,186081,1,2,0:0:0:0:
64,192,186251,1,2,0:0:0:0:
448,192,186251,1,4,0:0:0:0:
192,192,186590,1,8,0:0:0:0:
320,192,186590,1,0,0:0:0:0:
448,192,186759,1,0,0:0:0:0:
64,192,186929,1,2,0:0:0:0:
192,192,187098,1,2,0:0:0:0:
320,192,187268,1,8,0:0:0:0:
448,192,187268,1,0,0:0:0:0:
320,192,187437,1,0,0:0:0:0:
192,192,187776,1,0,0:0:0:0:
64,192,187946,1,8,0:0:0:0:
320,192,187946,1,0,0:0:0:0:
448,192,188115,1,0,0:0:0:0:
192,192,188285,1,2,0:0:0:0:
320,192,188454,1,2,0:0:0:0:
64,192,188624,1,8,0:0:0:0:
192,192,188624,1,0,0:0:0:0:
448,192,188793,1,2,0:0:0:0:
320,192,188963,1,2,0:0:0:0:
64,192,189132,1,0,0:0:0:0:
192,192,189302,1,8,0:0:0:0:
320,192,189302,1,0,0:0:0:0:
64,192,189471,1,0,0:0:0:0:
448,192,189641,1,2,0:0:0:0:
320,192,189810,1,2,0:0:0:0:
64,192,189980,1,8,0:0:0:0:
192,192,189980,1,0,0:0:0:0:
192,192,190149,1,0,0:0:0:0:
448,192,190488,1,0,0:0:0:0:
64,192,190658,1,8,0:0:0:0:
192,192,190658,1,0,0:0:0:0:
320,192,190827,1,0,0:0:0:0:
192,192,190997,1,2,0:0:0:0:
320,192,191166,1,2,0:0:0:0:
64,192,191335,1,8,0:0:0:0:
448,192,191335,1,0,0:0:0:35:echo_snare1.wav
192,192,191505,1,2,0:0:0:0:
320,192,191674,128,2,192013:0:0:0:0:
448,192,191844,1,0,0:0:0:0:
64,192,192013,128,8,192352:0:0:0:0:
192,192,192013,1,0,0:0:0:0:
448,192,192183,1,0,0:0:0:0:
192,192,192352,128,2,192691:0:0:0:0:
320,192,192522,1,2,0:0:0:0:
64,192,192691,1,8,0:0:0:0:
448,192,192691,1,0,0:0:0:0:
320,192,192861,1,0,0:0:0:0:
192,192,193030,1,2,0:0:0:0:
320,192,193200,1,0,0:0:0:0:
64,192,193369,1,8,0:0:0:0:
448,192,193369,1,0,0:0:0:0:
192,192,193539,1,0,0:0:0:0:
320,192,193708,1,2,0:0:0:0:
448,192,193878,1,2,0:0:0:0:
64,192,194047,1,8,0:0:0:0:
192,192,194047,1,0,0:0:0:0:
320,192,194217,1,2,0:0:0:0:
64,192,194386,128,2,194725:0:0:0:0:
448,192,194556,1,0,0:0:0:0:
192,192,194725,128,8,195064:0:0:0:0:
320,192,194725,1,0,0:0:0:0:
64,192,194895,1,0,0:0:0:0:
448,192,195064,128,2,195403:0:0:0:0:
320,192,195234,1,2,0:0:0:0:
64,192,195403,1,8,0:0:0:0:
192,192,195403,1,0,0:0:0:0:
320,192,195573,1,0,0:0:0:0:
320,192,195912,1,0,0:0:0:0:
64,192,196081,1,8,0:0:0:0:
448,192,196081,1,0,0:0:0:0:
192,192,196251,1,0,0:0:0:0:
64,192,196420,1,2,0:0:0:0:
448,192,196590,1,2,0:0:0:0:
320,192,196674,1,2,0:0:0:0:
64,192,196759,1,8,0:0:0:0:
192,192,196759,1,0,0:0:0:35:echo_snare1.wav
448,192,196929,1,2,0:0:0:0:
