osu file format v14

[General]
AudioFilename: audio.ogg
AudioLeadIn: 0
PreviewTime: 51590
Countdown: 0
SampleSet: Soft
StackLeniency: 0.7
Mode: 3
LetterboxInBreaks: 0
SpecialStyle: 0
WidescreenStoryboard: 1

[Editor]
Bookmarks: 76445,130683
DistanceSpacing: 1
BeatDivisor: 4
GridSize: 32
TimelineZoom: 3.299999

[Metadata]
Title:Back to the City
TitleUnicode:Back to the City
Artist:Kep1er
ArtistUnicode:케플러
Creator:Ilham
Version:C1ty
Source:
Tags:FerdiXIA- Gahyeonln fvrex xtrippin Kepler BTC LOVESTRUCK! WAKEONE Swing Entertainment JulY 이수정 Lee Su Jeong VERYGOODS 최지윤 Choi Ji Yoon 153 Joombas Janey MUMW Justin Reinstein Jjean Korean Pop KPop K-Pop 김채현 Kim Chae Hyun Chaehyun 휴닝바히에 Huening Bahiyyih 최유진 Choi Yu Jin Yujin 김다연 Kim Da Yeon Dayeon 서영은 Seo Young Eun Youngeun 강예서 Kang Ye Seo Yeseo 江崎ひかる 히카루 Ezaki Hikaru 坂本舞白 마시로 Sakamoto Mashiro 沈小婷 샤오팅 Shen Xiaoting
BeatmapID:4094055
BeatmapSetID:1972972

[Difficulty]
HPDrainRate:8.5
CircleSize:4
OverallDifficulty:7.5
ApproachRate:5
SliderMultiplier:1.4
SliderTickRate:1

[Events]
//Background and Video events
0,0,"BG Chaehyun [punyaku].jpg",0,0
//Break Periods
//Storyboard Layer 0 (Background)
//Storyboard Layer 1 (Fail)
//Storyboard Layer 2 (Pass)
//Storyboard Layer 3 (Foreground)
//Storyboard Layer 4 (Overlay)
//Storyboard Sound Samples

[TimingPoints]
10997,338.983050847458,4,2,1,40,1,0
54725,-100,4,2,1,55,0,1
76081,-100,4,2,1,40,0,0
98115,-100,4,2,1,55,0,1
130319,-100,4,2,1,40,0,0
156420,-100,4,2,1,55,0,1
196759,-100,4,2,1,40,0,0

[HitObjects]
192,192,488,128,0,827:0:0:0:25:electronic04.wav
320,192,658,128,0,827:0:0:0:0:
64,192,827,128,0,912:0:0:0:50:snare17.wav
448,192,827,128,0,1166:0:0:0:0:
192,192,996,128,0,1335:0:0:0:0:
64,192,1166,128,0,1335:0:0:0:25:electronic04.wav
448,192,1335,128,0,1505:0:0:0:25:electronic04.wav
64,192,1505,128,0,1590:0:0:0:50:snare17.wav
192,192,1505,128,0,1844:0:0:0:0:
320,192,1674,128,0,1844:0:0:0:0:
448,192,1844,128,0,2013:0:0:0:25:electronic04.wav
192,192,2013,128,0,2352:0:0:0:25:electronic04.wav
64,192,2183,128,0,2268:0:0:0:50:snare17.wav
448,192,2183,128,0,2522:0:0:0:0:
320,192,2352,128,0,2522:0:0:0:0:
192,192,2522,128,0,2691:0:0:0:25:electronic04.wav
64,192,2691,128,0,2861:0:0:0:25:electronic04.wav
192,192,2861,128,0,3200:0:0:0:50:snare17.wav
320,192,2861,128,0,3030:0:0:0:0:
448,192,3030,128,0,3200:0:0:0:25:electronic04.wav
320,192,3200,128,0,3539:0:0:0:25:electronic04.wav
192,192,3369,128,0,3539:0:0:0:0:
64,192,3539,128,0,3878:0:0:0:50:snare17.wav
448,192,3539,128,0,3624:0:0:0:0:
320,192,3708,128,0,4047:0:0:0:0:
448,192,3878,128,0,4047:0:0:0:25:electronic04.wav
64,192,4047,128,0,4217:0:0:0:25:electronic04.wav
320,192,4217,128,0,4556:0:0:0:50:snare17.wav
448,192,4217,128,0,4302:0:0:0:0:
192,192,4386,128,0,4556:0:0:0:0:
64,192,4556,128,0,4725:0:0:0:25:electronic04.wav
320,192,4725,128,0,5064:0:0:0:25:electronic04.wav
64,192,4895,128,0,5234:0:0:0:50:snare17.wav
448,192,4895,128,0,4980:0:0:0:0:
192,192,5064,128,0,5234:0:0:0:0:
320,192,5234,128,0,5403:0:0:0:25:electronic04.wav
448,192,5403,128,0,5573:0:0:0:25:electronic04.wav
192,192,5573,128,0,5742:0:0:0:50:snare17.wav
320,192,5573,128,0,5912:0:0:0:0:
64,192,5742,128,0,5912:0:0:0:25:electronic04.wav
192,192,5912,128,0,6251:0:0:0:25:electronic04.wav
320,192,6081,128,0,6251:0:0:0:0:
64,192,6251,128,0,6335:0:0:0:50:snare17.wav
448,192,6251,128,0,6590:0:0:0:0:
64,192,6420,128,0,8115:0:0:0:0:
192,192,6590,128,0,6759:0:0:0:25:electronic04.wav
448,192,6759,128,0,6929:0:0:0:25:electronic04.wav
192,192,6929,128,0,7013:0:0:0:50:snare17.wav
320,192,6929,128,0,7098:0:0:0:0:
192,192,7098,128,0,7437:0:0:0:0:
320,192,7268,128,0,7437:0:0:0:25:electronic04.wav
448,192,7437,128,0,7607:0:0:0:0:
192,192,7607,128,0,7776:0:0:0:50:snare17.wav
320,192,7607,128,0,7691:0:0:0:0:
320,192,7776,128,0,7946:0:0:0:0:
448,192,7946,128,0,8115:0:0:0:25:electronic04.wav
320,192,8115,128,0,8285:0:0:0:25:electronic04.wav
64,192,8285,128,0,8369:0:0:0:50:snare17.wav
192,192,8285,128,0,8454:0:0:0:0:
64,192,8454,128,0,8624:0:0:0:25:electronic04.wav
192,192,8624,128,0,8793:0:0:0:25:electronic04.wav
320,192,8793,128,0,8963:0:0:0:0:
64,192,8963,128,0,9132:0:0:0:50:snare17.wav
192,192,8963,128,0,9132:0:0:0:0:
448,192,8963,128,0,9302:0:0:0:0:
320,192,9132,128,0,9471:0:0:0:0:
64,192,9302,128,0,9471:0:0:0:25:electronic04.wav
192,192,9471,128,0,9641:0:0:0:25:electronic04.wav
64,192,9641,128,0,9980:0:0:0:50:snare17.wav
320,192,9641,128,0,9810:0:0:0:0:
448,192,9641,128,0,9810:0:0:0:0:
192,192,9810,128,0,10149:0:0:0:0:
448,192,9980,128,0,10149:0:0:0:25:electronic04.wav
320,192,10149,128,0,10319:0:0:0:0:
192,192,10319,128,0,10658:0:0:0:50:snare17.wav
448,192,10319,128,0,10488:0:0:0:0:
64,192,10488,128,0,10658:0:0:0:0:
320,192,10658,128,0,10827:0:0:0:25:electronic04.wav
192,192,10827,128,0,10912:0:0:0:70:echo_snare1.wav
448,192,10827,128,0,10912:0:0:0:0:
64,192,10996,1,0,0:0:0:70:echo_snare1.wav
448,192,10996,1,0,0:0:0:0:
320,192,11039,1,0,0:0:0:0:
192,192,11081,1,0,0:0:0:0:
64,192,11124,1,0,0:0:0:0:
448,192,11166,1,0,0:0:0:40:LR_Clap Reverb.wav
320,192,11208,1,0,0:0:0:0:
64,192,11251,1,0,0:0:0:0:
192,192,11293,1,0,0:0:0:0:
448,192,11335,128,2,11759:0:0:0:0:
64,192,11674,128,8,11759:0:0:0:0:
192,192,11674,128,0,11759:0:0:0:0:
320,192,11674,128,0,11759:0:0:0:0:
320,192,11844,128,0,11929:0:0:0:0:
192,192,12013,128,2,12098:0:0:0:0:
320,192,12013,128,0,12437:0:0:0:0:
64,192,12183,128,2,12268:0:0:0:0:
192,192,12183,128,0,12268:0:0:0:0:
64,192,12352,128,8,12437:0:0:0:0:
192,192,12352,128,0,12437:0:0:0:0:
448,192,12352,128,0,12437:0:0:0:0:
320,192,12522,128,0,12607:0:0:0:0:
192,192,12691,128,2,12776:0:0:0:0:
448,192,12691,128,0,12861:0:0:0:0:
192,192,12861,128,0,13030:0:0:0:0:
64,192,13030,128,8,13115:0:0:0:0:
320,192,13030,128,0,13200:0:0:0:0:
448,192,13030,128,0,13115:0:0:0:0:
192,192,13200,128,0,13454:0:0:0:0:
64,192,13369,128,2,13454:0:0:0:0:
448,192,13369,128,0,13454:0:0:0:0:
320,192,13539,128,2,13624:0:0:0:0:
448,192,13539,128,0,13793:0:0:0:0:
64,192,13708,128,8,13793:0:0:0:0:
192,192,13708,128,0,13793:0:0:0:0:
320,192,13708,128,0,13793:0:0:0:0:
192,192,13878,128,2,13963:0:0:0:0:
320,192,13878,128,0,13963:0:0:0:0:
64,192,14047,128,2,14132:0:0:0:0:
448,192,14047,128,0,14132:0:0:0:0:
320,192,14217,128,0,14386:0:0:0:0:
64,192,14386,128,8,14471:0:0:0:0:
192,192,14386,128,0,14471:0:0:0:0:
448,192,14386,128,0,14556:0:0:0:0:
320,192,14556,128,0,14810:0:0:0:0:
64,192,14725,128,2,14980:0:0:0:0:
192,192,14725,128,0,14810:0:0:0:0:
320,192,14895,128,2,14980:0:0:0:0:
448,192,14895,128,0,14980:0:0:0:0:
64,192,15064,128,8,15319:0:0:0:0:
192,192,15064,128,0,15319:0:0:0:0:
448,192,15064,128,0,15149:0:0:0:0:
320,192,15234,128,0,15319:0:0:0:0:
64,192,15403,128,2,15488:0:0:0:0:
448,192,15403,128,0,15488:0:0:0:0:
192,192,15573,128,0,15742:0:0:0:0:
64,192,15742,128,8,15912:0:0:0:0:
320,192,15742,128,0,15827:0:0:0:0:
448,192,15742,128,0,15827:0:0:0:0:
192,192,15912,128,0,16081:0:0:0:0:
64,192,16081,128,2,16335:0:0:0:0:
320,192,16081,128,0,16166:0:0:0:0:
192,192,16251,128,2,16335:0:0:0:0:
320,192,16251,128,0,16505:0:0:0:0:
64,192,16420,128,8,16505:0:0:0:0:
192,192,16420,128,0,16505:0:0:0:0:
448,192,16420,128,0,16844:0:0:0:0:
320,192,16590,128,0,16844:0:0:0:0:
64,192,16759,128,2,16844:0:0:0:0:
192,192,16759,128,0,16844:0:0:0:0:
64,192,17098,128,8,17183:0:0:0:0:
192,192,17098,128,0,17183:0:0:0:0:
448,192,17098,128,0,17437:0:0:0:0:
320,192,17268,128,0,17437:0:0:0:0:
64,192,17437,128,2,17607:0:0:0:0:
192,192,17437,128,0,17522:0:0:0:0:
192,192,17607,128,2,17776:0:0:0:0:
320,192,17607,128,0,17691:0:0:0:0:
64,192,17776,128,8,17946:0:0:0:0:
320,192,17776,128,0,17861:0:0:0:0:
448,192,17776,128,0,18200:0:0:0:0:
320,192,17946,128,0,18285:0:0:0:0:
64,192,18115,128,2,18200:0:0:0:0:
192,192,18115,128,0,18369:0:0:0:0:
64,192,18454,128,8,18793:0:0:0:0:
320,192,18454,128,0,18539:0:0:0:0:
448,192,18454,128,0,18539:0:0:0:0:
192,192,18624,128,0,18793:0:0:0:0:
320,192,18793,128,2,18878:0:0:0:0:
448,192,18793,128,0,18963:0:0:0:0:
192,192,18963,128,2,19047:0:0:0:0:
320,192,18963,128,0,19132:0:0:0:0:
64,192,19132,128,8,19556:0:0:0:0:
192,192,19132,128,0,19217:0:0:0:0:
448,192,19132,128,0,19302:0:0:0:0:
192,192,19302,128,2,19641:0:0:0:0:
320,192,19471,128,2,19725:0:0:0:0:
448,192,19471,128,0,19556:0:0:0:0:
64,192,19810,128,8,20234:0:0:0:0:
192,192,19810,128,0,19895:0:0:0:0:
448,192,19810,128,0,20064:0:0:0:0:
320,192,19980,128,0,20064:0:0:0:0:
192,192,20149,128,2,20234:0:0:0:0:
448,192,20149,128,0,20403:0:0:0:0:
64,192,20319,128,2,20403:0:0:0:0:
192,192,20319,128,0,20403:0:0:0:0:
320,192,20488,128,8,20742:0:0:0:0:
448,192,20488,128,0,20742:0:0:0:0:
192,192,20658,128,0,20912:0:0:0:0:
320,192,20827,128,2,20997:0:0:0:0:
448,192,20827,128,0,20997:0:0:0:0:
64,192,21166,128,8,21335:0:0:0:0:
192,192,21166,128,0,21505:0:0:0:0:
448,192,21166,128,0,21335:0:0:0:0:
320,192,21335,128,0,21505:0:0:0:0:
64,192,21505,128,2,21590:0:0:0:0:
448,192,21505,128,0,21759:0:0:0:0:
192,192,21674,128,2,21759:0:0:0:0:
320,192,21674,128,0,21759:0:0:0:0:
64,192,21844,128,8,22268:0:0:0:0:
320,192,21844,1,0,0:0:0:0:
448,192,21844,128,0,21929:0:0:0:0:
192,192,22013,1,0,0:0:0:40:LR_Clap Reverb.wav
320,192,22013,128,0,22098:0:0:0:0:
192,192,22183,128,2,22268:0:0:0:0:
448,192,22183,128,0,22607:0:0:0:0:
64,192,22522,128,8,22607:0:0:0:0:
192,192,22522,128,0,22607:0:0:0:0:
320,192,22522,128,0,22607:0:0:0:0:
192,192,22691,128,0,22776:0:0:0:0:
192,192,22861,128,2,23285:0:0:0:0:
320,192,22861,128,0,22946:0:0:0:0:
320,192,23030,128,2,23115:0:0:0:0:
448,192,23030,128,0,23115:0:0:0:0:
64,192,23200,128,8,23285:0:0:0:0:
320,192,23200,128,0,23285:0:0:0:0:
448,192,23200,128,0,23285:0:0:0:0:
192,192,23369,128,0,23454:0:0:0:0:
64,192,23539,128,2,23708:0:0:0:0:
320,192,23539,128,0,23624:0:0:0:0:
320,192,23708,128,0,23878:0:0:0:0:
64,192,23878,128,8,23963:0:0:0:0:
192,192,23878,128,0,24047:0:0:0:0:
448,192,23878,128,0,23963:0:0:0:0:
320,192,24047,128,0,24302:0:0:0:0:
64,192,24217,128,2,24302:0:0:0:0:
448,192,24217,128,0,24302:0:0:0:0:
64,192,24386,128,2,24641:0:0:0:0:
192,192,24386,128,0,24471:0:0:0:0:
192,192,24556,128,8,24641:0:0:0:0:
320,192,24556,128,0,24641:0:0:0:0:
448,192,24556,128,0,24810:0:0:0:0:
64,192,24725,128,2,24810:0:0:0:0:
320,192,24725,128,0,24810:0:0:0:0:
192,192,24895,128,2,24980:0:0:0:0:
448,192,24895,128,0,25064:0:0:0:0:
192,192,25064,128,0,25234:0:0:0:0:
64,192,25234,128,8,25403:0:0:0:0:
320,192,25234,128,0,25319:0:0:0:0:
448,192,25234,128,0,25319:0:0:0:0:
192,192,25403,128,0,25658:0:0:0:0:
320,192,25573,128,2,25658:0:0:0:0:
448,192,25573,128,0,25827:0:0:0:0:
64,192,25742,128,2,25827:0:0:0:0:
192,192,25742,128,0,25827:0:0:0:0:
64,192,25912,128,8,25997:0:0:0:0:
320,192,25912,128,0,26166:0:0:0:0:
448,192,25912,128,0,26166:0:0:0:0:
192,192,26081,128,0,26166:0:0:0:0:
64,192,26251,128,2,26335:0:0:0:0:
320,192,26251,128,0,26335:0:0:0:0:
192,192,26420,128,0,26590:0:0:0:0:
64,192,26590,128,8,26674:0:0:0:0:
320,192,26590,128,0,26674:0:0:0:0:
448,192,26590,128,0,26759:0:0:0:0:
320,192,26759,128,0,26929:0:0:0:0:
192,192,26929,128,2,27013:0:0:0:0:
448,192,26929,128,0,27183:0:0:0:0:
192,192,27098,128,2,27352:0:0:0:0:
320,192,27098,128,0,27183:0:0:0:0:
64,192,27268,128,8,27691:0:0:0:0:
320,192,27268,128,0,27352:0:0:0:70:echo_snare1.wav
448,192,27268,128,0,27352:0:0:0:0:
192,192,27437,128,0,27522:0:0:0:0:
320,192,27607,128,2,27691:0:0:0:0:
448,192,27607,128,0,27691:0:0:0:0:
448,192,27776,128,0,27946:0:0:0:0:
64,192,27946,128,8,28285:0:0:0:0:
192,192,27946,128,0,28030:0:0:0:0:
320,192,27946,128,0,28030:0:0:0:0:
192,192,28115,128,0,28369:0:0:0:0:
320,192,28285,128,2,28369:0:0:0:0:
448,192,28285,128,0,28454:0:0:0:0:
192,192,28454,128,2,28539:0:0:0:0:
320,192,28454,128,0,28624:0:0:0:0:
64,192,28624,128,8,28793:0:0:0:0:
448,192,28624,128,0,28708:0:0:0:0:
192,192,28708,128,0,28878:0:0:0:0:
320,192,28793,128,0,28878:0:0:0:0:
320,192,28963,128,2,29047:0:0:0:0:
448,192,28963,128,0,29047:0:0:0:0:
64,192,29132,128,0,29217:0:0:0:0:
64,192,29302,128,8,29386:0:0:0:0:
192,192,29302,128,0,29386:0:0:0:0:
448,192,29302,128,0,29641:0:0:0:0:
320,192,29471,128,0,29725:0:0:0:0:
64,192,29641,128,2,29810:0:0:0:0:
192,192,29641,128,0,29725:0:0:0:0:
192,192,29810,128,2,29980:0:0:0:0:
320,192,29810,128,0,29895:0:0:0:0:
64,192,29980,128,8,30149:0:0:0:0:
320,192,29980,128,0,30064:0:0:0:0:
448,192,29980,128,0,30064:0:0:0:0:
192,192,30149,128,2,30403:0:0:0:0:
320,192,30149,128,0,30234:0:0:0:0:
64,192,30319,128,2,30403:0:0:0:0:
448,192,30319,128,0,30403:0:0:0:0:
320,192,30488,128,0,30573:0:0:0:0:
64,192,30658,128,8,30912:0:0:0:0:
192,192,30658,128,0,30742:0:0:0:0:
448,192,30658,128,0,31081:0:0:0:0:
192,192,30827,128,0,30912:0:0:0:0:
64,192,30997,128,2,31251:0:0:0:0:
320,192,30997,128,0,31081:0:0:0:0:
320,192,31166,128,2,31251:0:0:0:0:
448,192,31166,128,0,31251:0:0:0:0:
64,192,31335,128,8,31420:0:0:0:0:
192,192,31335,128,0,31759:0:0:0:0:
448,192,31335,128,0,31505:0:0:0:0:
320,192,31505,128,0,31759:0:0:0:0:
64,192,31674,128,2,31759:0:0:0:0:
448,192,31674,128,0,31759:0:0:0:0:
192,192,31844,128,0,32013:0:0:0:0:
64,192,32013,128,8,32183:0:0:0:0:
320,192,32013,128,0,32352:0:0:0:0:
448,192,32013,128,0,32183:0:0:0:0:
192,192,32183,128,0,32352:0:0:0:0:
64,192,32352,128,2,32607:0:0:0:0:
448,192,32352,128,0,32437:0:0:0:0:
192,192,32522,128,2,32607:0:0:0:0:
320,192,32522,128,0,32607:0:0:0:0:
64,192,32691,128,8,32776:0:0:0:0:
192,192,32691,1,0,0:0:0:70:echo_snare1.wav
448,192,32691,128,0,33115:0:0:0:0:
192,192,32861,128,2,32946:0:0:0:0:
320,192,32861,1,0,0:0:0:0:
64,192,33030,128,2,33200:0:0:0:0:
192,192,33030,128,4,33454:0:0:0:0:
320,192,33030,128,0,33115:0:0:0:0:
320,192,33200,128,0,33285:0:0:0:0:
64,192,33369,128,8,33454:0:0:0:0:
320,192,33369,128,0,33454:0:0:0:0:
448,192,33369,128,0,33793:0:0:0:0:
64,192,33539,128,0,33793:0:0:0:0:
192,192,33708,128,2,33793:0:0:0:0:
320,192,33708,128,0,33793:0:0:0:0:
64,192,33878,128,2,34302:0:0:0:0:
448,192,33878,128,0,33963:0:0:0:0:
192,192,34047,128,8,34302:0:0:0:0:
320,192,34047,128,0,34471:0:0:0:0:
448,192,34047,1,0,0:0:0:0:
448,192,34217,128,0,34641:0:0:0:0:
64,192,34386,128,2,34471:0:0:0:0:
192,192,34386,128,0,34471:0:0:0:0:
320,192,34556,128,0,34641:0:0:0:0:
64,192,34725,128,8,34810:0:0:0:0:
192,192,34725,128,0,34810:0:0:0:0:
448,192,34725,128,0,34810:0:0:0:0:
64,192,34895,128,0,35064:0:0:0:0:
320,192,35064,128,2,35149:0:0:0:0:
448,192,35064,128,0,35149:0:0:0:0:
192,192,35234,128,2,35319:0:0:0:0:
64,192,35403,128,8,35488:0:0:0:0:
320,192,35403,128,0,35488:0:0:0:0:
448,192,35403,128,0,35742:0:0:0:0:
320,192,35573,128,2,35742:0:0:0:0:
64,192,35742,128,2,35827:0:0:0:0:
192,192,35742,128,0,36166:0:0:0:0:
448,192,35912,128,0,35997:0:0:0:0:
64,192,36081,128,8,36505:0:0:0:0:
320,192,36081,128,0,36166:0:0:0:0:
448,192,36081,128,0,36166:0:0:0:0:
448,192,36251,128,0,36420:0:0:0:0:
192,192,36420,128,2,36505:0:0:0:0:
320,192,36420,128,0,36505:0:0:0:0:
64,192,36590,128,2,36674:0:0:0:0:
448,192,36590,128,0,37013:0:0:0:0:
64,192,36759,1,8,0:0:0:0:
192,192,36759,128,0,37183:0:0:0:0:
320,192,36759,128,0,37013:0:0:0:0:
64,192,36929,128,0,37183:0:0:0:0:
320,192,37098,128,2,37183:0:0:0:0:
448,192,37098,128,0,37183:0:0:0:0:
64,192,37268,128,0,37522:0:0:0:0:
192,192,37437,128,8,37522:0:0:0:0:
320,192,37437,128,0,37522:0:0:0:0:
448,192,37437,128,0,37522:0:0:0:0:
320,192,37607,128,0,37691:0:0:0:0:
64,192,37776,128,2,37861:0:0:0:0:
320,192,37776,128,0,38030:0:0:0:0:
192,192,37946,128,2,38030:0:0:0:0:
448,192,37946,128,0,38030:0:0:0:0:
64,192,38115,128,8,38200:0:0:0:0:
192,192,38115,128,0,38369:0:0:0:70:echo_snare1.wav
448,192,38115,128,0,38369:0:0:0:0:
320,192,38285,128,0,38369:0:0:0:0:
64,192,38454,128,2,38708:0:0:0:0:
192,192,38454,128,0,38539:0:0:0:0:
320,192,38624,128,0,38708:0:0:0:0:
64,192,38793,128,8,38878:0:0:0:0:
192,192,38793,128,0,38878:0:0:0:0:
448,192,38793,128,0,38878:0:0:0:0:
320,192,38963,128,0,39047:0:0:0:0:
64,192,39132,128,2,39217:0:0:0:0:
192,192,39132,128,0,39217:0:0:0:0:
320,192,39302,128,2,39386:0:0:0:0:
448,192,39302,128,0,39471:0:0:0:0:
64,192,39471,128,8,39556:0:0:0:0:
192,192,39471,128,0,39641:0:0:0:0:
320,192,39471,128,0,39556:0:0:0:0:
448,192,39641,128,0,39810:0:0:0:0:
64,192,39810,128,2,39895:0:0:0:0:
320,192,39810,128,0,39895:0:0:0:0:
320,192,39980,128,0,40234:0:0:0:0:
64,192,40149,128,8,40234:0:0:0:0:
192,192,40149,128,0,40319:0:0:0:0:
448,192,40149,128,0,40234:0:0:0:0:
448,192,40319,128,0,40573:0:0:0:0:
192,192,40488,128,2,40573:0:0:0:0:
320,192,40488,128,0,40573:0:0:0:0:
64,192,40658,128,2,40912:0:0:0:0:
448,192,40658,128,0,40742:0:0:0:0:
192,192,40827,128,8,40912:0:0:0:0:
320,192,40827,128,0,40912:0:0:0:0:
448,192,40827,128,0,40912:0:0:0:0:
64,192,40997,128,2,41081:0:0:0:0:
192,192,40997,128,0,41251:0:0:0:0:
320,192,41166,128,2,41251:0:0:0:0:
448,192,41166,128,0,41251:0:0:0:0:
192,192,41335,128,0,41590:0:0:0:0:
64,192,41505,128,8,41590:0:0:0:0:
320,192,41505,128,0,41590:0:0:0:0:
448,192,41505,128,0,41590:0:0:0:0:
448,192,41674,128,0,41759:0:0:0:0:
64,192,41844,128,2,41929:0:0:0:0:
320,192,41844,128,0,41929:0:0:0:0:
192,192,42013,128,2,42098:0:0:0:0:
448,192,42013,128,0,42183:0:0:0:0:
64,192,42183,128,8,42268:0:0:0:0:
192,192,42183,128,0,42268:0:0:0:0:
320,192,42183,128,0,42437:0:0:0:0:
192,192,42352,128,0,42776:0:0:0:0:
320,192,42522,128,2,42691:0:0:0:0:
448,192,42522,128,0,42607:0:0:0:0:
64,192,42691,128,0,42946:0:0:0:0:
192,192,42861,128,8,43030:0:0:0:0:
320,192,42861,128,0,43115:0:0:0:0:
448,192,42861,128,0,42946:0:0:0:0:
448,192,43030,128,0,43115:0:0:0:0:
64,192,43200,128,2,43285:0:0:0:0:
192,192,43200,128,0,43285:0:0:0:0:
320,192,43369,128,2,43539:0:0:0:0:
448,192,43369,128,0,43454:0:0:0:0:
64,192,43539,128,8,43624:0:0:0:0:
192,192,43539,128,0,43708:0:0:0:70:echo_snare1.wav
448,192,43539,128,0,43624:0:0:0:0:
320,192,43708,128,0,43878:0:0:0:40:LR_Clap Reverb.wav
448,192,43708,1,0,0:0:0:0:
64,192,43878,128,2,44132:0:0:0:0:
192,192,43878,128,0,44302:0:0:0:0:
320,192,44047,128,0,44302:0:0:0:0:
64,192,44217,128,8,44302:0:0:0:0:
448,192,44217,128,0,44302:0:0:0:0:
64,192,44386,128,0,44810:0:0:0:0:
192,192,44556,128,2,44810:0:0:0:0:
320,192,44556,128,0,44641:0:0:0:0:
320,192,44725,128,2,44810:0:0:0:0:
448,192,44725,128,0,44810:0:0:0:0:
64,192,44895,128,8,45234:0:0:0:0:
192,192,44895,128,0,45149:0:0:0:0:
320,192,44895,128,0,45064:0:0:0:0:
448,192,45064,128,0,45403:0:0:0:0:
192,192,45234,128,2,45658:0:0:0:0:
320,192,45234,128,0,45403:0:0:0:0:
64,192,45403,128,0,45658:0:0:0:0:
320,192,45573,128,8,45658:0:0:0:0:
448,192,45573,128,0,45658:0:0:0:0:
192,192,45742,128,0,45997:0:0:0:0:
320,192,45912,128,2,45997:0:0:0:0:
448,192,45912,128,0,45997:0:0:0:0:
64,192,46081,128,2,46166:0:0:0:0:
192,192,46081,128,0,46251:0:0:0:0:
64,192,46251,128,8,46335:0:0:0:0:
320,192,46251,128,0,46420:0:0:0:0:
448,192,46251,128,0,46335:0:0:0:0:
64,192,46420,128,2,46505:0:0:0:0:
192,192,46420,128,0,46590:0:0:0:0:
320,192,46590,128,2,47013:0:0:0:0:
448,192,46590,128,0,46844:0:0:0:0:
192,192,46759,128,0,47013:0:0:0:0:
64,192,46929,128,8,47013:0:0:0:0:
448,192,46929,128,0,47013:0:0:0:0:
448,192,47098,128,0,47522:0:0:0:0:
192,192,47268,128,2,47352:0:0:0:0:
320,192,47268,128,0,47522:0:0:0:0:
64,192,47437,128,2,47522:0:0:0:0:
192,192,47437,128,0,47522:0:0:0:0:
64,192,47607,128,8,47691:0:0:0:0:
320,192,47607,128,0,47776:0:0:0:0:
448,192,47607,128,0,47946:0:0:0:0:
192,192,47776,128,0,47946:0:0:0:0:
64,192,47946,128,2,48115:0:0:0:0:
320,192,47946,128,0,48285:0:0:0:0:
192,192,48115,128,0,48454:0:0:0:0:
64,192,48285,128,8,48454:0:0:0:0:
448,192,48285,128,0,48624:0:0:0:0:
320,192,48454,128,0,48624:0:0:0:0:
64,192,48624,128,2,48878:0:0:0:0:
192,192,48624,128,0,48878:0:0:0:0:
320,192,48793,128,2,48878:0:0:0:0:
448,192,48793,128,0,48878:0:0:0:0:
64,192,48963,128,8,49217:0:0:0:0:
320,192,48963,128,0,49217:0:0:0:70:echo_snare1.wav
448,192,48963,1,0,0:0:0:0:
192,192,49132,128,2,49217:0:0:0:0:
448,192,49132,128,0,49217:0:0:0:0:
64,192,49302,128,2,49556:0:0:0:0:
448,192,49302,128,0,49556:0:0:0:70:special03.wav
192,192,49471,128,0,49556:0:0:0:0:
448,192,49641,128,0,49725:0:0:0:0:
64,192,49810,128,2,49895:0:0:0:0:
320,192,49810,128,0,49980:0:0:0:0:
64,192,49980,128,8,50234:0:0:0:0:
192,192,49980,1,0,0:0:0:0:
448,192,49980,128,0,50234:0:0:0:0:
192,192,50149,128,2,50234:0:0:0:0:
320,192,50149,128,0,50234:0:0:0:0:
64,192,50319,128,0,50573:0:0:0:0:
320,192,50488,128,0,50573:0:0:0:0:
64,192,50658,128,2,50912:0:0:0:0:
192,192,50658,128,0,50912:0:0:0:0:
448,192,50827,128,0,50912:0:0:0:0:
320,192,50997,128,0,51081:0:0:0:0:
192,192,51166,128,0,51251:0:0:0:0:
64,192,51335,128,8,51420:0:0:0:0:
320,192,51335,128,0,51420:0:0:0:0:
448,192,51335,128,0,51420:0:0:0:0:
192,192,51505,128,2,51590:0:0:0:0:
320,192,51505,128,0,51590:0:0:0:0:
64,192,51674,128,2,51929:0:0:0:0:
320,192,51844,128,2,51929:0:0:0:0:
192,192,52013,128,0,52098:0:0:0:0:
448,192,52013,128,0,53878:0:0:0:0:
192,192,52183,1,0,0:0:0:0:
192,192,52352,1,0,0:0:0:0:
64,192,52522,1,0,0:0:0:0:
320,192,52522,128,0,52861:0:0:0:0:
64,192,52691,1,0,0:0:0:0:
64,192,52861,1,0,0:0:0:0:
192,192,52861,128,0,53369:0:0:0:0:
320,192,53030,128,0,53115:0:0:0:0:
320,192,53200,1,0,0:0:0:0:
64,192,53369,1,0,0:0:0:0:
320,192,53369,128,0,53878:0:0:0:0:
64,192,53539,1,0,0:0:0:0:
64,192,53708,1,0,0:0:0:0:
64,192,53878,128,0,54302:0:0:0:0:
192,192,53878,1,0,0:0:0:0:
320,192,54047,128,0,54302:0:0:0:0:
192,192,54217,128,8,54302:0:0:0:0:
448,192,54217,128,0,54302:0:0:0:0:
64,192,54386,128,0,54471:0:0:0:70:echo_snare1.wav
320,192,54386,128,0,54471:0:0:0:0:
448,192,54386,128,0,54471:0:0:0:0:
64,192,54556,128,0,54641:0:0:0:40:LR_Clap Reverb.wav
192,192,54556,128,0,54641:0:0:0:0:
64,192,54725,128,2,54980:0:0:0:0:
192,192,54725,128,4,54980:0:0:0:0:
320,192,54725,128,0,54895:0:0:0:0:
448,192,54725,128,0,54810:0:0:0:0:
64,192,55064,128,8,55149:0:0:0:0:
192,192,55064,128,0,55488:0:0:0:0:
448,192,55064,128,0,55234:0:0:0:0:
320,192,55149,128,0,55319:0:0:0:0:
64,192,55234,128,0,55403:0:0:0:0:
320,192,55403,128,2,55658:0:0:0:0:
448,192,55403,128,0,55827:0:0:0:0:
64,192,55573,128,2,55658:0:0:0:0:
192,192,55573,128,0,55658:0:0:0:0:
64,192,55742,128,8,55827:0:0:0:0:
192,192,55742,128,0,55827:0:0:0:0:
320,192,55742,128,0,55997:0:0:0:0:
448,192,55912,128,0,56166:0:0:0:0:
64,192,55997,128,0,56166:0:0:0:0:
192,192,56081,128,2,56251:0:0:0:0:
320,192,56081,128,0,56335:0:0:0:0:
448,192,56251,128,0,56674:0:0:0:0:
64,192,56335,128,0,56505:0:0:0:0:
192,192,56420,128,8,56590:0:0:0:0:
320,192,56420,128,0,56674:0:0:0:0:
64,192,56590,128,0,56674:0:0:0:0:
64,192,56759,128,2,56929:0:0:0:0:
192,192,56759,128,0,57013:0:0:0:0:
320,192,56929,128,2,57013:0:0:0:0:
448,192,56929,128,0,57013:0:0:0:0:
64,192,57098,128,8,57183:0:0:0:0:
320,192,57098,128,0,57352:0:0:0:0:
448,192,57098,128,0,57268:0:0:0:0:
64,192,57268,128,2,57352:0:0:0:0:
192,192,57268,128,0,57522:0:0:0:0:
320,192,57437,128,2,57522:0:0:0:0:
448,192,57437,128,0,57691:0:0:0:0:
192,192,57607,128,0,57691:0:0:0:0:
64,192,57776,128,8,57946:0:0:0:0:
320,192,57776,128,0,58200:0:0:0:0:
448,192,57776,128,0,57861:0:0:0:0:
192,192,57861,128,0,58030:0:0:0:0:
448,192,57946,128,0,58115:0:0:0:0:
64,192,58115,128,2,58539:0:0:0:0:
192,192,58115,128,0,58369:0:0:0:0:
320,192,58285,128,2,58369:0:0:0:0:
448,192,58285,128,0,58369:0:0:0:0:
192,192,58454,128,8,58708:0:0:0:0:
320,192,58454,128,0,58539:0:0:0:0:
448,192,58454,128,0,58539:0:0:0:0:
64,192,58624,128,0,58878:0:0:0:0:
448,192,58708,128,0,58878:0:0:0:0:
192,192,58793,128,2,59047:0:0:0:0:
320,192,58793,128,0,58963:0:0:0:0:
64,192,58963,128,0,59386:0:0:0:0:
448,192,59047,128,0,59217:0:0:0:0:
192,192,59132,128,8,59386:0:0:0:0:
320,192,59132,128,0,59302:0:0:0:0:
448,192,59302,128,0,59386:0:0:0:0:
320,192,59471,128,2,59725:0:0:0:0:
448,192,59471,128,0,59641:0:0:0:0:
64,192,59641,128,2,59725:0:0:0:0:
192,192,59641,128,0,59725:0:0:0:35:echo_snare1.wav
64,192,59810,128,8,59980:0:0:0:0:
192,192,59810,128,0,60064:0:0:0:35:echo_snare1.wav
448,192,59810,128,0,59895:0:0:0:0:
320,192,59980,128,2,60064:0:0:0:0:
448,192,59980,128,0,60064:0:0:0:0:
64,192,60149,128,2,60488:0:0:0:0:
448,192,60149,128,0,60319:0:0:0:0:
320,192,60234,128,0,60403:0:0:0:0:
192,192,60319,128,0,60403:0:0:0:0:
320,192,60488,128,8,60658:0:0:0:0:
448,192,60488,128,0,60827:0:0:0:0:
192,192,60573,128,0,60742:0:0:0:0:
64,192,60658,128,0,60742:0:0:0:0:
64,192,60827,128,2,60997:0:0:0:0:
192,192,60827,128,0,61081:0:0:0:0:
320,192,60912,128,0,61081:0:0:0:0:
448,192,60997,128,2,61081:0:0:0:0:
64,192,61166,128,8,61251:0:0:0:0:
192,192,61166,128,0,61335:0:0:0:0:
320,192,61166,128,0,61420:0:0:0:0:
448,192,61335,128,0,61420:0:0:0:0:
64,192,61505,128,2,61590:0:0:0:0:
192,192,61505,128,0,61590:0:0:0:0:
320,192,61674,128,0,61929:0:0:0:0:
64,192,61844,128,8,62098:0:0:0:0:
192,192,61844,128,0,61929:0:0:0:0:
448,192,61844,128,0,62098:0:0:0:0:
320,192,62013,128,0,62098:0:0:0:0:
192,192,62183,128,2,62437:0:0:0:0:
448,192,62183,128,0,62437:0:0:0:0:
64,192,62352,128,2,62607:0:0:0:0:
320,192,62352,128,0,62437:0:0:0:0:
192,192,62522,128,8,62607:0:0:0:0:
320,192,62522,128,0,62776:0:0:0:0:
448,192,62522,128,0,62776:0:0:0:0:
64,192,62691,128,2,62776:0:0:0:0:
192,192,62691,128,0,62776:0:0:0:0:
64,192,62861,128,2,63030:0:0:0:0:
448,192,62861,128,0,63200:0:0:0:0:
192,192,62946,128,0,63115:0:0:0:0:
320,192,63030,128,0,63115:0:0:0:0:
64,192,63200,128,8,63539:0:0:0:0:
192,192,63200,128,0,63369:0:0:0:0:
320,192,63285,128,0,63454:0:0:0:0:
448,192,63369,128,0,63454:0:0:0:0:
320,192,63539,128,2,63793:0:0:0:0:
448,192,63539,128,0,63708:0:0:0:0:
192,192,63624,128,0,63793:0:0:0:0:
64,192,63708,128,2,63793:0:0:0:0:
64,192,63878,128,8,63963:0:0:0:0:
192,192,63878,128,0,64047:0:0:0:0:
320,192,63878,128,0,64132:0:0:0:0:
448,192,64047,128,0,64302:0:0:0:0:
64,192,64217,128,2,64302:0:0:0:0:
320,192,64217,128,0,64302:0:0:0:0:
192,192,64386,128,0,64641:0:0:0:0:
64,192,64556,128,8,64810:0:0:0:0:
320,192,64556,128,0,64641:0:0:0:35:echo_snare1.wav
448,192,64556,128,0,64810:0:0:0:0:
320,192,64725,128,0,64810:0:0:0:0:
64,192,64895,128,2,65064:0:0:0:0:
192,192,64895,128,0,65149:0:0:0:0:
448,192,65064,128,2,65234:0:0:0:0:
320,192,65149,128,2,65319:0:0:0:0:
64,192,65234,128,8,65488:0:0:0:0:
192,192,65234,128,0,65403:0:0:0:0:
320,192,65403,128,2,65488:0:0:0:0:
448,192,65403,128,0,65488:0:0:0:0:
64,192,65573,128,2,65658:0:0:0:0:
192,192,65573,128,4,65742:0:0:0:0:
320,192,65573,128,0,65827:0:0:0:0:
448,192,65573,128,0,65827:0:0:0:0:
64,192,65912,128,8,66335:0:0:0:0:
192,192,65912,128,0,65997:0:0:0:0:
448,192,65912,128,0,66081:0:0:0:0:
320,192,65997,128,0,66166:0:0:0:0:
192,192,66081,128,0,66251:0:0:0:0:
320,192,66251,128,2,66505:0:0:0:0:
448,192,66251,128,0,66674:0:0:0:0:
64,192,66420,128,2,66505:0:0:0:0:
192,192,66420,128,0,66505:0:0:0:0:
64,192,66590,128,8,66844:0:0:0:0:
192,192,66590,128,0,66674:0:0:0:0:
320,192,66590,128,0,66674:0:0:0:0:
320,192,66759,128,0,67013:0:0:0:0:
192,192,66844,128,0,67013:0:0:0:0:
64,192,66929,128,2,67098:0:0:0:0:
448,192,66929,128,0,67183:0:0:0:0:
320,192,67098,128,0,67522:0:0:0:0:
192,192,67183,128,0,67352:0:0:0:0:
64,192,67268,128,8,67437:0:0:0:0:
448,192,67268,128,0,67522:0:0:0:0:
192,192,67437,128,0,67522:0:0:0:0:
64,192,67607,128,2,67776:0:0:0:0:
192,192,67607,128,0,67861:0:0:0:0:
320,192,67776,128,2,67861:0:0:0:0:
448,192,67776,128,0,67861:0:0:0:0:
64,192,67946,128,8,68030:0:0:0:0:
320,192,67946,128,0,68200:0:0:0:0:
448,192,67946,128,0,68115:0:0:0:0:
64,192,68115,128,2,68200:0:0:0:0:
192,192,68115,128,0,68369:0:0:0:0:
320,192,68285,128,2,68369:0:0:0:0:
448,192,68285,128,0,68539:0:0:0:0:
192,192,68454,128,0,68539:0:0:0:0:
64,192,68624,128,8,68793:0:0:0:0:
320,192,68624,128,0,68708:0:0:0:0:
448,192,68624,128,0,69047:0:0:0:0:
192,192,68708,128,0,68878:0:0:0:0:
320,192,68793,128,0,68963:0:0:0:0:
64,192,68963,128,2,69386:0:0:0:0:
192,192,68963,128,0,69217:0:0:0:0:
320,192,69132,128,2,69217:0:0:0:0:
448,192,69132,128,0,69217:0:0:0:0:
192,192,69302,128,8,69386:0:0:0:0:
320,192,69302,128,0,69386:0:0:0:0:
448,192,69302,128,0,69556:0:0:0:0:
192,192,69471,128,0,69725:0:0:0:0:
320,192,69556,128,0,69725:0:0:0:0:
64,192,69641,128,2,69895:0:0:0:0:
448,192,69641,128,0,69810:0:0:0:0:
192,192,69810,128,0,70234:0:0:0:0:
320,192,69895,128,0,70064:0:0:0:0:
64,192,69980,128,8,70234:0:0:0:0:
448,192,69980,128,0,70149:0:0:0:0:
320,192,70149,128,0,70234:0:0:0:0:
320,192,70319,128,2,70573:0:0:0:0:
448,192,70319,128,0,70488:0:0:0:0:
64,192,70488,128,2,70573:0:0:0:0:
192,192,70488,128,0,70573:0:0:0:0:
64,192,70658,128,8,70827:0:0:0:0:
192,192,70658,128,0,70912:0:0:0:35:echo_snare1.wav
448,192,70658,128,0,70742:0:0:0:0:
320,192,70827,128,2,70912:0:0:0:0:
448,192,70827,128,0,70912:0:0:0:0:
64,192,70997,128,2,71335:0:0:0:0:
448,192,70997,128,0,71166:0:0:0:0:
320,192,71081,128,0,71251:0:0:0:0:
192,192,71166,128,0,71251:0:0:0:0:
320,192,71335,128,8,71505:0:0:0:0:
448,192,71335,128,0,71674:0:0:0:0:
192,192,71420,128,0,71590:0:0:0:0:
64,192,71505,128,0,71590:0:0:0:0:
64,192,71674,128,2,71844:0:0:0:0:
192,192,71674,128,0,71929:0:0:0:0:
320,192,71759,128,0,71929:0:0:0:0:
448,192,71844,128,2,71929:0:0:0:0:
64,192,72013,128,8,72098:0:0:0:0:
192,192,72013,128,0,72183:0:0:0:0:
320,192,72013,128,0,72268:0:0:0:0:
448,192,72183,128,0,72268:0:0:0:0:
192,192,72352,128,2,72607:0:0:0:0:
448,192,72352,128,0,72607:0:0:0:0:
320,192,72522,128,0,72607:0:0:0:0:
64,192,72691,128,8,72946:0:0:0:0:
192,192,72691,128,0,72776:0:0:0:0:
448,192,72691,128,0,72946:0:0:0:0:
320,192,72861,128,0,72946:0:0:0:0:
64,192,73030,128,2,73285:0:0:0:0:
320,192,73030,128,0,73285:0:0:0:0:
192,192,73200,128,2,73285:0:0:0:0:
448,192,73200,128,0,73285:0:0:0:0:
64,192,73369,128,8,73624:0:0:0:0:
192,192,73369,128,0,73624:0:0:0:0:
320,192,73369,128,0,73454:0:0:0:0:
320,192,73539,128,2,73624:0:0:0:0:
448,192,73539,128,0,73624:0:0:0:0:
64,192,73708,128,2,73878:0:0:0:0:
448,192,73708,128,0,74047:0:0:0:0:
192,192,73793,128,0,73963:0:0:0:0:
320,192,73878,128,0,73963:0:0:0:0:
64,192,74047,128,8,74386:0:0:0:0:
192,192,74047,128,0,74217:0:0:0:0:
320,192,74132,128,0,74302:0:0:0:0:
448,192,74217,128,0,74302:0:0:0:0:
320,192,74386,128,2,74641:0:0:0:0:
448,192,74386,128,0,74556:0:0:0:0:
192,192,74471,128,0,74641:0:0:0:0:
64,192,74556,128,2,74641:0:0:0:0:
64,192,74725,128,8,74810:0:0:0:0:
192,192,74725,128,0,74895:0:0:0:0:
320,192,74725,128,0,74980:0:0:0:0:
448,192,74895,128,0,75149:0:0:0:0:
64,192,75064,128,2,75149:0:0:0:0:
192,192,75064,128,0,75149:0:0:0:0:
320,192,75234,128,0,75488:0:0:0:0:
64,192,75403,128,8,75658:0:0:0:0:
192,192,75403,128,0,75488:0:0:0:0:
448,192,75403,128,0,75488:0:0:0:0:
192,192,75573,128,0,75658:0:0:0:0:
320,192,75742,128,2,75997:0:0:0:0:
448,192,75742,128,0,75912:0:0:0:0:
64,192,75912,128,2,76081:0:0:0:0:
192,192,75997,128,2,76166:0:0:0:0:
320,192,76081,128,8,76251:0:0:0:0:
448,192,76081,128,0,76335:0:0:0:35:echo_snare1.wav
64,192,76251,128,0,76335:0:0:0:40:LR_Clap Reverb.wav
192,192,76251,128,0,76335:0:0:0:0:
192,192,76420,128,2,76505:0:0:0:0:
320,192,76420,128,0,76674:0:0:0:0:
192,192,76590,128,0,76674:0:0:0:0:
64,192,76674,128,0,76844:0:0:0:0:
320,192,76759,128,8,76929:0:0:0:0:
448,192,76759,128,0,77013:0:0:0:0:
192,192,76929,128,0,77013:0:0:0:0:
192,192,77098,128,2,77352:0:0:0:0:
320,192,77098,128,0,77183:0:0:0:0:
320,192,77268,128,2,77522:0:0:0:0:
448,192,77268,128,0,77352:0:0:0:0:
64,192,77437,128,8,77607:0:0:0:0:
192,192,77437,128,0,77522:0:0:0:0:
448,192,77607,1,0,0:0:0:0:
64,192,77776,128,2,77861:0:0:0:0:
192,192,77776,128,0,78030:0:0:0:0:
64,192,77946,128,0,78030:0:0:0:0:
448,192,78030,128,0,78200:0:0:0:0:
192,192,78115,128,8,78369:0:0:0:0:
320,192,78115,128,0,78200:0:0:0:0:
448,192,78285,128,0,78369:0:0:0:0:
64,192,78454,128,2,78539:0:0:0:0:
320,192,78454,128,0,78708:0:0:0:0:
64,192,78624,128,2,78878:0:0:0:0:
448,192,78624,128,0,78708:0:0:0:0:
192,192,78793,128,8,78878:0:0:0:0:
320,192,78793,128,0,78963:0:0:0:0:
64,192,78963,1,2,0:0:0:0:
320,192,79132,128,2,79217:0:0:0:0:
448,192,79132,128,0,79386:0:0:0:0:
320,192,79302,128,0,79386:0:0:0:0:
192,192,79386,128,0,79556:0:0:0:0:
64,192,79471,128,8,79641:0:0:0:0:
448,192,79471,128,0,79725:0:0:0:0:
320,192,79641,128,0,79725:0:0:0:0:
192,192,79810,128,2,80149:0:0:0:0:
448,192,79810,128,0,79895:0:0:0:0:
64,192,79980,128,2,80064:0:0:0:0:
448,192,79980,128,0,80149:0:0:0:0:
64,192,80149,128,8,80403:0:0:0:0:
320,192,80149,128,0,80234:0:0:0:0:
192,192,80319,128,0,80403:0:0:0:0:
320,192,80488,128,2,80658:0:0:0:0:
448,192,80488,128,0,80742:0:0:0:0:
192,192,80658,128,0,80742:0:0:0:0:
64,192,80827,128,8,80912:0:0:0:0:
192,192,80827,128,0,81081:0:0:0:0:
320,192,80827,128,0,80912:0:0:0:0:
64,192,80997,128,0,81335:0:0:0:0:
448,192,80997,128,0,81166:0:0:0:0:
320,192,81166,1,2,0:0:0:0:
192,192,81335,128,2,81590:0:0:0:0:
448,192,81335,128,0,81420:0:0:0:0:
64,192,81505,128,8,81590:0:0:0:0:
448,192,81505,128,0,81759:0:0:0:35:echo_snare1.wav
320,192,81674,128,0,82013:0:0:0:40:LR_Clap Reverb.wav
192,192,81844,128,2,82098:0:0:0:0:
448,192,81844,128,0,81929:0:0:0:0:
64,192,82352,128,2,82437:0:0:0:0:
192,192,82352,128,0,82607:0:0:0:0:
64,192,82522,128,2,82776:0:0:0:0:
320,192,82522,128,0,82607:0:0:0:0:
192,192,82691,128,2,82776:0:0:0:0:
64,192,82861,128,8,82946:0:0:0:0:
192,192,82861,128,0,83030:0:0:0:0:
448,192,82861,128,0,83115:0:0:0:0:
64,192,83369,128,8,83454:0:0:0:0:
192,192,83369,128,0,83454:0:0:0:0:
320,192,83369,128,0,83624:0:0:0:0:
64,192,83539,128,2,83793:0:0:0:0:
448,192,83539,128,0,83793:0:0:0:0:
192,192,83708,128,2,83963:0:0:0:0:
320,192,83708,128,0,83878:0:0:0:0:
320,192,84047,128,2,84132:0:0:0:0:
448,192,84047,128,0,84302:0:0:0:0:
192,192,84217,128,8,84302:0:0:0:0:
320,192,84217,128,0,84471:0:0:0:0:
64,192,84386,128,2,84471:0:0:0:0:
192,192,84386,128,0,84641:0:0:0:0:
320,192,84556,128,2,84725:0:0:0:0:
448,192,84556,128,0,84810:0:0:0:0:
64,192,85064,128,2,85319:0:0:0:0:
192,192,85064,128,0,85149:0:0:0:0:
192,192,85234,128,2,85488:0:0:0:0:
320,192,85234,128,0,85319:0:0:0:0:
320,192,85403,128,2,85658:0:0:0:0:
448,192,85403,128,0,85488:0:0:0:0:
64,192,85573,128,8,85827:0:0:0:0:
192,192,85573,128,0,85742:0:0:0:0:
64,192,85912,1,2,0:0:0:0:
448,192,85912,1,0,0:0:0:0:
192,192,86081,128,0,86335:0:0:0:0:
320,192,86251,128,8,86505:0:0:0:0:
448,192,86251,128,0,86335:0:0:0:0:
64,192,86420,1,0,0:0:0:0:
448,192,86420,128,0,86674:0:0:0:0:
64,192,86590,1,2,0:0:0:0:
192,192,86590,1,0,0:0:0:0:
320,192,86759,1,2,0:0:0:0:
448,192,86759,1,0,0:0:0:0:
192,192,86844,1,0,0:0:0:0:
64,192,86929,128,8,87183:0:0:0:0:
448,192,86929,128,0,87183:0:0:0:0:
192,192,87098,128,2,87183:0:0:0:0:
320,192,87098,128,0,87183:0:0:0:0:
64,192,87268,128,2,88624:0:0:0:0:
192,192,87268,128,4,87437:0:0:0:0:
448,192,87268,128,0,87522:0:0:0:0:
320,192,87437,128,0,87522:0:0:0:0:
192,192,87607,1,8,0:0:0:0:
448,192,87607,128,0,87776:0:0:0:0:
320,192,87776,128,0,87946:0:0:0:0:
448,192,87861,128,0,87946:0:0:0:0:
192,192,87946,128,2,88030:0:0:0:0:
448,192,88030,128,0,88115:0:0:0:0:
192,192,88115,1,2,0:0:0:0:
320,192,88115,1,0,0:0:0:0:
192,192,88285,128,8,88539:0:0:0:0:
448,192,88285,128,0,88454:0:0:0:0:
320,192,88454,128,0,88539:0:0:0:0:
192,192,88624,128,2,88793:0:0:0:0:
448,192,88624,128,0,88708:0:0:0:0:
320,192,88793,128,0,88963:0:0:0:0:
192,192,88878,128,0,88963:0:0:0:0:
64,192,88963,128,8,89047:0:0:0:0:
448,192,88963,128,0,89302:0:0:0:0:
320,192,89047,128,0,89132:0:0:0:0:
192,192,89132,1,0,0:0:0:0:
64,192,89302,1,2,0:0:0:0:
320,192,89302,1,0,0:0:0:0:
192,192,89471,128,2,89556:0:0:0:0:
448,192,89471,128,0,89725:0:0:0:0:
192,192,89641,128,8,89895:0:0:0:0:
320,192,89641,128,0,89725:0:0:0:0:
64,192,89810,128,2,89895:0:0:0:0:
320,192,89810,128,0,89980:0:0:0:0:
64,192,89980,128,2,90234:0:0:0:0:
192,192,89980,128,0,90149:0:0:0:0:
448,192,89980,128,0,91335:0:0:0:0:
320,192,90149,128,0,90234:0:0:0:0:
64,192,90319,1,8,0:0:0:0:
320,192,90319,128,0,90488:0:0:0:0:
192,192,90488,128,0,90573:0:0:0:0:
320,192,90573,128,0,90658:0:0:0:0:
64,192,90658,1,2,0:0:0:0:
192,192,90658,1,0,0:0:0:0:
64,192,90827,1,2,0:0:0:0:
320,192,90827,1,0,0:0:0:0:
192,192,90997,128,8,91166:0:0:0:0:
320,192,90997,128,0,91251:0:0:0:0:
64,192,91166,128,0,91251:0:0:0:0:
64,192,91335,128,2,91590:0:0:0:0:
192,192,91335,128,0,91420:0:0:0:0:
320,192,91505,128,0,91674:0:0:0:0:
448,192,91590,128,0,91674:0:0:0:0:
64,192,91674,1,8,0:0:0:0:
192,192,91674,128,0,91759:0:0:0:0:
448,192,91759,128,0,91844:0:0:0:0:
320,192,91844,1,0,0:0:0:0:
64,192,92013,128,2,92098:0:0:0:0:
448,192,92013,128,0,92268:0:0:0:0:
192,192,92183,1,2,0:0:0:0:
320,192,92183,128,0,92268:0:0:0:0:
64,192,92352,1,8,0:0:0:0:
192,192,92352,128,0,92691:0:0:0:35:echo_snare1.wav
448,192,92352,128,0,92522:0:0:0:0:
64,192,92522,128,2,92607:0:0:0:0:
320,192,92691,128,2,93030:0:0:0:0:
448,192,92691,128,0,92776:0:0:0:70:special03.wav
448,192,92861,1,0,0:0:0:0:
192,192,93030,1,0,0:0:0:0:
64,192,93200,128,2,93285:0:0:0:0:
448,192,93200,128,0,93369:0:0:0:0:
64,192,93369,128,8,93624:0:0:0:0:
192,192,93369,128,0,93454:0:0:0:0:
320,192,93369,128,0,93454:0:0:0:0:
320,192,93539,1,2,0:0:0:0:
448,192,93539,1,0,0:0:0:0:
192,192,93708,128,0,94047:0:0:0:0:
448,192,93878,128,0,94047:0:0:0:0:
64,192,94047,128,2,94386:0:0:0:0:
320,192,94047,128,0,94132:0:0:0:0:
320,192,94217,1,0,0:0:0:0:
448,192,94386,1,0,0:0:0:0:
64,192,94556,1,0,0:0:0:0:
192,192,94556,1,0,0:0:0:0:
64,192,94725,1,8,0:0:0:0:
320,192,94725,1,0,0:0:0:0:
448,192,94725,1,0,0:0:0:0:
320,192,94895,1,2,0:0:0:0:
448,192,94895,1,0,0:0:0:0:
192,192,95064,128,2,95403:0:0:0:0:
64,192,95234,128,2,95403:0:0:0:0:
320,192,95403,128,0,95488:0:0:0:0:
448,192,95403,128,0,95742:0:0:0:0:
64,192,95573,128,0,95912:0:0:0:0:
320,192,95742,1,0,0:0:0:0:
192,192,95912,128,0,96081:0:0:0:0:
448,192,96081,1,0,0:0:0:0:
192,192,96251,128,0,96590:0:0:0:0:
448,192,96420,128,0,96759:0:0:0:0:
320,192,96590,1,0,0:0:0:0:
64,192,96759,128,0,97268:0:0:0:0:
320,192,96929,128,0,97098:0:0:0:0:
192,192,97098,1,0,0:0:0:0:
320,192,97268,128,0,97607:0:0:0:0:
192,192,97437,128,0,97861:0:0:0:0:
64,192,97607,128,8,97691:0:0:0:0:
448,192,97607,128,0,97691:0:0:0:0:
64,192,97776,128,0,97861:0:0:0:70:echo_snare1.wav
320,192,97776,128,0,98030:0:0:0:0:
448,192,97776,128,0,97861:0:0:0:0:
64,192,97946,128,0,98030:0:0:0:40:LR_Clap Reverb.wav
192,192,97946,128,0,98030:0:0:0:0:
192,192,98115,128,2,98285:0:0:0:0:
320,192,98115,128,4,98285:0:0:0:0:
448,192,98115,128,0,98369:0:0:0:0:
64,192,98285,128,0,98369:0:0:0:0:
320,192,98369,128,0,98454:0:0:0:0:
64,192,98454,128,8,98624:0:0:0:0:
192,192,98454,128,0,98708:0:0:0:0:
448,192,98454,128,0,98539:0:0:0:0:
320,192,98624,128,0,98793:0:0:0:0:
448,192,98708,128,0,98793:0:0:0:0:
64,192,98793,128,2,99047:0:0:0:0:
192,192,98793,128,0,98878:0:0:0:0:
320,192,98878,128,0,99047:0:0:0:0:
448,192,98963,128,2,99047:0:0:0:0:
192,192,99047,128,0,99217:0:0:0:0:
64,192,99132,128,8,99217:0:0:0:0:
320,192,99132,128,0,99217:0:0:0:0:
448,192,99132,128,0,99217:0:0:0:0:
64,192,99302,128,0,99556:0:0:0:0:
448,192,99302,128,0,99556:0:0:0:0:
192,192,99386,128,0,99556:0:0:0:0:
320,192,99471,128,2,99556:0:0:0:0:
64,192,99641,128,0,99895:0:0:0:0:
448,192,99641,128,0,99810:0:0:0:0:
320,192,99725,128,0,99895:0:0:0:0:
192,192,99810,128,8,100064:0:0:0:0:
448,192,99895,128,0,99980:0:0:0:0:
64,192,99980,128,0,100403:0:0:0:0:
192,192,100149,128,2,100403:0:0:0:0:
320,192,100149,128,0,100234:0:0:0:0:
320,192,100319,128,2,100658:0:0:0:0:
448,192,100319,128,0,100403:0:0:0:0:
64,192,100488,128,8,100573:0:0:0:0:
192,192,100488,128,0,100573:0:0:0:0:
448,192,100488,128,0,100658:0:0:0:0:
64,192,100658,128,2,100827:0:0:0:0:
192,192,100658,128,0,100997:0:0:0:0:
320,192,100827,128,2,101081:0:0:0:0:
448,192,100827,128,0,100997:0:0:0:0:
64,192,100997,128,0,101081:0:0:0:0:
448,192,101081,128,0,101166:0:0:0:0:
64,192,101166,128,8,101420:0:0:0:0:
192,192,101166,128,0,101335:0:0:0:0:
320,192,101166,128,0,101251:0:0:0:0:
448,192,101335,128,0,101505:0:0:0:0:
320,192,101420,128,0,101505:0:0:0:0:
64,192,101505,128,2,101590:0:0:0:0:
192,192,101505,128,0,101759:0:0:0:0:
320,192,101590,128,0,101759:0:0:0:0:
448,192,101674,128,2,101759:0:0:0:0:
64,192,101759,128,0,101929:0:0:0:0:
192,192,101844,128,8,101929:0:0:0:0:
320,192,101844,128,0,101929:0:0:0:0:
448,192,101844,128,0,101929:0:0:0:0:
64,192,102013,128,0,102268:0:0:0:0:
192,192,102013,128,0,102268:0:0:0:0:
448,192,102098,128,0,102268:0:0:0:0:
320,192,102183,128,2,102268:0:0:0:0:
64,192,102352,128,0,102607:0:0:0:0:
448,192,102352,128,0,102522:0:0:0:0:
320,192,102437,128,0,102607:0:0:0:0:
192,192,102522,128,8,102776:0:0:0:0:
320,192,102691,128,0,102946:0:0:0:0:
448,192,102691,128,0,102946:0:0:0:0:
64,192,102861,128,2,103285:0:0:0:0:
192,192,102861,128,0,102946:0:0:0:0:
320,192,103030,128,2,103115:0:0:0:0:
448,192,103030,128,0,103285:0:0:0:35:echo_snare1.wav
192,192,103200,128,8,103285:0:0:0:0:
320,192,103200,128,0,103285:0:0:0:35:echo_snare1.wav
64,192,103369,1,2,0:0:0:0:
448,192,103369,1,0,0:0:0:0:
64,192,103539,128,2,103878:0:0:0:0:
320,192,103539,128,0,103708:0:0:0:0:
192,192,103624,128,0,103708:0:0:0:0:
448,192,103708,128,0,103793:0:0:0:0:
192,192,103793,128,0,103878:0:0:0:0:
320,192,103878,128,8,104047:0:0:0:0:
448,192,103878,128,0,104217:0:0:0:0:
64,192,103963,128,0,104132:0:0:0:0:
192,192,104047,128,0,104132:0:0:0:0:
320,192,104132,128,0,104217:0:0:0:0:
64,192,104217,128,2,104471:0:0:0:0:
192,192,104217,128,0,104556:0:0:0:0:
320,192,104386,128,2,104471:0:0:0:0:
448,192,104386,128,0,104471:0:0:0:0:
64,192,104556,128,8,104641:0:0:0:0:
448,192,104556,128,0,104895:0:0:0:0:
320,192,104641,128,0,104810:0:0:0:0:
64,192,104725,128,0,104895:0:0:0:0:
192,192,104895,1,2,0:0:0:0:
320,192,104895,1,0,0:0:0:0:
192,192,105064,128,0,105319:0:0:0:0:
320,192,105064,128,0,105149:0:0:0:0:
64,192,105234,128,8,105319:0:0:0:0:
320,192,105234,128,0,105403:0:0:0:0:
448,192,105234,128,0,105403:0:0:0:0:
64,192,105403,128,0,105573:0:0:0:0:
192,192,105403,128,0,105573:0:0:0:0:
320,192,105573,128,2,105742:0:0:0:0:
448,192,105573,128,0,105997:0:0:0:0:
64,192,105742,128,2,105997:0:0:0:0:
192,192,105742,128,0,105827:0:0:0:0:
192,192,105912,128,8,105997:0:0:0:0:
320,192,105912,128,0,106166:0:0:0:0:
64,192,106081,128,2,106166:0:0:0:0:
448,192,106081,128,0,106166:0:0:0:0:
192,192,106251,128,2,106420:0:0:0:0:
448,192,106251,128,0,106590:0:0:0:0:
320,192,106335,128,0,106420:0:0:0:0:
64,192,106420,128,0,106505:0:0:0:0:
320,192,106505,128,0,106590:0:0:0:0:
64,192,106590,128,8,106759:0:0:0:0:
192,192,106590,128,0,106929:0:0:0:0:
448,192,106674,128,0,106844:0:0:0:0:
320,192,106759,128,0,106844:0:0:0:0:
64,192,106844,128,0,106929:0:0:0:0:
320,192,106929,128,2,107268:0:0:0:0:
448,192,106929,128,0,107183:0:0:0:0:
64,192,107098,128,2,107183:0:0:0:0:
192,192,107098,128,0,107183:0:0:0:0:
64,192,107268,128,8,107607:0:0:0:0:
192,192,107268,1,0,0:0:0:0:
448,192,107268,128,0,107437:0:0:0:0:
192,192,107437,128,0,107776:0:0:0:0:
320,192,107522,128,0,107607:0:0:0:0:
448,192,107607,1,2,0:0:0:0:
320,192,107776,128,0,108030:0:0:0:0:
192,192,107861,128,0,107946:0:0:0:0:
64,192,107946,128,8,108030:0:0:0:0:
448,192,107946,128,0,108369:0:0:0:0:
64,192,108115,128,0,108454:0:0:0:0:
192,192,108115,128,0,108200:0:0:0:0:
192,192,108285,128,2,108454:0:0:0:0:
320,192,108285,128,0,108369:0:0:0:0:
320,192,108454,128,2,108539:0:0:0:0:
448,192,108454,128,0,108539:0:0:0:0:
64,192,108539,128,2,108708:0:0:0:0:
192,192,108539,128,0,108708:0:0:0:0:
320,192,108624,128,8,108708:0:0:0:0:
448,192,108624,128,0,108878:0:0:0:0:
64,192,108793,128,2,108878:0:0:0:0:
192,192,108793,128,0,108878:0:0:0:0:
64,192,108963,128,2,109217:0:0:0:0:
192,192,108963,128,4,109132:0:0:0:0:
448,192,108963,128,0,109132:0:0:0:0:
320,192,109132,128,0,109217:0:0:0:0:
192,192,109217,128,0,109302:0:0:0:0:
64,192,109302,128,8,109386:0:0:0:0:
320,192,109302,128,0,109556:0:0:0:0:
448,192,109302,128,0,109471:0:0:0:0:
192,192,109471,128,0,109641:0:0:0:0:
64,192,109556,128,0,109641:0:0:0:0:
320,192,109641,128,2,109810:0:0:0:0:
448,192,109641,128,0,109895:0:0:0:0:
192,192,109725,128,0,109810:0:0:0:0:
64,192,109810,128,2,109895:0:0:0:0:
320,192,109895,128,0,110064:0:0:0:0:
64,192,109980,128,8,110064:0:0:0:0:
192,192,109980,128,0,110064:0:0:0:0:
448,192,109980,128,0,110064:0:0:0:0:
64,192,110149,128,0,110403:0:0:0:0:
448,192,110149,128,0,110403:0:0:0:0:
320,192,110234,128,0,110403:0:0:0:0:
192,192,110319,128,2,110403:0:0:0:0:
64,192,110488,128,0,110658:0:0:0:0:
448,192,110488,128,0,110742:0:0:0:0:
192,192,110573,128,0,110742:0:0:0:0:
320,192,110658,128,8,110912:0:0:0:0:
64,192,110742,128,0,110827:0:0:0:0:
448,192,110827,128,0,111251:0:0:0:0:
192,192,110997,128,2,111081:0:0:0:0:
320,192,110997,128,0,111251:0:0:0:0:
64,192,111166,128,2,111251:0:0:0:0:
192,192,111166,128,0,111505:0:0:0:0:
64,192,111335,128,8,111505:0:0:0:0:
320,192,111335,128,0,111420:0:0:0:0:
448,192,111335,128,0,111420:0:0:0:0:
320,192,111505,128,2,111844:0:0:0:0:
448,192,111505,128,0,111674:0:0:0:0:
64,192,111674,128,2,111929:0:0:0:0:
192,192,111674,128,0,111844:0:0:0:0:
448,192,111844,128,0,111929:0:0:0:0:
192,192,111929,128,0,112013:0:0:0:0:
64,192,112013,128,8,112183:0:0:0:0:
320,192,112013,128,0,112183:0:0:0:0:
448,192,112013,128,0,112268:0:0:0:0:
192,192,112183,128,0,112352:0:0:0:0:
64,192,112268,128,0,112352:0:0:0:0:
320,192,112352,128,2,112607:0:0:0:0:
448,192,112352,128,0,112522:0:0:0:0:
192,192,112437,128,0,112607:0:0:0:0:
64,192,112522,128,2,112607:0:0:0:0:
448,192,112607,128,0,112776:0:0:0:0:
64,192,112691,128,8,112776:0:0:0:0:
192,192,112691,128,0,112776:0:0:0:0:
320,192,112691,128,0,112776:0:0:0:0:
320,192,112861,128,0,113115:0:0:0:0:
448,192,112861,128,0,113115:0:0:0:0:
64,192,112946,128,0,113115:0:0:0:0:
192,192,113030,128,2,113115:0:0:0:0:
64,192,113200,128,0,113369:0:0:0:0:
448,192,113200,128,0,113454:0:0:0:0:
192,192,113285,128,0,113454:0:0:0:0:
320,192,113369,128,8,113624:0:0:0:0:
64,192,113539,128,0,113793:0:0:0:0:
192,192,113539,128,0,113793:0:0:0:0:
320,192,113708,128,2,113793:0:0:0:0:
448,192,113708,128,0,114132:0:0:0:0:
64,192,113878,128,2,114132:0:0:0:0:
192,192,113878,128,0,113963:0:0:0:35:echo_snare1.wav
192,192,114047,128,8,114132:0:0:0:0:
320,192,114047,128,0,114302:0:0:0:35:echo_snare1.wav
64,192,114217,128,2,114302:0:0:0:0:
448,192,114217,128,0,114302:0:0:0:0:
192,192,114386,128,2,114556:0:0:0:0:
448,192,114386,128,0,114725:0:0:0:0:
320,192,114471,128,0,114556:0:0:0:0:
64,192,114556,128,0,114641:0:0:0:0:
320,192,114641,128,0,114725:0:0:0:0:
64,192,114725,128,8,114895:0:0:0:0:
192,192,114725,128,0,115064:0:0:0:0:
448,192,114810,128,0,114980:0:0:0:0:
320,192,114895,128,0,114980:0:0:0:0:
64,192,114980,128,0,115064:0:0:0:0:
320,192,115064,128,2,115403:0:0:0:0:
448,192,115064,128,0,115319:0:0:0:0:
64,192,115234,128,2,115319:0:0:0:0:
192,192,115234,128,0,115319:0:0:0:0:
64,192,115403,128,8,115658:0:0:0:0:
192,192,115403,128,0,115573:0:0:0:0:
448,192,115403,128,0,115488:0:0:0:0:
448,192,115573,128,0,115742:0:0:0:0:
320,192,115658,128,0,115742:0:0:0:0:
64,192,115742,128,2,116166:0:0:0:0:
192,192,115742,128,0,115827:0:0:0:0:
320,192,115912,128,0,115997:0:0:0:0:
192,192,115997,128,0,116166:0:0:0:0:
320,192,116081,128,8,116335:0:0:0:0:
448,192,116081,128,0,116166:0:0:0:0:
64,192,116251,128,0,116335:0:0:0:0:
192,192,116251,128,0,116335:0:0:0:0:
64,192,116420,128,2,116844:0:0:0:0:
192,192,116420,128,0,116590:0:0:0:0:
320,192,116590,128,2,116674:0:0:0:0:
448,192,116590,128,0,116844:0:0:0:0:
192,192,116759,128,8,117013:0:0:0:0:
320,192,116759,128,0,117013:0:0:0:0:
64,192,116929,128,2,117013:0:0:0:0:
448,192,116929,128,0,117013:0:0:0:0:
64,192,117098,128,2,117437:0:0:0:0:
320,192,117098,128,0,117268:0:0:0:0:
192,192,117183,128,0,117268:0:0:0:0:
448,192,117268,128,0,117352:0:0:0:0:
192,192,117352,128,0,117437:0:0:0:0:
320,192,117437,128,8,117776:0:0:0:0:
448,192,117437,128,0,117607:0:0:0:0:
64,192,117522,128,0,117691:0:0:0:0:
192,192,117607,128,0,117691:0:0:0:0:
448,192,117691,128,0,117776:0:0:0:0:
64,192,117776,128,2,118030:0:0:0:0:
192,192,117776,128,0,118115:0:0:0:0:
320,192,117946,128,2,118030:0:0:0:0:
448,192,117946,128,0,118030:0:0:0:0:
64,192,118115,128,8,118285:0:0:0:0:
320,192,118115,1,0,0:0:0:0:
448,192,118115,128,0,118454:0:0:0:0:
320,192,118285,128,0,118624:0:0:0:0:
192,192,118369,128,0,118454:0:0:0:0:
64,192,118454,1,2,0:0:0:0:
192,192,118624,128,0,118878:0:0:0:0:
320,192,118708,128,0,118793:0:0:0:0:
64,192,118793,128,8,119217:0:0:0:0:
448,192,118793,128,0,118878:0:0:0:0:
320,192,118963,128,0,119047:0:0:0:0:
448,192,118963,128,0,119302:0:0:0:0:
192,192,119132,128,2,119217:0:0:0:0:
320,192,119132,128,0,119302:0:0:0:0:
64,192,119302,128,2,119386:0:0:0:0:
192,192,119302,128,0,119386:0:0:0:0:
320,192,119386,128,2,119556:0:0:0:0:
448,192,119386,128,0,119556:0:0:0:0:
64,192,119471,128,8,119725:0:0:0:0:
192,192,119471,128,0,119556:0:0:0:35:echo_snare1.wav
320,192,119641,128,2,119725:0:0:0:0:
448,192,119641,128,0,119725:0:0:0:0:
64,192,119810,128,2,120149:0:0:0:0:
192,192,119810,128,4,119895:0:0:0:0:
448,192,119810,128,0,119980:0:0:0:0:
320,192,119895,128,0,120064:0:0:0:0:
192,192,119980,128,0,120064:0:0:0:0:
448,192,120064,128,0,120149:0:0:0:0:
192,192,120149,128,8,120319:0:0:0:0:
320,192,120149,1,0,0:0:0:0:
64,192,120234,128,0,120319:0:0:0:0:
320,192,120319,128,0,120573:0:0:0:0:
448,192,120403,128,0,120488:0:0:0:0:
64,192,120488,128,2,120742:0:0:0:0:
192,192,120488,128,0,120742:0:0:0:0:
320,192,120658,128,2,120742:0:0:0:0:
448,192,120658,128,0,120742:0:0:0:0:
64,192,120827,128,8,121081:0:0:0:0:
320,192,120827,1,0,0:0:0:0:
448,192,120827,128,0,120997:0:0:0:0:
192,192,120912,128,0,120997:0:0:0:0:
320,192,120997,128,0,121081:0:0:0:0:
64,192,121166,1,2,0:0:0:0:
192,192,121166,1,0,0:0:0:0:
192,192,121335,128,0,121505:0:0:0:0:
448,192,121335,128,0,121759:0:0:0:0:
320,192,121420,128,0,121505:0:0:0:0:
64,192,121505,1,8,0:0:0:0:
64,192,121674,128,0,121759:0:0:0:0:
192,192,121844,128,2,122098:0:0:0:0:
320,192,121844,128,0,121929:0:0:0:0:
64,192,122013,128,2,122098:0:0:0:0:
320,192,122013,128,0,122268:0:0:0:0:
64,192,122183,128,8,122437:0:0:0:0:
192,192,122183,1,0,0:0:0:0:
448,192,122183,128,0,122437:0:0:0:0:
192,192,122352,128,2,122437:0:0:0:0:
320,192,122352,128,0,122437:0:0:0:0:
64,192,122522,128,2,122691:0:0:0:0:
320,192,122522,128,0,122607:0:0:0:0:
448,192,122522,128,0,122861:0:0:0:0:
192,192,122607,128,0,122776:0:0:0:0:
320,192,122691,128,0,122776:0:0:0:0:
64,192,122776,128,0,122861:0:0:0:0:
192,192,122861,1,8,0:0:0:0:
320,192,122861,128,0,123030:0:0:0:0:
448,192,122946,128,0,123030:0:0:0:0:
192,192,123030,128,0,123285:0:0:0:0:
64,192,123115,128,0,123200:0:0:0:0:
320,192,123200,128,2,123454:0:0:0:0:
448,192,123200,128,0,123454:0:0:0:0:
64,192,123369,128,2,123454:0:0:0:0:
192,192,123369,128,0,123454:0:0:0:0:
64,192,123539,128,8,123708:0:0:0:0:
192,192,123539,1,0,0:0:0:0:
448,192,123539,128,0,123793:0:0:0:0:
320,192,123624,128,0,123708:0:0:0:0:
192,192,123708,128,0,123793:0:0:0:0:
320,192,123878,1,2,0:0:0:0:
448,192,123878,1,0,0:0:0:0:
64,192,124047,128,0,124471:0:0:0:0:
320,192,124047,128,0,124217:0:0:0:0:
192,192,124132,128,0,124217:0:0:0:0:
448,192,124217,1,8,0:0:0:0:
448,192,124386,128,0,124471:0:0:0:0:
192,192,124556,128,2,124641:0:0:0:0:
320,192,124556,128,0,124810:0:0:0:0:
192,192,124725,128,2,124980:0:0:0:0:
448,192,124725,128,0,124810:0:0:0:0:
64,192,124895,128,8,124980:0:0:0:0:
320,192,124895,1,0,0:0:0:0:
448,192,124895,128,0,125149:0:0:0:0:
192,192,125064,128,2,125149:0:0:0:0:
320,192,125064,128,0,125319:0:0:0:0:
64,192,125234,128,2,125573:0:0:0:0:
448,192,125234,128,0,125403:0:0:0:0:
192,192,125319,128,0,125403:0:0:0:0:
320,192,125403,128,0,125488:0:0:0:0:
448,192,125488,128,0,125573:0:0:0:0:
192,192,125573,1,8,0:0:0:0:
320,192,125573,1,0,0:0:0:0:
64,192,125742,128,0,125997:0:0:0:0:
448,192,125742,128,0,125827:0:0:0:0:
192,192,125827,128,0,125912:0:0:0:0:
320,192,125912,128,2,126166:0:0:0:0:
448,192,125912,128,0,126166:0:0:0:0:
64,192,126081,128,2,126166:0:0:0:0:
192,192,126081,128,0,126166:0:0:0:0:
64,192,126251,1,8,0:0:0:0:
192,192,126251,128,0,126505:0:0:0:0:
320,192,126251,128,0,126420:0:0:0:0:
448,192,126335,128,0,126420:0:0:0:0:
64,192,126420,128,0,126505:0:0:0:0:
192,192,126590,1,2,0:0:0:0:
320,192,126590,1,0,0:0:0:0:
192,192,126759,128,0,126844:0:0:0:0:
448,192,126759,128,0,127013:0:0:0:0:
320,192,126844,128,0,126929:0:0:0:0:
64,192,126929,128,8,127013:0:0:0:0:
192,192,126929,128,0,127183:0:0:0:0:
320,192,127098,128,0,127183:0:0:0:0:
320,192,127268,128,2,127437:0:0:0:0:
448,192,127268,128,0,127522:0:0:0:0:
64,192,127437,128,2,127522:0:0:0:0:
192,192,127437,128,0,127522:0:0:0:0:
320,192,127522,1,0,0:0:0:0:
64,192,127607,1,8,0:0:0:0:
192,192,127607,1,0,0:0:0:0:
448,192,127607,128,0,127946:0:0:0:0:
192,192,127776,128,2,127861:0:0:0:0:
320,192,127861,128,0,127946:0:0:0:0:
64,192,127946,128,2,128285:0:0:0:0:
192,192,127946,128,0,128115:0:0:0:0:
320,192,128030,128,0,128115:0:0:0:0:
448,192,128115,128,0,128200:0:0:0:0:
192,192,128200,128,0,128285:0:0:0:0:
320,192,128285,128,8,128624:0:0:0:0:
448,192,128285,128,0,128454:0:0:0:0:
64,192,128369,128,0,128539:0:0:0:0:
192,192,128454,128,0,128539:0:0:0:0:
448,192,128539,128,0,128624:0:0:0:0:
64,192,128624,128,2,128878:0:0:0:0:
192,192,128624,128,0,128963:0:0:0:0:
320,192,128793,128,2,128878:0:0:0:0:
448,192,128793,128,0,128878:0:0:0:0:
64,192,128963,128,8,129132:0:0:0:0:
320,192,128963,1,0,0:0:0:0:
448,192,128963,128,0,129302:0:0:0:0:
320,192,129132,128,0,129471:0:0:0:0:
192,192,129217,128,0,129302:0:0:0:0:
64,192,129302,1,2,0:0:0:0:
192,192,129471,128,0,129725:0:0:0:0:
320,192,129556,128,0,129641:0:0:0:0:
64,192,129641,128,8,130064:0:0:0:0:
448,192,129641,128,0,129725:0:0:0:0:
320,192,129810,128,0,129895:0:0:0:0:
448,192,129810,128,0,130149:0:0:0:0:
192,192,129980,128,2,130064:0:0:0:0:
320,192,129980,128,0,130149:0:0:0:0:
64,192,130149,128,2,130234:0:0:0:0:
192,192,130149,128,0,130234:0:0:0:0:
320,192,130234,128,2,130403:0:0:0:0:
448,192,130234,128,0,130403:0:0:0:0:
64,192,130319,128,8,130573:0:0:0:0:
192,192,130319,128,0,130403:0:0:0:35:echo_snare1.wav
320,192,130488,128,2,130573:0:0:0:0:
448,192,130488,128,0,130573:0:0:0:0:
192,192,130658,128,0,131166:0:0:0:25:electronic04.wav
320,192,130827,1,0,0:0:0:25:electronic04.wav
64,192,130997,128,0,131420:0:0:0:0:
448,192,131166,128,0,131505:0:0:0:0:
192,192,131335,128,0,131420:0:0:0:50:snare17.wav
320,192,131335,128,0,131420:0:0:0:0:
64,192,131505,128,0,132522:0:0:0:25:electronic04.wav
192,192,131674,128,0,132352:0:0:0:0:
448,192,132013,1,0,0:0:0:25:electronic04.wav
448,192,132352,128,0,132776:0:0:0:0:
320,192,132522,1,0,0:0:0:25:electronic04.wav
64,192,132691,128,0,132776:0:0:0:50:snare17.wav
192,192,132691,128,0,132776:0:0:0:0:
320,192,132861,128,0,133369:0:0:0:0:
192,192,133030,128,0,133878:0:0:0:0:
448,192,133369,128,0,133708:0:0:0:25:electronic04.wav
64,192,133539,128,0,133878:0:0:0:25:electronic04.wav
448,192,133878,128,0,134132:0:0:0:50:snare17.wav
64,192,134047,128,0,134556:0:0:0:50:snare17.wav
320,192,134047,128,0,134132:0:0:0:0:
448,192,134556,128,0,134725:0:0:0:0:
192,192,134725,128,0,134895:0:0:0:25:electronic04.wav
320,192,134725,128,0,134895:0:0:0:0:
64,192,134895,128,0,135064:0:0:0:50:snare17.wav
448,192,135064,128,0,135488:0:0:0:0:
64,192,135234,1,0,0:0:0:25:electronic04.wav
192,192,135403,128,0,135488:0:0:0:50:snare17.wav
320,192,135403,128,0,135488:0:0:0:0:
64,192,135573,128,0,135912:0:0:0:0:
448,192,135742,128,0,136081:0:0:0:50:snare17.wav
192,192,135912,128,0,136251:0:0:0:25:electronic04.wav
320,192,136081,128,0,136420:0:0:0:25:electronic04.wav
448,192,136251,128,0,136590:0:0:0:25:electronic04.wav
64,192,136420,128,0,136590:0:0:0:0:
192,192,136590,128,0,136844:0:0:0:50:snare17.wav
320,192,136759,128,0,136844:0:0:0:50:snare17.wav
448,192,136759,128,0,136844:0:0:0:0:
448,192,136929,128,0,137352:0:0:0:25:electronic04.wav
320,192,137437,128,0,137776:0:0:0:25:electronic04.wav
64,192,137776,128,0,137946:0:0:0:0:
448,192,137946,128,0,138200:0:0:0:25:electronic04.wav
64,192,138115,128,0,138200:0:0:0:50:snare17.wav
192,192,138115,128,0,138200:0:0:0:0:
192,192,138285,128,0,138793:0:0:0:0:
320,192,138793,128,0,139302:0:0:0:25:electronic04.wav
192,192,138963,128,0,139132:0:0:0:25:electronic04.wav
64,192,139302,128,0,139556:0:0:0:0:
320,192,139471,128,0,139556:0:0:0:50:snare17.wav
448,192,139471,128,0,139556:0:0:0:0:
192,192,139641,128,0,140064:0:0:0:25:electronic04.wav
320,192,139980,128,0,140658:0:0:0:0:
192,192,140149,128,0,140658:0:0:0:25:electronic04.wav
64,192,140488,128,0,140658:0:0:0:0:
448,192,140658,128,0,140827:0:0:0:25:electronic04.wav
64,192,140827,128,0,141166:0:0:0:50:snare17.wav
320,192,140827,128,0,140997:0:0:0:0:
192,192,141166,128,0,141335:0:0:0:25:electronic04.wav
64,192,141505,128,2,141844:0:0:0:0:
192,192,141505,128,4,141590:0:0:0:0:
320,192,141505,128,0,141590:0:0:0:0:
320,192,142013,128,2,142522:0:0:0:0:
448,192,142013,128,0,142183:0:0:0:0:
64,192,142183,128,8,142522:0:0:0:0:
192,192,142183,128,0,142522:0:0:0:0:
448,192,142352,1,2,0:0:0:0:
448,192,142522,128,0,142861:0:0:0:0:
192,192,142861,128,2,143369:0:0:0:0:
320,192,142861,128,0,143369:0:0:0:0:
64,192,143030,128,0,143200:0:0:0:0:
448,192,143200,128,0,143369:0:0:0:0:
64,192,143369,128,2,143539:0:0:0:0:
192,192,143539,128,8,143708:0:0:0:0:
448,192,143539,128,0,143878:0:0:0:0:
64,192,143708,1,2,0:0:0:0:
320,192,143708,128,0,143878:0:0:0:0:
64,192,143878,128,0,144047:0:0:0:0:
192,192,144047,128,2,144217:0:0:0:0:
64,192,144217,128,2,144556:0:0:0:0:
448,192,144217,128,0,144556:0:0:0:0:
320,192,144386,128,2,144556:0:0:0:0:
192,192,144556,128,0,144895:0:0:0:0:
64,192,144725,128,2,144895:0:0:0:0:
448,192,144725,128,0,145064:0:0:0:0:
320,192,144895,1,8,0:0:0:0:
64,192,145064,128,2,145234:0:0:0:0:
192,192,145064,128,0,145403:0:0:0:0:
448,192,145403,128,0,145912:0:0:0:0:
64,192,145573,1,2,0:0:0:0:
320,192,145573,128,0,145742:0:0:0:0:
192,192,145742,128,0,145912:0:0:0:0:
64,192,145912,128,2,145997:0:0:0:0:
320,192,145912,128,0,146251:0:0:0:0:
64,192,146081,128,2,146166:0:0:0:0:
64,192,146251,128,8,146420:0:0:0:0:
192,192,146251,128,0,146420:0:0:0:0:
448,192,146251,128,0,146420:0:0:0:0:
320,192,146420,128,2,146590:0:0:0:0:
192,192,146590,128,8,146929:0:0:0:0:
448,192,146590,128,0,146759:0:0:0:0:
64,192,146759,128,2,146929:0:0:0:0:
320,192,146929,128,2,147268:0:0:0:0:
448,192,146929,128,0,147607:0:0:0:0:
64,192,147268,1,0,0:0:0:0:
320,192,147437,128,2,147607:0:0:0:0:
64,192,147607,1,8,0:0:0:0:
192,192,147607,1,0,0:0:0:0:
320,192,147776,1,2,0:0:0:0:
448,192,147776,1,0,0:0:0:0:
64,192,147946,128,0,148285:0:0:0:0:
192,192,148115,1,8,0:0:0:0:
320,192,148115,1,0,0:0:0:0:
448,192,148285,128,2,148793:0:0:0:0:
192,192,148454,1,0,0:0:0:0:
192,192,148624,1,8,0:0:0:0:
320,192,148624,1,0,0:0:0:0:
64,192,148793,1,2,0:0:0:0:
192,192,148878,128,0,149132:0:0:0:0:
64,192,148963,1,8,0:0:0:0:
448,192,148963,1,0,0:0:0:0:
320,192,149132,128,2,149471:0:0:0:0:
448,192,149132,1,0,0:0:0:0:
192,192,149302,128,0,149810:0:0:0:0:
448,192,149471,1,2,0:0:0:0:
64,192,149641,1,0,0:0:0:30:electronic04.wav
448,192,149641,1,0,0:0:0:0:
64,192,149810,1,0,0:0:0:30:electronic04.wav
320,192,149980,128,0,151335:0:0:0:0:
64,192,150149,1,0,0:0:0:0:
192,192,150319,1,0,0:0:0:30:electronic04.wav
448,192,150319,1,0,0:0:0:0:
64,192,150488,1,0,0:0:0:30:electronic04.wav
64,192,150658,1,0,0:0:0:0:
448,192,150827,128,0,150997:0:0:0:0:
192,192,150997,128,0,151335:0:0:0:30:electronic04.wav
448,192,151166,1,0,0:0:0:30:electronic04.wav
448,192,151335,1,0,0:0:0:0:
64,192,151505,128,0,151674:0:0:0:0:
192,192,151674,1,0,0:0:0:30:electronic04.wav
448,192,151674,128,0,152183:0:0:0:0:
320,192,151844,128,0,152183:0:0:0:30:electronic04.wav
192,192,152013,128,0,152183:0:0:0:0:
64,192,152183,1,0,0:0:0:0:
320,192,152352,1,0,0:0:0:50:snare17.wav
448,192,152352,1,0,0:0:0:0:
192,192,152691,128,0,153030:0:0:0:50:snare17.wav
448,192,152691,1,0,0:0:0:0:
64,192,153030,128,0,153369:0:0:0:50:snare17.wav
448,192,153030,1,0,0:0:0:0:
192,192,153200,128,0,153369:0:0:0:70:echo_snare1.wav
320,192,153200,1,0,0:0:0:0:
320,192,153369,1,8,0:0:0:0:
448,192,153369,128,0,153624:0:0:0:70:echo_snare1.wav
192,192,153539,128,0,153878:0:0:0:0:
64,192,153708,128,2,153878:0:0:0:0:
320,192,153708,128,4,153878:0:0:0:0:
448,192,153708,128,0,154217:0:0:0:0:
64,192,154047,128,0,154302:0:0:0:0:
64,192,154386,1,0,0:0:0:0:
448,192,154386,128,0,154725:0:0:0:0:
320,192,154725,1,0,0:0:0:0:
192,192,154895,128,0,155149:0:0:0:0:
448,192,155064,1,0,0:0:0:0:
192,192,155234,128,0,155488:0:0:0:0:
448,192,155403,128,2,155488:0:0:0:0:
64,192,155488,128,2,155573:0:0:0:0:
320,192,155488,128,0,155573:0:0:0:0:
448,192,155573,128,2,155658:0:0:0:0:
64,192,155658,128,2,155742:0:0:0:0:
192,192,155658,128,0,155742:0:0:0:0:
320,192,155742,128,2,155827:0:0:0:0:
448,192,155742,128,0,155827:0:0:0:0:
64,192,155827,128,2,155912:0:0:0:0:
192,192,155827,128,0,155997:0:0:0:0:
320,192,155912,128,2,155997:0:0:0:0:
448,192,155912,128,0,155997:0:0:0:0:
64,192,155997,128,2,156081:0:0:0:0:
192,192,156081,128,8,156166:0:0:0:0:
320,192,156081,128,0,156166:0:0:0:0:
448,192,156081,128,0,156335:0:0:0:0:
64,192,156251,128,8,156590:0:0:0:0:
192,192,156251,128,0,156335:0:0:0:0:
320,192,156251,128,0,156335:0:0:0:0:
192,192,156420,128,4,156590:0:0:0:0:
320,192,156420,128,2,156759:0:0:0:0:
448,192,156420,128,0,157013:0:0:0:0:
64,192,156759,128,8,157013:0:0:0:0:
192,192,156844,128,0,157098:0:0:0:0:
320,192,156929,128,0,157013:0:0:0:0:
64,192,157098,128,2,157352:0:0:0:0:
448,192,157098,128,0,157268:0:0:0:0:
320,192,157183,128,0,157352:0:0:0:0:
192,192,157268,128,2,157437:0:0:0:0:
64,192,157437,128,8,157691:0:0:0:0:
320,192,157437,128,0,157522:0:0:0:0:
448,192,157437,128,0,157691:0:0:0:0:
320,192,157607,128,0,157776:0:0:0:0:
192,192,157691,128,0,157861:0:0:0:0:
64,192,157776,128,2,158030:0:0:0:0:
448,192,157776,128,0,157946:0:0:0:0:
192,192,157946,128,0,158115:0:0:0:0:
320,192,158030,128,0,158200:0:0:0:0:
64,192,158115,128,8,158369:0:0:0:0:
448,192,158115,128,0,158369:0:0:0:0:
192,192,158285,128,0,158369:0:0:0:0:
320,192,158454,128,2,158708:0:0:0:0:
448,192,158454,128,0,158624:0:0:0:0:
64,192,158624,128,2,158708:0:0:0:0:
192,192,158624,128,0,158708:0:0:0:35:echo_snare1.wav
64,192,158793,128,8,158963:0:0:0:0:
192,192,158793,128,0,159047:0:0:0:35:echo_snare1.wav
448,192,158793,128,0,158878:0:0:0:0:
320,192,158963,128,2,159047:0:0:0:0:
448,192,158963,128,0,159047:0:0:0:0:
64,192,159132,128,2,159386:0:0:0:0:
448,192,159132,128,0,159386:0:0:0:0:
192,192,159217,128,0,159471:0:0:0:0:
320,192,159302,128,0,159556:0:0:0:0:
64,192,159471,128,8,159641:0:0:0:0:
448,192,159471,128,0,159895:0:0:0:0:
192,192,159556,128,0,159725:0:0:0:0:
320,192,159641,128,0,159810:0:0:0:0:
64,192,159810,128,2,159980:0:0:0:0:
192,192,159810,128,0,160064:0:0:0:0:
320,192,159895,128,0,160149:0:0:0:0:
448,192,159980,128,2,160064:0:0:0:0:
64,192,160149,128,8,160403:0:0:0:0:
192,192,160149,128,0,160234:0:0:0:0:
448,192,160149,128,0,160319:0:0:0:0:
320,192,160234,128,0,160403:0:0:0:0:
192,192,160319,128,0,160573:0:0:0:0:
64,192,160488,128,2,160573:0:0:0:0:
448,192,160488,128,0,160742:0:0:0:0:
320,192,160658,128,0,160742:0:0:0:0:
64,192,160827,128,8,161081:0:0:0:0:
192,192,160827,128,0,160912:0:0:0:0:
448,192,160827,128,0,161081:0:0:0:0:
320,192,160997,128,0,161081:0:0:0:0:
192,192,161166,128,2,161420:0:0:0:0:
448,192,161166,128,0,161420:0:0:0:0:
64,192,161335,128,2,161590:0:0:0:0:
320,192,161335,128,0,161420:0:0:0:0:
192,192,161505,128,8,161590:0:0:0:0:
320,192,161505,128,0,161759:0:0:0:0:
448,192,161505,128,0,161759:0:0:0:0:
64,192,161674,128,2,161759:0:0:0:0:
192,192,161674,128,0,161759:0:0:0:0:
64,192,161844,128,2,162098:0:0:0:0:
448,192,161844,128,0,162098:0:0:0:0:
320,192,161929,128,0,162183:0:0:0:0:
192,192,162013,128,0,162268:0:0:0:0:
64,192,162183,128,8,162607:0:0:0:0:
448,192,162183,128,0,162352:0:0:0:0:
320,192,162268,128,0,162437:0:0:0:0:
192,192,162352,128,0,162522:0:0:0:0:
320,192,162522,128,2,162776:0:0:0:0:
448,192,162522,128,0,162691:0:0:0:0:
192,192,162607,128,0,162946:0:0:0:0:
64,192,162691,128,2,162776:0:0:0:0:
64,192,162861,128,8,163115:0:0:0:0:
320,192,162861,128,0,163030:0:0:0:0:
448,192,162861,128,0,162946:0:0:0:0:
192,192,163030,128,0,163200:0:0:0:0:
320,192,163115,128,0,163369:0:0:0:0:
64,192,163200,128,2,163285:0:0:0:0:
448,192,163200,128,0,163285:0:0:0:0:
192,192,163369,128,0,163624:0:0:0:0:
64,192,163539,128,8,163793:0:0:0:0:
320,192,163539,128,0,163624:0:0:0:0:
448,192,163539,128,0,163793:0:0:0:0:
320,192,163708,128,0,163793:0:0:0:0:
64,192,163878,128,2,164047:0:0:0:0:
192,192,163878,128,0,164132:0:0:0:0:
448,192,164047,128,2,164217:0:0:0:0:
320,192,164132,128,2,164302:0:0:0:0:
64,192,164217,128,8,164471:0:0:0:0:
192,192,164217,128,0,164386:0:0:0:0:
320,192,164386,128,2,164471:0:0:0:0:
448,192,164386,128,0,164471:0:0:0:0:
64,192,164556,128,2,164641:0:0:0:0:
192,192,164556,128,4,164725:0:0:0:0:
320,192,164556,128,0,164810:0:0:0:0:
448,192,164556,128,0,164810:0:0:0:0:
64,192,164895,128,8,165149:0:0:0:0:
448,192,164895,128,0,165149:0:0:0:0:
192,192,164980,128,0,165149:0:0:0:0:
320,192,165064,128,0,165149:0:0:0:0:
64,192,165234,128,2,165488:0:0:0:0:
448,192,165234,128,0,165403:0:0:0:0:
320,192,165319,128,0,165488:0:0:0:0:
192,192,165403,128,2,165573:0:0:0:0:
64,192,165573,128,8,165827:0:0:0:0:
320,192,165573,128,0,165658:0:0:0:0:
448,192,165573,128,0,165827:0:0:0:0:
320,192,165742,128,0,165912:0:0:0:0:
192,192,165827,128,0,165997:0:0:0:0:
64,192,165912,128,2,166166:0:0:0:0:
448,192,165912,128,0,166081:0:0:0:0:
192,192,166081,128,0,166251:0:0:0:0:
320,192,166166,128,0,166335:0:0:0:0:
64,192,166251,128,8,166505:0:0:0:0:
448,192,166251,128,0,166505:0:0:0:0:
192,192,166420,128,0,166590:0:0:0:0:
320,192,166590,128,2,166844:0:0:0:0:
448,192,166590,128,0,166759:0:0:0:0:
64,192,166759,128,2,166844:0:0:0:0:
192,192,166759,128,0,166844:0:0:0:0:
64,192,166929,128,8,167098:0:0:0:0:
192,192,166929,128,0,167352:0:0:0:0:
448,192,166929,128,0,167013:0:0:0:0:
320,192,167098,128,2,167183:0:0:0:0:
448,192,167098,128,0,167183:0:0:0:0:
64,192,167268,128,2,167352:0:0:0:0:
448,192,167268,128,0,167522:0:0:0:0:
320,192,167437,128,0,167522:0:0:0:0:
64,192,167607,128,8,167776:0:0:0:0:
448,192,167607,128,0,167946:0:0:0:0:
192,192,167691,128,0,167861:0:0:0:0:
320,192,167776,128,0,167861:0:0:0:0:
64,192,167946,128,2,168369:0:0:0:0:
192,192,167946,128,0,168115:0:0:0:0:
320,192,168030,128,0,168200:0:0:0:0:
448,192,168115,128,2,168200:0:0:0:0:
192,192,168285,128,8,168369:0:0:0:0:
320,192,168285,128,0,168369:0:0:0:0:
448,192,168285,128,0,168539:0:0:0:0:
192,192,168454,128,0,168624:0:0:0:0:
320,192,168539,128,0,168708:0:0:0:0:
64,192,168624,128,2,168878:0:0:0:0:
448,192,168624,128,0,168793:0:0:0:0:
320,192,168793,128,0,168963:0:0:0:0:
192,192,168878,128,0,169047:0:0:0:0:
64,192,168963,128,8,169132:0:0:0:0:
448,192,168963,128,0,169217:0:0:0:0:
320,192,169132,128,0,169217:0:0:0:0:
320,192,169302,128,2,169556:0:0:0:0:
448,192,169302,128,0,169471:0:0:0:0:
64,192,169471,128,2,169556:0:0:0:0:
192,192,169471,128,0,169556:0:0:0:35:echo_snare1.wav
64,192,169641,128,8,169810:0:0:0:0:
192,192,169641,128,0,169895:0:0:0:35:echo_snare1.wav
448,192,169641,128,0,169725:0:0:0:0:
320,192,169810,128,2,169895:0:0:0:0:
448,192,169810,128,0,169895:0:0:0:0:
64,192,169980,128,2,170234:0:0:0:0:
448,192,169980,128,0,170234:0:0:0:0:
192,192,170064,128,0,170319:0:0:0:0:
320,192,170149,128,0,170403:0:0:0:0:
64,192,170319,128,8,170488:0:0:0:0:
448,192,170319,128,0,170742:0:0:0:0:
192,192,170403,128,0,170573:0:0:0:0:
320,192,170488,128,0,170658:0:0:0:0:
64,192,170658,128,2,170827:0:0:0:0:
192,192,170658,128,0,170912:0:0:0:0:
320,192,170742,128,0,170997:0:0:0:0:
448,192,170827,128,2,170912:0:0:0:0:
64,192,170997,128,8,171251:0:0:0:0:
192,192,170997,128,0,171166:0:0:0:0:
448,192,170997,128,0,171251:0:0:0:0:
320,192,171166,128,0,171251:0:0:0:0:
64,192,171335,128,2,171590:0:0:0:0:
320,192,171335,128,0,171590:0:0:0:0:
448,192,171505,128,0,171590:0:0:0:0:
64,192,171674,128,8,171929:0:0:0:0:
192,192,171674,128,0,171759:0:0:0:0:
448,192,171674,128,0,171929:0:0:0:0:
320,192,171844,128,0,171929:0:0:0:0:
64,192,172013,128,2,172268:0:0:0:0:
448,192,172013,128,0,172268:0:0:0:0:
192,192,172183,128,2,172268:0:0:0:0:
320,192,172183,128,0,172437:0:0:0:0:
64,192,172352,128,8,172607:0:0:0:0:
192,192,172352,128,0,172607:0:0:0:0:
448,192,172352,128,0,172437:0:0:0:0:
320,192,172522,128,2,172607:0:0:0:0:
448,192,172522,128,0,172607:0:0:0:0:
64,192,172691,128,2,172946:0:0:0:0:
448,192,172691,128,0,172946:0:0:0:0:
320,192,172776,128,0,173030:0:0:0:0:
192,192,172861,128,0,173115:0:0:0:0:
64,192,173030,128,8,173454:0:0:0:0:
448,192,173030,128,0,173200:0:0:0:0:
320,192,173115,128,0,173285:0:0:0:0:
192,192,173200,128,0,173369:0:0:0:0:
320,192,173369,128,2,173624:0:0:0:0:
448,192,173369,128,0,173539:0:0:0:0:
192,192,173454,128,0,173793:0:0:0:0:
64,192,173539,128,2,173624:0:0:0:0:
64,192,173708,128,8,173963:0:0:0:0:
320,192,173708,128,0,173878:0:0:0:0:
448,192,173708,128,0,173793:0:0:0:0:
192,192,173878,128,0,174047:0:0:0:0:
320,192,173963,128,0,174132:0:0:0:0:
64,192,174047,128,2,174302:0:0:0:0:
448,192,174047,128,0,174302:0:0:0:0:
320,192,174217,128,0,174471:0:0:0:0:
64,192,174386,128,8,174641:0:0:0:0:
192,192,174386,128,0,174471:0:0:0:0:
448,192,174386,128,0,174471:0:0:0:0:
192,192,174556,128,0,174641:0:0:0:0:
320,192,174725,128,2,174980:0:0:0:0:
448,192,174725,128,0,174895:0:0:0:0:
64,192,174895,128,2,175064:0:0:0:0:
192,192,174980,128,2,175149:0:0:0:0:
320,192,175064,128,8,175234:0:0:0:0:
448,192,175064,128,0,175319:0:0:0:35:echo_snare1.wav
64,192,175234,128,2,175319:0:0:0:0:
192,192,175234,128,0,175319:0:0:0:0:
64,192,175403,128,2,175658:0:0:0:0:
192,192,175403,128,4,175573:0:0:0:0:
448,192,175403,128,0,175488:0:0:0:0:
320,192,175488,128,0,175573:0:0:0:0:
448,192,175573,128,0,175658:0:0:0:0:
192,192,175658,128,0,175742:0:0:0:0:
64,192,175742,128,8,175827:0:0:0:0:
320,192,175742,128,0,175997:0:0:0:0:
448,192,175742,128,0,175912:0:0:0:0:
192,192,175912,128,0,176081:0:0:0:0:
64,192,175997,128,0,176081:0:0:0:0:
320,192,176081,128,2,176251:0:0:0:0:
448,192,176081,128,0,176335:0:0:0:0:
192,192,176166,128,0,176251:0:0:0:0:
64,192,176251,128,2,176335:0:0:0:0:
320,192,176335,128,0,176505:0:0:0:0:
64,192,176420,128,8,176505:0:0:0:0:
448,192,176420,128,0,176505:0:0:0:0:
192,192,176505,128,0,176590:0:0:0:0:
64,192,176590,128,0,176759:0:0:0:0:
448,192,176590,128,0,176844:0:0:0:0:
320,192,176674,128,0,176844:0:0:0:0:
192,192,176759,128,2,176844:0:0:0:0:
64,192,176844,128,0,176929:0:0:0:0:
320,192,176929,128,0,177098:0:0:0:0:
448,192,176929,128,0,177183:0:0:0:0:
192,192,177013,128,0,177183:0:0:0:0:
64,192,177098,128,8,177352:0:0:0:0:
320,192,177183,128,0,177268:0:0:0:0:
192,192,177268,128,0,177352:0:0:0:0:
448,192,177268,128,0,177691:0:0:0:0:
320,192,177352,128,0,177437:0:0:0:0:
64,192,177437,128,2,177691:0:0:0:0:
192,192,177437,128,0,177522:0:0:0:0:
192,192,177607,128,2,178030:0:0:0:0:
320,192,177607,128,0,177691:0:0:0:0:
64,192,177776,128,8,178030:0:0:0:0:
320,192,177776,128,0,177861:0:0:0:0:
448,192,177776,128,0,177861:0:0:0:0:
320,192,177946,128,2,178200:0:0:0:0:
448,192,177946,128,0,178115:0:0:0:0:
64,192,178115,128,2,178369:0:0:0:0:
192,192,178115,128,0,178285:0:0:0:0:
448,192,178200,128,0,178369:0:0:0:0:
320,192,178285,128,0,178369:0:0:0:0:
192,192,178369,128,0,178454:0:0:0:0:
64,192,178454,128,8,178708:0:0:0:0:
320,192,178454,128,0,178624:0:0:0:0:
448,192,178454,128,0,178624:0:0:0:0:
192,192,178624,128,0,178793:0:0:0:0:
320,192,178708,128,0,178878:0:0:0:0:
64,192,178793,128,2,179047:0:0:0:0:
448,192,178793,128,0,178963:0:0:0:0:
192,192,178878,128,0,179047:0:0:0:0:
320,192,178963,128,2,179047:0:0:0:0:
448,192,179047,128,0,179217:0:0:0:0:
64,192,179132,128,8,179217:0:0:0:0:
192,192,179132,128,0,179217:0:0:0:0:
320,192,179132,128,0,179217:0:0:0:0:
320,192,179302,128,0,179556:0:0:0:0:
448,192,179302,128,0,179556:0:0:0:0:
64,192,179386,128,0,179556:0:0:0:0:
192,192,179471,128,2,179556:0:0:0:0:
64,192,179641,128,0,179810:0:0:0:0:
448,192,179641,128,0,179725:0:0:0:0:
192,192,179725,128,0,179810:0:0:0:0:
320,192,179810,128,8,180064:0:0:0:0:
448,192,179810,128,0,180064:0:0:0:0:
64,192,179980,128,0,180234:0:0:0:0:
192,192,179980,128,0,180234:0:0:0:0:
320,192,180149,128,2,180403:0:0:0:0:
448,192,180149,128,0,180573:0:0:0:0:
64,192,180319,128,2,180573:0:0:0:0:
192,192,180319,128,0,180403:0:0:0:35:echo_snare1.wav
192,192,180488,128,8,180742:0:0:0:0:
320,192,180488,128,0,180742:0:0:0:35:echo_snare1.wav
64,192,180658,128,2,180742:0:0:0:0:
448,192,180658,128,0,180742:0:0:0:0:
192,192,180827,128,2,180997:0:0:0:0:
448,192,180827,128,0,181166:0:0:0:0:
320,192,180912,128,0,180997:0:0:0:0:
64,192,180997,128,0,181081:0:0:0:0:
320,192,181081,128,0,181166:0:0:0:0:
64,192,181166,128,8,181335:0:0:0:0:
192,192,181166,128,0,181505:0:0:0:0:
448,192,181251,128,0,181420:0:0:0:0:
320,192,181335,128,0,181420:0:0:0:0:
64,192,181420,128,0,181505:0:0:0:0:
320,192,181505,128,2,181844:0:0:0:0:
448,192,181505,128,0,181759:0:0:0:0:
64,192,181674,128,2,181759:0:0:0:0:
192,192,181674,128,0,181759:0:0:0:0:
64,192,181844,128,8,182098:0:0:0:0:
192,192,181844,128,0,182013:0:0:0:0:
448,192,181844,128,0,181929:0:0:0:0:
448,192,182013,128,0,182183:0:0:0:0:
320,192,182098,128,0,182183:0:0:0:0:
64,192,182183,128,2,182607:0:0:0:0:
192,192,182183,128,0,182268:0:0:0:0:
320,192,182352,128,0,182437:0:0:0:0:
192,192,182437,128,0,182607:0:0:0:0:
320,192,182522,128,8,182776:0:0:0:0:
448,192,182522,128,0,182607:0:0:0:0:
64,192,182691,128,0,182776:0:0:0:0:
192,192,182691,128,0,182776:0:0:0:0:
64,192,182861,128,2,183285:0:0:0:0:
192,192,182861,128,0,183030:0:0:0:0:
320,192,183030,128,2,183115:0:0:0:0:
448,192,183030,128,0,183285:0:0:0:0:
192,192,183200,128,8,183454:0:0:0:0:
320,192,183200,128,0,183454:0:0:0:0:
64,192,183369,128,2,183454:0:0:0:0:
448,192,183369,128,0,183454:0:0:0:0:
64,192,183539,128,2,183878:0:0:0:0:
320,192,183539,128,0,183708:0:0:0:0:
192,192,183624,128,0,183708:0:0:0:0:
448,192,183708,128,0,183793:0:0:0:0:
192,192,183793,128,0,183878:0:0:0:0:
320,192,183878,128,8,184217:0:0:0:0:
448,192,183878,128,0,184047:0:0:0:0:
64,192,183963,128,0,184132:0:0:0:0:
192,192,184047,128,0,184132:0:0:0:0:
448,192,184132,128,0,184217:0:0:0:0:
64,192,184217,128,2,184471:0:0:0:0:
192,192,184217,128,0,184556:0:0:0:0:
320,192,184386,128,2,184471:0:0:0:0:
448,192,184386,128,0,184471:0:0:0:0:
64,192,184556,128,8,184725:0:0:0:0:
320,192,184556,1,0,0:0:0:0:
448,192,184556,128,0,184895:0:0:0:0:
320,192,184725,128,0,185064:0:0:0:0:
192,192,184810,128,0,184895:0:0:0:0:
64,192,184895,1,2,0:0:0:0:
192,192,185064,128,0,185319:0:0:0:0:
320,192,185149,128,0,185234:0:0:0:0:
64,192,185234,128,8,185658:0:0:0:0:
448,192,185234,128,0,185319:0:0:0:0:
320,192,185403,128,0,185488:0:0:0:0:
448,192,185403,128,0,185742:0:0:0:0:
192,192,185573,128,2,185658:0:0:0:0:
320,192,185573,128,0,185742:0:0:0:0:
64,192,185742,128,2,185827:0:0:0:0:
192,192,185742,128,0,185827:0:0:0:0:
320,192,185827,128,2,185997:0:0:0:0:
448,192,185827,128,0,185997:0:0:0:0:
64,192,185912,128,8,186166:0:0:0:0:
192,192,185912,128,0,185997:0:0:0:35:echo_snare1.wav
320,192,186081,128,2,186166:0:0:0:0:
448,192,186081,128,0,186166:0:0:0:0:
64,192,186251,128,2,186590:0:0:0:0:
192,192,186251,128,4,186335:0:0:0:0:
448,192,186251,128,0,186420:0:0:0:0:
320,192,186335,128,0,186505:0:0:0:0:
192,192,186420,128,0,186505:0:0:0:0:
448,192,186505,128,0,186590:0:0:0:0:
192,192,186590,128,8,186759:0:0:0:0:
320,192,186590,1,0,0:0:0:0:
64,192,186674,128,0,186759:0:0:0:0:
320,192,186759,128,0,187013:0:0:0:0:
448,192,186844,128,0,186929:0:0:0:0:
64,192,186929,128,2,187183:0:0:0:0:
192,192,186929,128,0,187013:0:0:0:0:
448,192,187013,128,0,187098:0:0:0:0:
192,192,187098,128,2,187183:0:0:0:0:
320,192,187098,128,0,187183:0:0:0:0:
64,192,187268,128,8,187437:0:0:0:0:
192,192,187268,128,0,187522:0:0:0:0:
320,192,187268,1,0,0:0:0:0:
448,192,187352,128,0,187437:0:0:0:0:
320,192,187437,128,0,187522:0:0:0:0:
64,192,187522,128,0,187861:0:0:0:0:
448,192,187522,128,0,187607:0:0:0:0:
192,192,187607,128,2,187691:0:0:0:0:
320,192,187691,128,0,187776:0:0:0:0:
192,192,187776,128,0,187946:0:0:0:0:
448,192,187776,128,0,188200:0:0:0:0:
320,192,187861,128,0,187946:0:0:0:0:
64,192,187946,1,8,0:0:0:0:
64,192,188115,128,0,188200:0:0:0:0:
192,192,188285,128,2,188539:0:0:0:0:
320,192,188285,128,0,188369:0:0:0:0:
64,192,188454,128,2,188539:0:0:0:0:
320,192,188454,128,0,188708:0:0:0:0:
64,192,188624,128,8,188878:0:0:0:0:
192,192,188624,1,0,0:0:0:0:
448,192,188624,128,0,188878:0:0:0:0:
192,192,188793,128,2,188878:0:0:0:0:
320,192,188793,128,0,188878:0:0:0:0:
64,192,188963,128,2,189132:0:0:0:0:
320,192,188963,128,0,189047:0:0:0:0:
448,192,188963,128,0,189302:0:0:0:0:
192,192,189047,128,0,189217:0:0:0:0:
320,192,189132,128,0,189217:0:0:0:0:
64,192,189217,128,0,189302:0:0:0:0:
192,192,189302,1,8,0:0:0:0:
320,192,189302,128,0,189471:0:0:0:0:
448,192,189386,128,0,189471:0:0:0:0:
192,192,189471,128,0,189725:0:0:0:0:
64,192,189556,128,0,189641:0:0:0:0:
320,192,189641,128,2,189895:0:0:0:0:
448,192,189641,128,0,189895:0:0:0:0:
64,192,189810,128,2,189895:0:0:0:0:
192,192,189810,128,0,189895:0:0:0:0:
64,192,189980,128,8,190319:0:0:0:0:
192,192,189980,1,0,0:0:0:0:
448,192,189980,128,0,190234:0:0:0:0:
320,192,190064,128,0,190234:0:0:0:0:
192,192,190149,128,0,190319:0:0:0:0:
320,192,190319,1,2,0:0:0:0:
448,192,190319,1,0,0:0:0:0:
64,192,190488,128,0,190912:0:0:0:0:
320,192,190488,128,0,190742:0:0:0:0:
192,192,190573,128,0,190742:0:0:0:0:
448,192,190658,128,8,190742:0:0:0:0:
448,192,190827,128,0,190912:0:0:0:0:
192,192,190997,128,2,191081:0:0:0:0:
320,192,190997,128,0,191251:0:0:0:0:
192,192,191166,128,2,191420:0:0:0:0:
448,192,191166,128,0,191251:0:0:0:35:echo_snare1.wav
64,192,191335,128,8,191420:0:0:0:0:
320,192,191335,1,0,0:0:0:35:echo_snare1.wav
448,192,191335,128,0,191590:0:0:0:0:
192,192,191505,128,2,191590:0:0:0:0:
320,192,191505,128,0,191759:0:0:0:0:
64,192,191674,128,2,191844:0:0:0:0:
448,192,191674,128,0,191844:0:0:0:0:
192,192,191759,128,0,191844:0:0:0:0:
320,192,191844,128,0,191929:0:0:0:0:
448,192,191929,128,0,192013:0:0:0:0:
64,192,192013,1,8,0:0:0:0:
192,192,192013,128,0,192098:0:0:0:0:
320,192,192098,128,0,192183:0:0:0:0:
64,192,192183,128,0,192437:0:0:0:0:
448,192,192183,128,0,192268:0:0:0:0:
192,192,192268,128,0,192352:0:0:0:0:
320,192,192352,128,2,192607:0:0:0:0:
448,192,192352,128,0,192607:0:0:0:0:
64,192,192522,128,2,192607:0:0:0:0:
192,192,192522,128,0,192607:0:0:0:0:
64,192,192691,1,8,0:0:0:0:
192,192,192691,128,0,192946:0:0:0:0:
320,192,192691,128,0,192861:0:0:0:0:
448,192,192776,128,0,192861:0:0:0:0:
64,192,192861,128,0,192946:0:0:0:0:
192,192,193030,1,2,0:0:0:0:
320,192,193030,1,0,0:0:0:0:
192,192,193200,128,0,193285:0:0:0:0:
448,192,193200,128,0,193454:0:0:0:0:
320,192,193285,128,0,193369:0:0:0:0:
64,192,193369,128,8,193454:0:0:0:0:
192,192,193369,128,0,193624:0:0:0:0:
320,192,193539,128,0,193624:0:0:0:0:
320,192,193708,128,2,193878:0:0:0:0:
448,192,193708,128,0,193963:0:0:0:0:
64,192,193878,128,2,193963:0:0:0:0:
192,192,193878,128,0,193963:0:0:0:0:
320,192,193963,1,0,0:0:0:0:
64,192,194047,1,8,0:0:0:0:
192,192,194047,1,0,0:0:0:0:
448,192,194047,128,0,194386:0:0:0:0:
192,192,194217,128,2,194302:0:0:0:0:
320,192,194302,128,0,194386:0:0:0:0:
64,192,194386,128,2,194725:0:0:0:0:
192,192,194386,128,0,194556:0:0:0:0:
320,192,194471,128,0,194556:0:0:0:0:
448,192,194556,128,0,194641:0:0:0:0:
192,192,194641,128,0,194725:0:0:0:0:
320,192,194725,128,8,195064:0:0:0:0:
448,192,194725,128,0,194895:0:0:0:0:
64,192,194810,128,0,194980:0:0:0:0:
192,192,194895,128,0,194980:0:0:0:0:
448,192,194980,128,0,195064:0:0:0:0:
64,192,195064,128,2,195319:0:0:0:0:
192,192,195064,128,0,195403:0:0:0:0:
320,192,195234,128,2,195319:0:0:0:0:
448,192,195234,128,0,195319:0:0:0:0:
64,192,195403,128,8,195573:0:0:0:0:
320,192,195403,1,0,0:0:0:0:
448,192,195403,128,0,195742:0:0:0:0:
320,192,195573,128,0,195912:0:0:0:0:
192,192,195658,128,0,195742:0:0:0:0:
64,192,195742,1,2,0:0:0:0:
192,192,195912,128,0,196166:0:0:0:0:
320,192,195997,128,0,196081:0:0:0:0:
64,192,196081,128,8,196505:0:0:0:0:
448,192,196081,128,0,196166:0:0:0:0:
320,192,196251,128,0,196335:0:0:0:0:
448,192,196251,128,0,196590:0:0:0:0:
192,192,196420,128,2,196505:0:0:0:0:
320,192,196420,128,0,196590:0:0:0:0:
64,192,196590,128,2,196674:0:0:0:0:
192,192,196590,128,0,196674:0:0:0:0:
320,192,196674,128,2,196844:0:0:0:0:
448,192,196674,128,0,196844:0:0:0:0:
64,192,196759,128,8,196844:0:0:0:0:
192,192,196759,128,0,196844:0:0:0:35:echo_snare1.wav
64,192,196929,128,2,197013:0:0:0:0:
448,192,196929,128,0,197013:0:0:0:0:
