osu file format v14

[General]
AudioFilename: audio.mp3
AudioLeadIn: 0
PreviewTime: 294
Countdown: 1
SampleSet: Soft
StackLeniency: 0.7
Mode: 0
LetterboxInBreaks: 0
WidescreenStoryboard: 1

[Editor]
DistanceSpacing: 1.2
BeatDivisor: 4
GridSize: 32
TimelineZoom: 2

[Metadata]
Title:Gozen 7-ji
TitleUnicode:午前7時
Artist:Kenta Nagata
ArtistUnicode:永田権太
Creator:PolkaMocha
Version:7:40 A.M. (Hyper)
Source:どうぶつの森
Tags:seven am Animal Crossing Game Cube Theme Field Game Video Nintendo
BeatmapID:1111764
BeatmapSetID:523694

[Difficulty]
HPDrainRate:5
CircleSize:3.5
OverallDifficulty:6
ApproachRate:7
SliderMultiplier:2.2
SliderTickRate:1

[Events]
//Background and Video events
0,0,"Animal-Crossing-The-Movie-dobutsu-no-mori-39586338-1280-720.jpg.png",0,0
//Break Periods
//Storyboard Layer 0 (Background)
//Storyboard Layer 1 (Fail)
//Storyboard Layer 2 (Pass)
//Storyboard Layer 3 (Foreground)
//Storyboard Sound Samples

[TimingPoints]
294,631.578947368421,4,2,1,60,1,0
55872,-100,4,2,0,60,0,0

[Colours]
Combo1 : 255,255,128
Combo2 : 255,128,128
Combo3 : 119,187,255
Combo4 : 128,255,128
SliderBorder : 0,102,204

[HitObjects]
128,259,294,5,4,0:0:0:0:
220,163,609,1,2,0:0:0:0:
312,259,925,1,10,0:0:0:0:
220,351,1241,1,2,0:0:0:0:
128,259,1557,2,0,P|80:247|16:263,1,110,0|4,0:0|0:0,0:0:0:0:
224,339,2188,2,0,P|272:351|336:335,1,110,8|0,0:0|0:0,0:0:0:0:
347,143,2820,6,0,L|279:230,1,110,4|0,0:0|0:0,0:0:0:0:
408,255,3451,2,0,L|484:155,1,110,8|0,0:0|0:0,0:0:0:0:
284,43,4083,1,0,0:0:0:0:
284,43,4399,2,0,L|196:147,1,110,4|8,0:0|0:0,0:0:0:0:
344,159,5030,1,0,0:0:0:0:
164,19,5346,6,0,P|108:7|24:39,1,110,4|2,0:0|0:0,0:0:0:0:
116,139,5978,2,0,P|172:151|256:119,1,110,10|2,0:0|0:0,0:0:0:0:
344,91,6609,1,0,0:0:0:0:
344,91,6925,2,0,P|332:147|364:231,1,110,4|8,0:0|0:0,0:0:0:0:
464,143,7557,1,0,0:0:0:0:
252,39,7872,6,0,P|232:103|256:267,1,220,4|8,0:0|0:0,0:0:0:0:
348,339,8820,2,0,L|88:259,1,220,0|4,0:0|0:0,0:0:0:0:
228,179,9767,2,0,L|360:219,1,110,8|0,0:0|0:0,0:0:0:0:
512,263,10399,5,6,0:0:0:0:
332,323,10715,1,2,0:0:0:0:
448,163,11030,1,10,0:0:0:0:
448,355,11346,1,2,0:0:0:0:
332,211,11662,2,0,P|320:163|352:83,1,110,0|4,0:0|0:0,0:0:0:0:
448,163,12293,2,0,P|460:211|428:291,1,110,10|2,0:0|0:0,0:0:0:0:
236,267,12925,6,0,P|216:203|244:47,1,220,4|8,0:0|0:0,0:0:0:0:
316,163,13872,1,0,0:0:0:0:
108,163,14188,2,0,L|-15:163,1,110,0|4,0:0|0:0,0:0:0:0:
212,27,14820,2,0,L|340:27,1,110,8|0,0:0|0:0,0:0:0:0:
488,135,15451,5,6,0:0:0:0:
296,135,15767,1,2,0:0:0:0:
456,27,16083,1,10,0:0:0:0:
392,211,16399,1,2,0:0:0:0:
322,27,16715,1,0,0:0:0:0:
322,27,17030,1,4,0:0:0:0:
392,211,17346,2,0,B|408:263|408:263|392:323,1,110,10|2,0:0|0:0,0:0:0:0:
68,263,17978,6,0,P|170:226|272:263,1,220,4|10,0:0|0:0,0:0:0:0:
224,138,18925,2,0,P|170:130|116:139,1,110,2|0,0:0|0:0,0:0:0:0:
172,259,19557,1,4,0:0:0:0:
15,86,19872,2,0,P|7:140|16:195,1,110,8|0,0:0|0:0,0:0:0:0:
144,319,20504,5,6,0:0:0:0:
144,135,20820,1,2,0:0:0:0:
48,227,21136,1,10,0:0:0:0:
236,227,21451,1,2,0:0:0:0:
13,122,21767,2,0,L|48:227,1,110,0|4,0:0|0:0,0:0:0:0:
235,226,22399,2,0,L|270:122,1,110,10|2,0:0|0:0,0:0:0:0:
144,17,23030,6,0,L|144:127,2,110,4|0|8,0:0|0:0|0:0,0:0:0:0:
50,220,23978,1,0,0:0:0:0:
143,313,24294,1,0,0:0:0:0:
238,220,24609,1,6,0:0:0:0:
144,126,24925,2,0,P|84:115|8:143,1,110,10|2,0:0|0:0,0:0:0:0:
248,235,25557,6,0,P|304:247|376:223,1,110,6|0,0:0|0:0,0:0:0:0:
300,115,26188,1,8,0:0:0:0:
300,115,26504,2,0,L|300:-5,1,110,2|0,0:0|0:0,0:0:0:0:
208,199,27136,1,6,0:0:0:0:
300,295,27451,1,10,0:0:0:0:
392,199,27767,1,2,0:0:0:0:
180,199,28083,5,6,0:0:0:0:
256,192,28241,12,8,32504,0:0:0:0:
256,23,33136,5,6,0:0:0:0:
256,219,33451,1,2,0:0:0:0:
348,79,33767,1,10,0:0:0:0:
164,159,34083,2,0,P|104:171|44:151,1,110,2|0,0:0|0:0,0:0:0:0:
348,79,34715,1,4,0:0:0:0:
348,79,35030,2,0,P|401:66|454:79,1,110,10|2,0:0|0:0,0:0:0:0:
400,199,35662,6,0,L|456:307,1,110,4|0,0:0|0:0,0:0:0:0:
264,175,36294,2,0,L|208:67,1,110,8|0,0:0|0:0,0:0:0:0:
88,35,36925,1,0,0:0:0:0:
88,35,37241,1,4,0:0:0:0:
36,155,37557,2,0,L|92:263,1,110,8|0,0:0|0:0,0:0:0:0:
284,251,38188,5,6,0:0:0:0:
112,347,38504,1,2,0:0:0:0:
188,163,38820,1,10,0:0:0:0:
256,347,39136,1,2,0:0:0:0:
84,251,39451,1,0,0:0:0:0:
84,251,39767,1,4,0:0:0:0:
284,251,40083,2,0,L|428:251,1,110,10|2,0:0|0:0,0:0:0:0:
208,347,40715,6,0,P|176:279|236:119,1,220,4|10,0:0|0:0,0:0:0:0:
296,43,41662,2,0,P|356:31|428:59,1,110,2|0,0:0|0:0,0:0:0:0:
210,143,42294,1,4,0:0:0:0:
210,143,42609,2,0,P|150:155|78:127,1,110,8|0,0:0|0:0,0:0:0:0:
156,51,43241,5,6,0:0:0:0:
156,247,43557,1,2,0:0:0:0:
64,151,43872,1,10,0:0:0:0:
256,151,44188,2,0,L|304:267,1,110,2|0,0:0|0:0,0:0:0:0:
21,252,44820,1,4,0:0:0:0:
21,252,45136,2,0,L|63:150,1,110,10|2,0:0|0:0,0:0:0:0:
156,56,45767,6,0,L|156:203,2,110,4|0|8,0:0|0:0|0:0,0:0:0:0:
48,120,46715,1,0,0:0:0:0:
276,120,47030,2,0,P|332:132|404:108,1,110,0|6,0:0|0:0,0:0:0:0:
468,20,47662,2,0,P|412:8|340:32,1,110,10|2,0:0|0:0,0:0:0:0:
224,200,48294,6,0,P|328:232|436:196,1,220,6|10,0:0|0:0,0:0:0:0:
328,116,49241,2,0,L|164:312,1,220,2|6,0:0|0:0,0:0:0:0:
364,288,50188,1,10,0:0:0:0:
364,288,50504,1,0,0:0:0:0:
156,120,50820,6,0,P|104:104|32:136,1,110,6|0,0:0|0:0,0:0:0:0:
192,251,51451,1,10,0:0:0:0:
192,251,51767,2,0,P|243:266|295:251,1,110,2|0,0:0|0:0,0:0:0:0:
400,168,52399,1,6,0:0:0:0:
296,88,52715,1,8,0:0:0:0:
416,324,53346,5,4,0:0:0:0:
256,192,53504,12,4,55872,0:0:0:0:
