osu file format v14

[General]
AudioFilename: audio.mp3
AudioLeadIn: 0
PreviewTime: 147
Countdown: 0
SampleSet: Normal
StackLeniency: 0.7
Mode: 1
LetterboxInBreaks: 0
WidescreenStoryboard: 1

[Editor]
Bookmarks: 12908,24198,34859,45520,55582,65645,75140,84111,92571,101031,109491
DistanceSpacing: 1.2
BeatDivisor: 2
GridSize: 32
TimelineZoom: 0.5999999

[Metadata]
Title:GCN Baby Park
TitleUnicode:GC ベビィパーク
Artist:Kenta Nagata
ArtistUnicode:永田権太
Creator:nevqr
Version:50cc
Source:マリオカート8
Tags:azu_ masato honma satoshi bandoh takuo yamamoto eijiro nakagawa koji nishimura 本間将人 坂東慧 山本拓夫 中川英二郎 西村浩二 西村浩一 mario kart kart: mariokart 8 mk8 deluxe double dash!! ds tour switch club original soundtrack sound track 9 ost lap 2 マリオカート8 オリジナル サウンドトラック gamecube game cube ゲームキューブ videogame video game vgm instrumental electronic nintendo 任天堂 wii u wiiu bpm increase acceleration speed up tag2 tag4 tag coop co-op compatible
BeatmapID:4233976
BeatmapSetID:2031371

[Difficulty]
HPDrainRate:8
CircleSize:2
OverallDifficulty:3
ApproachRate:9
SliderMultiplier:1.4
SliderTickRate:1

[Events]
//Background and Video events
0,0,"baby park.jpg",0,-40
//Break Periods
//Storyboard Layer 0 (Background)
//Storyboard Layer 1 (Fail)
//Storyboard Layer 2 (Pass)
//Storyboard Layer 3 (Foreground)
//Storyboard Layer 4 (Overlay)
//Storyboard Sound Samples

[TimingPoints]
206,352.837400764481,4,1,0,70,1,0
206,-111.111111111111,4,1,0,70,0,0
1617,-111.111111111111,4,1,0,60,0,0
24198,333.148250971682,4,1,0,65,1,0
24198,-111.111111111111,4,1,0,65,0,0
45519,314.465408805031,4,1,0,70,1,0
45519,-111.111111111111,4,1,0,70,0,0
65644,296.73590504451,4,1,0,75,1,0
65644,-111.111111111111,4,1,0,75,0,0
75139,280.373831775701,4,1,0,80,1,0
75139,-111.111111111111,4,1,0,80,0,0
84110,264.375413086583,4,1,0,85,1,0
84110,-111.111111111111,4,1,0,85,0,0
92570,-111.111111111111,4,1,0,90,0,1
109490,-111.111111111111,4,1,0,90,0,0

[HitObjects]
256,192,206,5,0,1:0:0:0:
256,192,558,1,0,1:0:0:0:
256,192,911,1,8,1:0:0:0:
256,192,1617,5,12,1:0:0:0:
256,192,1970,1,0,1:0:0:0:
256,192,2323,1,8,1:0:0:0:
256,192,3028,1,12,1:0:0:0:
256,192,3734,1,12,1:0:0:0:
256,192,4792,5,8,1:0:0:0:
256,192,5145,1,0,1:0:0:0:
256,192,5851,1,12,1:0:0:0:
256,192,6557,1,12,1:0:0:0:
256,192,7262,5,0,1:0:0:0:
256,192,7615,1,0,1:0:0:0:
256,192,7968,1,8,1:0:0:0:
256,192,8674,1,8,1:0:0:0:
256,192,9026,1,8,1:0:0:0:
256,192,9379,1,0,1:0:0:0:
256,192,10438,5,8,1:0:0:0:
256,192,10791,1,0,1:0:0:0:
256,192,11496,1,12,1:0:0:0:
256,192,12202,1,4,1:0:0:0:
256,192,12908,5,12,1:0:0:0:
256,192,13260,1,8,1:0:0:0:
256,192,13613,1,0,1:0:0:0:
256,192,14319,1,12,1:0:0:0:
256,192,15025,1,12,1:0:0:0:
256,192,16083,5,0,1:0:0:0:
256,192,16436,1,8,1:0:0:0:
256,192,17142,1,12,1:0:0:0:
256,192,17847,1,12,1:0:0:0:
256,192,18553,5,0,1:0:0:0:
256,192,18906,1,0,1:0:0:0:
256,192,19259,1,8,1:0:0:0:
256,192,19964,1,8,1:0:0:0:
256,192,20317,1,0,1:0:0:0:
256,192,20670,1,8,1:0:0:0:
256,192,21729,5,8,1:0:0:0:
256,192,22081,1,0,1:0:0:0:
256,192,22787,1,12,1:0:0:0:
256,192,23493,1,12,1:0:0:0:
256,192,24198,5,12,1:0:0:0:
256,192,24531,1,8,1:0:0:0:
256,192,24864,1,0,1:0:0:0:
256,192,25530,1,12,1:0:0:0:
256,192,26196,1,12,1:0:0:0:
256,192,27196,5,8,1:0:0:0:
256,192,27529,1,0,1:0:0:0:
256,192,28195,1,12,1:0:0:0:
256,192,28862,1,12,1:0:0:0:
256,192,29528,5,0,1:0:0:0:
256,192,29861,1,0,1:0:0:0:
256,192,30194,1,8,1:0:0:0:
256,192,30860,1,8,1:0:0:0:
256,192,31194,1,0,1:0:0:0:
256,192,31527,1,8,1:0:0:0:
256,192,32526,5,8,1:0:0:0:
256,192,32859,1,0,1:0:0:0:
256,192,33526,1,12,1:0:0:0:
256,192,34192,1,4,1:0:0:0:
256,192,34858,5,12,1:0:0:0:
256,192,35191,1,0,1:0:0:0:
256,192,35525,1,8,1:0:0:0:
256,192,36191,1,12,1:0:0:0:
256,192,36857,1,12,1:0:0:0:
256,192,37857,5,0,1:0:0:0:
256,192,38190,1,8,1:0:0:0:
256,192,38856,1,12,1:0:0:0:
256,192,39522,1,12,1:0:0:0:
256,192,40189,5,0,1:0:0:0:
256,192,40522,1,0,1:0:0:0:
256,192,40855,1,8,1:0:0:0:
256,192,41521,1,8,1:0:0:0:
256,192,41854,1,8,1:0:0:0:
256,192,42188,1,0,1:0:0:0:
256,192,43187,5,8,1:0:0:0:
256,192,43520,1,0,1:0:0:0:
256,192,44186,1,12,1:0:0:0:
256,192,44853,1,12,1:0:0:0:
256,192,45519,5,12,1:0:0:0:
256,192,45833,1,8,1:0:0:0:
256,192,46147,1,0,1:0:0:0:
256,192,46462,1,0,1:0:0:0:
256,192,46776,1,12,1:0:0:0:
256,192,47405,1,12,1:0:0:0:
256,192,48349,5,8,1:0:0:0:
256,192,48663,1,0,1:0:0:0:
256,192,48978,1,0,1:0:0:0:
256,192,49292,1,12,1:0:0:0:
256,192,49921,1,12,1:0:0:0:
256,192,50550,5,0,1:0:0:0:
256,192,50864,1,0,1:0:0:0:
256,192,51179,1,8,1:0:0:0:
256,192,51808,1,8,1:0:0:0:
256,192,52122,1,8,1:0:0:0:
256,192,52437,1,0,1:0:0:0:
256,192,53380,5,8,1:0:0:0:
256,192,53695,1,8,1:0:0:0:
256,192,54009,1,0,1:0:0:0:
256,192,54324,1,12,1:0:0:0:
256,192,54952,1,4,1:0:0:0:
256,192,55581,5,12,1:0:0:0:
256,192,55896,1,8,1:0:0:0:
256,192,56210,1,0,1:0:0:0:
256,192,56525,1,0,1:0:0:0:
256,192,56839,1,12,1:0:0:0:
256,192,57468,1,12,1:0:0:0:
256,192,58412,5,0,1:0:0:0:
256,192,58726,1,8,1:0:0:0:
256,192,59041,1,0,1:0:0:0:
256,192,59355,1,12,1:0:0:0:
256,192,59984,1,12,1:0:0:0:
256,192,60613,5,0,1:0:0:0:
256,192,60927,1,0,1:0:0:0:
256,192,61242,1,8,1:0:0:0:
256,192,61871,1,8,1:0:0:0:
256,192,62185,1,0,1:0:0:0:
256,192,62500,1,8,1:0:0:0:
256,192,63443,5,8,1:0:0:0:
256,192,63757,1,0,1:0:0:0:
256,192,64072,1,0,1:0:0:0:
256,192,64386,1,12,1:0:0:0:
256,192,65015,1,12,1:0:0:0:
256,192,65644,5,12,1:0:0:0:
256,192,65940,1,8,1:0:0:0:
256,192,66237,1,0,1:0:0:0:
256,192,66830,1,0,1:0:0:0:
256,192,67127,1,0,1:0:0:0:
256,192,67424,5,8,1:0:0:0:
256,192,68017,5,8,1:0:0:0:
256,192,68611,5,8,1:0:0:0:
256,192,69204,5,0,1:0:0:0:
256,192,70391,5,8,1:0:0:0:
256,192,70688,1,0,1:0:0:0:
256,192,70985,1,8,1:0:0:0:
256,192,71578,1,0,1:0:0:0:
256,192,71875,1,0,1:0:0:0:
256,192,72172,5,8,1:0:0:0:
256,192,72765,5,8,1:0:0:0:
256,192,73359,5,8,1:0:0:0:
256,192,73952,5,8,1:0:0:0:
256,192,75139,5,12,1:0:0:0:
256,192,75419,1,0,1:0:0:0:
256,192,75699,1,8,1:0:0:0:
256,192,76260,1,0,1:0:0:0:
256,192,76821,5,8,1:0:0:0:
256,192,77381,5,8,1:0:0:0:
256,192,77942,5,8,1:0:0:0:
256,192,78503,5,0,1:0:0:0:
256,192,79624,5,8,1:0:0:0:
256,192,79905,1,8,1:0:0:0:
256,192,80185,1,0,1:0:0:0:
256,192,80746,1,8,1:0:0:0:
256,192,81307,5,0,1:0:0:0:
256,192,81867,5,8,1:0:0:0:
256,192,82428,5,8,1:0:0:0:
256,192,82989,5,8,1:0:0:0:
256,192,84110,5,12,1:0:0:0:
256,192,84638,1,8,1:0:0:0:
256,192,84903,1,0,1:0:0:0:
256,192,85167,1,12,1:0:0:0:
256,192,85696,1,4,1:0:0:0:
256,192,86225,5,8,1:0:0:0:
256,192,86489,1,8,1:0:0:0:
256,192,86753,1,0,1:0:0:0:
256,192,87282,1,8,1:0:0:0:
256,192,88472,5,8,1:0:0:0:
256,192,88868,1,0,1:0:0:0:
256,192,89133,1,0,1:0:0:0:
256,192,89397,1,12,1:0:0:0:
256,192,89926,1,4,1:0:0:0:
256,192,90455,5,8,1:0:0:0:
256,192,90719,1,8,1:0:0:0:
256,192,90983,1,0,1:0:0:0:
256,192,91512,1,8,1:0:0:0:
256,192,92570,5,12,1:0:0:0:
256,192,92834,1,0,1:0:0:0:
256,192,93098,1,8,1:0:0:0:
256,192,93627,1,12,1:0:0:0:
256,192,94156,1,12,1:0:0:0:
256,192,94949,5,8,1:0:0:0:
256,192,95213,1,0,1:0:0:0:
256,192,95742,1,12,1:0:0:0:
256,192,96271,1,12,1:0:0:0:
256,192,96800,5,0,1:0:0:0:
256,192,97064,1,0,1:0:0:0:
256,192,97328,1,8,1:0:0:0:
256,192,97857,1,8,1:0:0:0:
256,192,98121,1,8,1:0:0:0:
256,192,98386,1,0,1:0:0:0:
256,192,99179,5,8,1:0:0:0:
256,192,99443,1,0,1:0:0:0:
256,192,99972,1,12,1:0:0:0:
256,192,100501,1,4,1:0:0:0:
256,192,101030,5,12,1:0:0:0:
256,192,101294,1,8,1:0:0:0:
256,192,101558,1,0,1:0:0:0:
256,192,102087,1,12,1:0:0:0:
256,192,102616,1,12,1:0:0:0:
256,192,103409,5,0,1:0:0:0:
256,192,103673,1,8,1:0:0:0:
256,192,104202,1,12,1:0:0:0:
256,192,104731,1,12,1:0:0:0:
256,192,105260,5,0,1:0:0:0:
256,192,105524,1,0,1:0:0:0:
256,192,105788,1,8,1:0:0:0:
256,192,106317,1,8,1:0:0:0:
256,192,106581,1,0,1:0:0:0:
256,192,106846,1,8,1:0:0:0:
256,192,107639,5,8,1:0:0:0:
256,192,107903,1,0,1:0:0:0:
256,192,108432,1,12,1:0:0:0:
256,192,108961,1,12,1:0:0:0:
256,192,109490,5,12,0:0:0:0:
