osu file format v14

[General]
AudioFilename: audio.mp3
AudioLeadIn: 0
PreviewTime: 147
Countdown: 0
SampleSet: Normal
StackLeniency: 0.7
Mode: 1
LetterboxInBreaks: 0
WidescreenStoryboard: 1

[Editor]
Bookmarks: 12908,24198,34859,45520,55582,65645,75140,84111,92571,101031,109491
DistanceSpacing: 1.2
BeatDivisor: 2
GridSize: 32
TimelineZoom: 1.2

[Metadata]
Title:GCN Baby Park
TitleUnicode:GC ベビィパーク
Artist:Kenta Nagata
ArtistUnicode:永田権太
Creator:nevqr
Version:100cc
Source:マリオカート8
Tags:azu_ masato honma satoshi bandoh takuo yamamoto eijiro nakagawa koji nishimura 本間将人 坂東慧 山本拓夫 中川英二郎 西村浩二 西村浩一 mario kart kart: mariokart 8 mk8 deluxe double dash!! ds tour switch club original soundtrack sound track 9 ost lap 2 マリオカート8 オリジナル サウンドトラック gamecube game cube ゲームキューブ videogame video game vgm instrumental electronic nintendo 任天堂 wii u wiiu bpm increase acceleration speed up tag2 tag4 tag coop co-op compatible
BeatmapID:4233974
BeatmapSetID:2031371

[Difficulty]
HPDrainRate:7
CircleSize:2
OverallDifficulty:4
ApproachRate:9
SliderMultiplier:1.4
SliderTickRate:1

[Events]
//Background and Video events
0,0,"baby park.jpg",0,-40
//Break Periods
//Storyboard Layer 0 (Background)
//Storyboard Layer 1 (Fail)
//Storyboard Layer 2 (Pass)
//Storyboard Layer 3 (Foreground)
//Storyboard Layer 4 (Overlay)
//Storyboard Sound Samples

[TimingPoints]
206,352.837400764481,4,1,0,70,1,0
1617,-100,4,1,0,60,0,0
24198,333.148250971682,4,1,0,65,1,0
45519,314.465408805031,4,1,0,70,1,0
65644,296.73590504451,4,1,0,75,1,0
75139,280.373831775701,4,1,0,80,1,0
84110,264.375413086583,4,1,0,85,1,0
92570,-100,4,1,0,90,0,1
109490,-100,4,1,0,90,0,0

[HitObjects]
256,192,206,5,0,1:0:0:0:
256,192,558,1,8,1:0:0:0:
256,192,735,1,0,1:0:0:0:
274,192,911,2,5,B|274:166|274:166|274:151|256:137|235:151|235:166|235:166|235:192|235:210|235:210|235:229|256:244|274:229|274:210|274:210|274:192,1,210,0|0,1:0|1:0,1:0:0:0:
256,192,1617,5,12,1:0:0:0:
256,192,1793,1,0,1:0:0:0:
256,192,1970,1,8,1:0:0:0:
256,192,2323,1,8,1:0:0:0:
256,192,2499,1,8,1:0:0:0:
256,192,2675,1,0,1:0:0:0:
256,192,3028,5,12,1:0:0:0:
256,192,3381,5,4,1:0:0:0:
256,192,3734,5,12,1:0:0:0:
256,192,4087,5,4,1:0:0:0:
256,192,4792,5,8,1:0:0:0:
256,192,5145,1,0,1:0:0:0:
256,192,5322,1,8,1:0:0:0:
256,192,5498,1,0,1:0:0:0:
256,192,5851,5,12,1:0:0:0:
256,192,6204,5,12,1:0:0:0:
256,192,6557,5,12,1:0:0:0:
256,192,6909,5,4,1:0:0:0:
256,192,7262,5,8,1:0:0:0:
256,192,7439,1,8,1:0:0:0:
256,192,7615,1,0,1:0:0:0:
256,192,7968,1,0,1:0:0:0:
256,192,8144,1,0,1:0:0:0:
256,192,8321,1,8,1:0:0:0:
256,192,8674,1,0,1:0:0:0:
256,192,9026,1,8,1:0:0:0:
256,192,9379,1,8,1:0:0:0:
256,192,9732,1,0,1:0:0:0:
256,192,10438,5,0,1:0:0:0:
256,192,10791,1,8,1:0:0:0:
256,192,10967,1,8,1:0:0:0:
256,192,11143,1,0,1:0:0:0:
256,192,11496,5,12,1:0:0:0:
256,192,11849,5,12,1:0:0:0:
256,192,12202,5,4,1:0:0:0:
256,192,12555,5,4,1:0:0:0:
256,192,12908,5,12,1:0:0:0:
256,192,13084,1,0,1:0:0:0:
256,192,13260,1,8,1:0:0:0:
256,192,13613,1,0,1:0:0:0:
256,192,13790,1,0,1:0:0:0:
256,192,13966,1,8,1:0:0:0:
256,192,14319,5,12,1:0:0:0:
256,192,14672,5,4,1:0:0:0:
256,192,15025,5,12,1:0:0:0:
256,192,15378,5,4,1:0:0:0:
256,192,16083,5,0,1:0:0:0:
256,192,16436,1,8,1:0:0:0:
256,192,16612,1,8,1:0:0:0:
256,192,16789,1,0,1:0:0:0:
256,192,17142,5,12,1:0:0:0:
256,192,17495,5,12,1:0:0:0:
256,192,17847,5,12,1:0:0:0:
256,192,18200,5,4,1:0:0:0:
256,192,18553,5,8,1:0:0:0:
256,192,18729,1,0,1:0:0:0:
256,192,18906,1,8,1:0:0:0:
256,192,19259,1,0,1:0:0:0:
256,192,19435,1,8,1:0:0:0:
256,192,19612,1,0,1:0:0:0:
256,192,19964,1,0,1:0:0:0:
256,192,20317,1,8,1:0:0:0:
256,192,20670,1,8,1:0:0:0:
256,192,21023,1,0,1:0:0:0:
256,192,21729,5,0,1:0:0:0:
256,192,22081,1,8,1:0:0:0:
256,192,22258,1,8,1:0:0:0:
256,192,22434,1,0,1:0:0:0:
256,192,22787,1,12,1:0:0:0:
256,192,23140,5,12,1:0:0:0:
274,192,23493,6,5,B|274:166|274:166|274:151|256:137|235:151|235:166|235:166|235:192|235:210|235:210|235:229|256:244|274:229|274:210|274:210|274:192,1,210,0|0,1:0|1:0,1:0:0:0:
256,192,24198,5,12,1:0:0:0:
256,192,24364,1,0,1:0:0:0:
256,192,24531,1,8,1:0:0:0:
256,192,24864,1,0,1:0:0:0:
256,192,25030,1,0,1:0:0:0:
256,192,25197,1,8,1:0:0:0:
256,192,25530,5,12,1:0:0:0:
256,192,25863,5,4,1:0:0:0:
256,192,26196,5,12,1:0:0:0:
256,192,26530,5,4,1:0:0:0:
256,192,27196,5,0,1:0:0:0:
256,192,27529,1,8,1:0:0:0:
256,192,27696,1,8,1:0:0:0:
256,192,27862,1,0,1:0:0:0:
256,192,28195,5,12,1:0:0:0:
256,192,28528,5,12,1:0:0:0:
256,192,28862,5,12,1:0:0:0:
256,192,29195,5,4,1:0:0:0:
256,192,29528,5,8,1:0:0:0:
256,192,29694,1,0,1:0:0:0:
256,192,29861,1,8,1:0:0:0:
256,192,30194,1,0,1:0:0:0:
256,192,30361,1,0,1:0:0:0:
256,192,30527,1,8,1:0:0:0:
256,192,30860,1,0,1:0:0:0:
256,192,31194,1,8,1:0:0:0:
256,192,31527,1,8,1:0:0:0:
256,192,31860,1,0,1:0:0:0:
256,192,32526,5,0,1:0:0:0:
256,192,32859,1,8,1:0:0:0:
256,192,33026,1,8,1:0:0:0:
256,192,33193,1,0,1:0:0:0:
256,192,33526,5,12,1:0:0:0:
256,192,33859,5,12,1:0:0:0:
256,192,34192,5,4,1:0:0:0:
256,192,34525,5,4,1:0:0:0:
256,192,34858,5,12,1:0:0:0:
256,192,35025,1,0,1:0:0:0:
256,192,35191,1,8,1:0:0:0:
256,192,35525,1,8,1:0:0:0:
256,192,35691,1,8,1:0:0:0:
256,192,35858,1,0,1:0:0:0:
256,192,36191,5,12,1:0:0:0:
256,192,36524,5,4,1:0:0:0:
256,192,36857,5,12,1:0:0:0:
256,192,37190,5,4,1:0:0:0:
256,192,37857,5,8,1:0:0:0:
256,192,38190,1,0,1:0:0:0:
256,192,38356,1,8,1:0:0:0:
256,192,38523,1,0,1:0:0:0:
256,192,38856,1,12,1:0:0:0:
256,192,39189,1,12,1:0:0:0:
256,192,39522,1,12,1:0:0:0:
256,192,39855,1,4,1:0:0:0:
256,192,40189,5,8,1:0:0:0:
256,192,40355,1,8,1:0:0:0:
256,192,40522,1,0,1:0:0:0:
256,192,40855,1,0,1:0:0:0:
256,192,41021,1,0,1:0:0:0:
256,192,41188,1,8,1:0:0:0:
256,192,41521,1,0,1:0:0:0:
256,192,41854,1,8,1:0:0:0:
256,192,42188,1,8,1:0:0:0:
256,192,42521,1,0,1:0:0:0:
256,192,43187,5,0,1:0:0:0:
256,192,43520,1,8,1:0:0:0:
256,192,43687,1,8,1:0:0:0:
256,192,43853,1,0,1:0:0:0:
256,192,44186,1,12,1:0:0:0:
256,192,44520,5,12,1:0:0:0:
274,192,44853,6,5,B|274:166|274:166|274:151|256:137|235:151|235:166|235:166|235:192|235:210|235:210|235:229|256:244|274:229|274:210|274:210|274:192,1,210,0|0,1:0|1:0,1:0:0:0:
256,192,45519,5,12,1:0:0:0:
256,192,45676,1,0,1:0:0:0:
256,192,45833,1,8,1:0:0:0:
256,192,46147,1,8,1:0:0:0:
256,192,46305,1,8,1:0:0:0:
256,192,46462,1,0,1:0:0:0:
256,192,46619,1,0,1:0:0:0:
256,192,46776,5,12,1:0:0:0:
256,192,47091,5,4,1:0:0:0:
256,192,47405,5,12,1:0:0:0:
256,192,47720,5,4,1:0:0:0:
256,192,48349,5,8,1:0:0:0:
256,192,48506,1,0,1:0:0:0:
256,192,48663,1,8,1:0:0:0:
256,192,48820,1,8,1:0:0:0:
256,192,48978,1,0,1:0:0:0:
256,192,49292,5,12,1:0:0:0:
256,192,49607,5,12,1:0:0:0:
256,192,49921,5,12,1:0:0:0:
256,192,50235,5,4,1:0:0:0:
256,192,50550,5,8,1:0:0:0:
256,192,50707,1,8,1:0:0:0:
256,192,50864,1,0,1:0:0:0:
256,192,51179,1,0,1:0:0:0:
256,192,51336,1,0,1:0:0:0:
256,192,51493,1,8,1:0:0:0:
255,192,51651,1,8,1:0:0:0:
256,192,51808,1,0,1:0:0:0:
256,192,52122,1,8,1:0:0:0:
256,192,52437,1,8,1:0:0:0:
256,192,52751,1,0,1:0:0:0:
256,192,53380,5,8,1:0:0:0:
256,192,53537,1,0,1:0:0:0:
256,192,53695,1,8,1:0:0:0:
256,192,53852,1,8,1:0:0:0:
256,192,54009,1,0,1:0:0:0:
256,192,54324,5,12,1:0:0:0:
256,192,54638,5,12,1:0:0:0:
256,192,54952,5,4,1:0:0:0:
256,192,55267,5,4,1:0:0:0:
256,192,55581,5,12,1:0:0:0:
256,192,55739,1,0,1:0:0:0:
256,192,55896,1,8,1:0:0:0:
256,192,56210,1,0,1:0:0:0:
256,192,56368,1,8,1:0:0:0:
256,192,56525,1,0,1:0:0:0:
256,192,56682,1,0,1:0:0:0:
256,192,56839,5,12,1:0:0:0:
256,192,57154,5,4,1:0:0:0:
256,192,57468,5,12,1:0:0:0:
256,192,57783,5,4,1:0:0:0:
256,192,58412,5,0,1:0:0:0:
256,192,58569,1,0,1:0:0:0:
256,192,58726,1,8,1:0:0:0:
256,192,58883,1,8,1:0:0:0:
256,192,59041,1,0,1:0:0:0:
256,192,59355,5,12,1:0:0:0:
256,192,59669,5,12,1:0:0:0:
256,192,59984,5,12,1:0:0:0:
256,192,60298,5,4,1:0:0:0:
256,192,60613,5,8,1:0:0:0:
256,192,60770,1,0,1:0:0:0:
256,192,60927,1,8,1:0:0:0:
256,192,61242,1,8,1:0:0:0:
256,192,61399,1,0,1:0:0:0:
256,192,61556,1,8,1:0:0:0:
255,192,61713,1,8,1:0:0:0:
256,192,61871,1,0,1:0:0:0:
256,192,62185,1,8,1:0:0:0:
256,192,62500,1,8,1:0:0:0:
256,192,62814,1,0,1:0:0:0:
256,192,63443,5,0,1:0:0:0:
256,192,63600,1,0,1:0:0:0:
256,192,63757,1,8,1:0:0:0:
256,192,63915,1,8,1:0:0:0:
256,192,64072,1,0,1:0:0:0:
256,192,64386,1,12,1:0:0:0:
256,192,64701,5,12,1:0:0:0:
274,192,65015,6,5,B|274:166|274:166|274:151|256:137|235:151|235:166|235:166|235:192|235:210|235:210|235:229|256:244|274:229|274:210|274:210|274:192,1,210,0|0,1:0|1:0,1:0:0:0:
256,192,65644,5,12,1:0:0:0:
256,192,65940,1,8,1:0:0:0:
256,192,66237,1,0,1:0:0:0:
256,192,66534,1,8,1:0:0:0:
256,192,66830,1,0,1:0:0:0:
256,192,66979,1,0,1:0:0:0:
256,192,67127,1,8,1:0:0:0:
256,192,67424,1,8,1:0:0:0:
256,192,67572,1,8,1:0:0:0:
256,192,67721,5,0,1:0:0:0:
256,192,68017,5,8,1:0:0:0:
256,192,68314,5,0,1:0:0:0:
256,192,68611,5,8,1:0:0:0:
256,192,68908,5,0,1:0:0:0:
256,192,69204,5,8,1:0:0:0:
256,192,69501,5,8,1:0:0:0:
256,192,69798,5,0,1:0:0:0:
256,192,70391,5,8,1:0:0:0:
256,192,70540,1,8,1:0:0:0:
256,192,70688,1,0,1:0:0:0:
256,192,70985,1,8,1:0:0:0:
256,192,71281,1,0,1:0:0:0:
256,192,71578,1,8,1:0:0:0:
256,192,71727,1,0,1:0:0:0:
256,192,71875,1,8,1:0:0:0:
256,192,72172,1,0,1:0:0:0:
256,192,72320,1,0,1:0:0:0:
256,192,72468,5,8,1:0:0:0:
256,192,72765,5,8,1:0:0:0:
256,192,73062,5,0,1:0:0:0:
256,192,73359,5,8,1:0:0:0:
256,192,73655,5,0,1:0:0:0:
256,192,73952,5,8,1:0:0:0:
256,192,74249,5,8,1:0:0:0:
256,192,74546,5,0,1:0:0:0:
256,192,75139,5,12,1:0:0:0:
256,192,75419,1,0,1:0:0:0:
256,192,75699,1,0,1:0:0:0:
256,192,75980,1,8,1:0:0:0:
256,192,76260,1,0,1:0:0:0:
256,192,76400,1,0,1:0:0:0:
256,192,76540,5,8,1:0:0:0:
256,192,76821,5,8,1:0:0:0:
256,192,77101,5,0,1:0:0:0:
256,192,77381,5,8,1:0:0:0:
256,192,77662,5,0,1:0:0:0:
256,192,77942,5,8,1:0:0:0:
256,192,78223,5,0,1:0:0:0:
256,192,78503,5,8,1:0:0:0:
256,192,78783,5,8,1:0:0:0:
256,192,79064,5,0,1:0:0:0:
256,192,79624,5,8,1:0:0:0:
256,192,79765,1,0,1:0:0:0:
256,192,79905,1,8,1:0:0:0:
256,192,80185,1,0,1:0:0:0:
256,192,80466,1,8,1:0:0:0:
256,192,80746,1,0,1:0:0:0:
256,192,80886,1,0,1:0:0:0:
256,192,81026,5,8,1:0:0:0:
256,192,81307,5,8,1:0:0:0:
256,192,81587,5,0,1:0:0:0:
256,192,81867,5,8,1:0:0:0:
256,192,82148,5,0,1:0:0:0:
256,192,82428,5,8,1:0:0:0:
256,192,82709,5,0,1:0:0:0:
256,192,82989,5,8,1:0:0:0:
256,192,83269,5,8,1:0:0:0:
256,192,83550,5,0,1:0:0:0:
256,192,84110,5,12,1:0:0:0:
256,192,84242,1,0,0:0:0:0:
256,192,84506,1,0,1:0:0:0:
256,192,84638,1,8,1:0:0:0:
256,192,84770,1,8,1:0:0:0:
256,192,84903,1,0,1:0:0:0:
256,192,85167,5,12,1:0:0:0:
256,192,85431,5,12,1:0:0:0:
256,192,85696,5,4,1:0:0:0:
256,192,85960,5,4,1:0:0:0:
256,192,86225,5,8,1:0:0:0:
256,192,86357,1,8,1:0:0:0:
256,192,86489,1,0,1:0:0:0:
256,192,86753,1,0,1:0:0:0:
256,192,86885,1,8,1:0:0:0:
256,192,87150,5,0,1:0:0:0:
256,192,87282,1,0,1:0:0:0:
256,192,87414,1,8,1:0:0:0:
256,192,87679,1,8,1:0:0:0:
256,192,87811,1,0,1:0:0:0:
256,192,88340,5,0,1:0:0:0:
256,192,88472,1,8,1:0:0:0:
256,192,88736,1,8,1:0:0:0:
256,192,88868,1,0,1:0:0:0:
256,192,89000,1,0,1:0:0:0:
256,192,89133,1,8,1:0:0:0:
256,192,89397,5,12,1:0:0:0:
256,192,89661,5,12,1:0:0:0:
256,192,89926,5,4,1:0:0:0:
256,192,90190,5,4,1:0:0:0:
256,192,90455,5,8,1:0:0:0:
256,192,90587,1,0,1:0:0:0:
256,192,90719,1,8,1:0:0:0:
256,192,90983,1,0,1:0:0:0:
256,192,91248,1,8,1:0:0:0:
256,192,91512,5,0,1:0:0:0:
256,192,91644,1,0,1:0:0:0:
256,192,91776,1,8,1:0:0:0:
256,192,92041,1,0,1:0:0:0:
256,192,92570,5,12,1:0:0:0:
256,192,92834,1,0,1:0:0:0:
256,192,93098,1,8,1:0:0:0:
256,192,93230,1,8,1:0:0:0:
256,192,93363,1,0,1:0:0:0:
256,192,93627,5,12,1:0:0:0:
256,192,93891,5,4,1:0:0:0:
256,192,94156,5,12,1:0:0:0:
256,192,94420,5,4,1:0:0:0:
256,192,94949,5,8,1:0:0:0:
256,192,95213,1,0,1:0:0:0:
256,192,95345,1,8,1:0:0:0:
256,192,95478,1,0,1:0:0:0:
256,192,95742,5,12,1:0:0:0:
256,192,96006,5,12,1:0:0:0:
256,192,96271,5,12,1:0:0:0:
256,192,96535,5,4,1:0:0:0:
256,192,96800,5,8,1:0:0:0:
256,192,96932,1,8,1:0:0:0:
256,192,97064,1,0,1:0:0:0:
256,192,97328,1,0,1:0:0:0:
256,192,97460,1,0,1:0:0:0:
256,192,97593,1,8,1:0:0:0:
256,192,97857,1,0,1:0:0:0:
256,192,98121,1,8,1:0:0:0:
256,192,98386,1,8,1:0:0:0:
256,192,98650,1,0,1:0:0:0:
256,192,99179,5,0,1:0:0:0:
256,192,99443,1,8,1:0:0:0:
256,192,99575,1,8,1:0:0:0:
256,192,99708,1,0,1:0:0:0:
256,192,99972,5,12,1:0:0:0:
256,192,100236,5,12,1:0:0:0:
256,192,100501,5,4,1:0:0:0:
256,192,100765,5,4,1:0:0:0:
256,192,101030,5,12,1:0:0:0:
256,192,101294,1,8,1:0:0:0:
256,192,101558,1,0,1:0:0:0:
256,192,101690,1,0,1:0:0:0:
256,192,101823,1,8,1:0:0:0:
256,192,102087,1,12,1:0:0:0:
256,192,102351,5,4,1:0:0:0:
256,192,102616,5,12,1:0:0:0:
256,192,102880,5,4,1:0:0:0:
256,192,103409,5,0,1:0:0:0:
256,192,103673,1,8,1:0:0:0:
256,192,103805,1,8,1:0:0:0:
256,192,103938,1,0,1:0:0:0:
256,192,104202,5,12,1:0:0:0:
256,192,104466,5,12,1:0:0:0:
256,192,104731,5,12,1:0:0:0:
256,192,104995,5,4,1:0:0:0:
256,192,105260,5,8,1:0:0:0:
256,192,105392,1,0,1:0:0:0:
256,192,105524,1,8,1:0:0:0:
256,192,105788,1,0,1:0:0:0:
256,192,105920,1,8,1:0:0:0:
256,192,106053,1,0,1:0:0:0:
256,192,106317,1,0,1:0:0:0:
256,192,106581,1,8,1:0:0:0:
256,192,106846,1,8,1:0:0:0:
256,192,107110,1,0,1:0:0:0:
256,192,107639,5,0,1:0:0:0:
256,192,107903,1,8,1:0:0:0:
256,192,108035,1,8,1:0:0:0:
256,192,108168,1,0,1:0:0:0:
256,192,108432,1,12,1:0:0:0:
256,192,108696,5,12,1:0:0:0:
274,192,108961,6,5,B|274:166|274:166|274:151|256:137|235:151|235:166|235:166|235:192|235:210|235:210|235:229|256:244|274:229|274:210|274:210|274:192,1,210,0|0,1:0|1:0,1:0:0:0:
256,192,109490,5,12,0:0:0:0:
