osu file format v14

[General]
AudioFilename: audio.mp3
AudioLeadIn: 0
PreviewTime: 24116
Countdown: 0
SampleSet: Normal
StackLeniency: 1
Mode: 0
LetterboxInBreaks: 0
WidescreenStoryboard: 1

[Editor]
Bookmarks: 9150,109437
DistanceSpacing: 0.1
BeatDivisor: 4
GridSize: 4
TimelineZoom: 3.900003

[Metadata]
Title:GCN Baby Park (Game Ver.)
TitleUnicode:GCN Baby Park (Game Ver.)
Artist:Kenta Nagata
ArtistUnicode:Kenta Nagata
Creator:RobotTetris
Version:150cc
Source:Mario Kart 8
Tags:Masato Honma Satoshi Bandoh Takuo Yamamoto Eijiro Nakagawa Koji Nishimura Deluxe Switch Club Original Sound Track ost lap 1 2 mario kart nintendo mariokart instrumental gamecube game cube video game
BeatmapID:2355160
BeatmapSetID:619050

[Difficulty]
HPDrainRate:5
CircleSize:3.4
OverallDifficulty:7
ApproachRate:9.2
SliderMultiplier:1.5
SliderTickRate:1

[Events]
//Background and Video events
0,0,"mario-kart-8-baby-park.jpg",0,0
//Break Periods
//Storyboard Layer 0 (Background)
//Storyboard Layer 1 (Fail)
//Storyboard Layer 2 (Pass)
//Storyboard Layer 3 (Foreground)
//Storyboard Layer 4 (Overlay)
//Storyboard Sound Samples

[TimingPoints]
1564,352.837400764481,4,1,1,35,1,0
24145,333.148250971682,4,1,1,40,1,0
24145,-90.9090909090909,4,1,1,40,0,0
45466,314.465408805031,4,1,1,45,1,0
45466,-83.3333333333333,4,1,1,45,0,0
65591,296.73590504451,4,1,1,40,1,0
65591,-76.9230769230769,4,1,1,40,0,0
75086,280.373831775701,4,1,1,50,1,0
75086,-71.4285714285714,4,1,1,50,0,0
84057,264.375413086583,4,1,1,50,1,0
84057,-66.6666666666667,4,1,1,50,0,0
92517,-66.6666666666667,4,1,1,50,0,1
125828,-50,4,1,1,50,0,1
126357,-66.6666666666667,4,1,1,50,0,0

[Colours]
Combo1 : 0,0,255
Combo2 : 255,0,0
Combo3 : 244,250,37
Combo4 : 0,255,0

[HitObjects]
376,248,1564,5,6,0:0:0:0:
210,236,1740,1,0,0:0:0:0:
210,236,1828,1,0,0:0:0:0:
210,236,1916,1,8,0:0:0:0:
336,150,2093,1,0,0:0:0:0:
266,339,2269,2,0,L|163:346,1,75,2|0,0:0|0:0,0:0:0:0:
294,244,2622,2,0,L|397:237,1,75,8|0,0:0|0:0,0:0:0:0:
437,151,2975,6,0,L|426:53,1,75,2|0,0:0|0:0,0:0:0:0:
315,43,3328,6,0,L|326:141,1,75,8|0,0:0|0:0,0:0:0:0:
215,167,3681,6,0,L|204:69,1,75,2|0,0:0|0:0,0:0:0:0:
90,57,4033,6,0,L|109:221,1,150,8|2,0:0|0:0,0:0:0:0:
167,353,4563,1,0,0:0:0:0:
167,353,4651,1,0,0:0:0:0:
167,353,4739,1,8,0:0:0:0:
306,261,4915,1,0,0:0:0:0:
182,200,5092,2,0,L|86:207,1,75,2|0,0:0|0:0,0:0:0:0:
271,349,5445,2,0,L|367:342,1,75,8|0,0:0|0:0,0:0:0:0:
460,251,5798,6,0,L|494:148,1,75,2|0,0:0|0:0,0:0:0:0:
345,205,6150,6,0,L|346:109,1,75,8|0,0:0|0:0,0:0:0:0:
224,237,6503,6,0,L|183:143,1,75,2|0,0:0|0:0,0:0:0:0:
178,349,6856,6,0,L|85:332,1,75,8|0,0:0|0:0,0:0:0:0:
45,210,7209,2,0,P|32:174|32:124,1,75,2|0,0:0|0:0,0:0:0:0:
201,110,7562,1,8,0:0:0:0:
136,252,7738,1,0,0:0:0:0:
86,54,7915,2,0,P|127:37|173:35,1,75,2|0,0:0|0:0,0:0:0:0:
237,221,8267,1,8,0:0:0:0:
106,143,8444,1,0,0:0:0:0:
289,90,8620,6,0,L|395:71,1,75,2|0,0:0|0:0,0:0:0:0:
402,200,8973,6,0,L|388:303,1,75,8|0,0:0|0:0,0:0:0:0:
222,225,9326,6,0,L|235:130,1,75,2|0,0:0|0:0,0:0:0:0:
293,335,9679,6,0,L|124:297,1,150,8|2,0:0|0:0,0:0:0:0:
82,190,10208,1,0,0:0:0:0:
82,190,10296,1,0,0:0:0:0:
82,190,10384,1,8,0:0:0:0:
223,112,10561,1,0,0:0:0:0:
90,76,10737,2,0,P|57:60|6:67,1,75,2|0,0:0|0:0,0:0:0:0:
203,219,11090,2,0,P|236:235|287:228,1,75,8|0,0:0|0:0,0:0:0:0:
393,122,11443,6,0,L|403:39,1,75,2|0,0:0|0:0,0:0:0:0:
486,191,11796,6,0,L|476:273,1,75,8|0,0:0|0:0,0:0:0:0:
273,233,12149,6,0,L|283:151,1,75,2|0,0:0|0:0,0:0:0:0:
372,272,12501,5,8,0:0:0:0:
372,272,12590,1,0,0:0:0:0:
372,272,12678,2,0,L|362:354,1,75,0|2,0:0|0:0,0:0:0:0:
180,300,13031,2,0,L|124:305,2,37.5,0|0|8,0:0|0:0|0:0,0:0:0:0:
309,221,13384,1,0,0:0:0:0:
173,161,13560,2,0,P|130:169|78:162,1,75,2|0,0:0|0:0,0:0:0:0:
130,42,13913,2,0,P|169:35|224:44,1,75,8|0,0:0|0:0,0:0:0:0:
255,140,14266,6,0,L|255:246,1,75,2|0,0:0|0:0,0:0:0:0:
149,290,14618,6,0,L|58:290,1,75,8|0,0:0|0:0,0:0:0:0:
255,140,14971,6,0,L|255:246,1,75,2|0,0:0|0:0,0:0:0:0:
359,290,15324,6,0,L|516:290,1,150,8|2,0:0|0:0,0:0:0:0:
379,199,15853,1,0,0:0:0:0:
379,199,15942,1,0,0:0:0:0:
379,199,16030,1,8,0:0:0:0:
512,154,16206,1,0,0:0:0:0:
416,81,16383,2,0,P|377:73|328:83,1,75,2|0,0:0|0:0,0:0:0:0:
270,248,16736,2,0,P|310:258|365:246,1,75,8|0,0:0|0:0,0:0:0:0:
445,163,17088,6,0,L|456:63,1,75,2|0,0:0|0:0,0:0:0:0:
247,69,17441,6,0,L|236:169,1,75,8|0,0:0|0:0,0:0:0:0:
333,220,17794,6,0,L|344:120,1,75,2|0,0:0|0:0,0:0:0:0:
138,112,18147,6,0,L|127:212,1,75,8|0,0:0|0:0,0:0:0:0:
112,291,18500,2,0,P|76:300|29:301,2,75,2|0|8,0:0|0:0|0:0,0:0:0:0:
199,196,19029,1,0,0:0:0:0:
295,287,19205,2,0,P|331:296|378:297,2,75,2|0|8,0:0|0:0|0:0,0:0:0:0:
199,196,19735,1,0,0:0:0:0:
308,88,19911,6,0,P|345:69|409:99,1,75,2|0,0:0|0:0,0:0:0:0:
338,260,20264,6,0,P|296:273|237:249,1,75,8|0,0:0|0:0,0:0:0:0:
433,166,20617,6,0,L|425:258,1,75,2|0,0:0|0:0,0:0:0:0:
199,195,20970,6,0,L|211:40,1,150,8|2,0:0|0:0,0:0:0:0:
381,55,21499,1,0,0:0:0:0:
381,55,21587,1,0,0:0:0:0:
381,55,21675,1,8,0:0:0:0:
313,201,21852,1,0,0:0:0:0:
260,101,22028,2,0,L|173:83,1,75,2|0,0:0|0:0,0:0:0:0:
399,161,22381,2,0,L|486:143,1,75
459,301,22734,6,0,L|325:313,1,112.5,2|0,0:0|0:0,0:0:0:0:
277,320,23087,2,0,P|281:260|241:187,1,112.5,8|0,0:0|0:0,0:0:0:0:
177,156,23439,6,0,P|155:149|127:152,3,37.5,2|0|0|0,0:0|0:0|0:0|0:0,0:0:0:0:
259,111,23792,2,0,P|259:92|264:74,3,37.5,8|0|0|0,0:0|0:0|0:0|0:0,0:0:0:0:
347,136,24145,6,0,L|299:227,1,82.5000025177003,6|0,0:0|0:0,0:0:0:0:
296,233,24394,1,0,0:0:0:0:
282,255,24478,1,8,0:0:0:0:
391,367,24644,1,0,0:0:0:0:
450,199,24811,2,0,P|460:163|458:101,1,82.5000025177003,2|0,0:0|0:0,0:0:0:0:
326,56,25144,2,0,P|313:98|320:156,1,82.5000025177003,8|0,0:0|0:0,0:0:0:0:
366,329,25477,6,0,L|257:313,1,82.5000025177003,2|0,0:0|0:0,0:0:0:0:
117,301,25810,6,0,L|135:183,1,82.5000025177003,8|0,0:0|0:0,0:0:0:0:
146,53,26143,6,0,L|263:71,1,82.5000025177003,2|0,0:0|0:0,0:0:0:0:
395,101,26477,6,0,L|361:301,1,165.000005035401,8|2,0:0|0:0,0:0:0:0:
245,367,26976,1,0,0:0:0:0:
245,367,27060,1,0,0:0:0:0:
245,367,27143,1,8,0:0:0:0:
186,204,27309,1,0,0:0:0:0:
332,251,27476,2,0,P|380:265|425:257,1,82.5000025177003,2|0,0:0|0:0,0:0:0:0:
373,99,27809,2,0,L|259:101,1,82.5000025177003,8|0,0:0|0:0,0:0:0:0:
156,107,28142,6,0,L|143:-10,1,82.5000025177003,2|0,0:0|0:0,0:0:0:0:
279,176,28475,6,0,L|292:59,1,82.5000025177003,8|0,0:0|0:0,0:0:0:0:
119,264,28809,6,0,L|106:147,1,82.5000025177003,2|0,0:0|0:0,0:0:0:0:
339,316,29142,6,0,L|352:199,1,82.5000025177003,8|0,0:0|0:0,0:0:0:0:
365,84,29475,1,2,0:0:0:0:
264,157,29641,1,0,0:0:0:0:
433,174,29808,2,0,L|541:189,1,82.5000025177003,8|0,0:0|0:0,0:0:0:0:
449,307,30141,1,2,0:0:0:0:
348,234,30308,1,0,0:0:0:0:
280,324,30474,2,0,L|172:339,1,82.5000025177003,8|0,0:0|0:0,0:0:0:0:
103,125,30807,6,0,L|206:125,1,82.5000025177003,2|0,0:0|0:0,0:0:0:0:
143,273,31141,6,0,L|40:273,1,82.5000025177003,8|0,0:0|0:0,0:0:0:0:
139,89,31474,6,0,L|242:89,1,82.5000025177003,2|0,0:0|0:0,0:0:0:0:
90,319,31808,6,0,L|-13:319,1,82.5000025177003,8|0,0:0|0:0,0:0:0:0:
80,127,32140,1,2,0:0:0:0:
196,229,32307,1,0,0:0:0:0:
196,229,32390,1,0,0:0:0:0:
196,229,32473,1,8,0:0:0:0:
25,238,32640,1,0,0:0:0:0:
196,229,32806,2,0,L|187:326,1,82.5000025177003,2|0,0:0|0:0,0:0:0:0:
80,127,33140,2,0,L|89:30,1,82.5000025177003,8|0,0:0|0:0,0:0:0:0:
364,98,33473,6,0,L|371:196,1,82.5000025177003,2|0,0:0|0:0,0:0:0:0:
174,130,33806,6,0,L|167:32,1,82.5000025177003,8|0,0:0|0:0,0:0:0:0:
338,254,34139,6,0,L|345:352,1,82.5000025177003,2|0,0:0|0:0,0:0:0:0:
148,286,34472,5,8,0:0:0:0:
148,286,34555,1,0,0:0:0:0:
148,286,34639,2,0,L|141:188,1,82.5000025177003,0|2,0:0|0:0,0:0:0:0:
135,66,34972,2,0,L|133:23,2,41.2500012588501,0|0|8,0:0|0:0|0:0,0:0:0:0:
43,152,35305,1,0,0:0:0:0:
227,130,35472,2,0,L|319:120,1,82.5000025177003,2|0,0:0|0:0,0:0:0:0:
380,243,35805,2,0,L|288:253,1,82.5000025177003,8|0,0:0|0:0,0:0:0:0:
153,271,36138,6,0,L|168:380,1,82.5000025177003,2|0,0:0|0:0,0:0:0:0:
177,89,36471,6,0,L|68:104,1,82.5000025177003,8|0,0:0|0:0,0:0:0:0:
359,113,36804,6,0,L|344:4,1,82.5000025177003,2|0,0:0|0:0,0:0:0:0:
335,294,37137,6,0,P|451:265|475:198,1,165.000005035401,8|2,0:0|0:0,0:0:0:0:
358,93,37637,1,0,0:0:0:0:
358,93,37720,1,0,0:0:0:0:
358,93,37804,1,8,0:0:0:0:
495,52,37970,1,0,0:0:0:0:
375,185,38137,2,0,L|257:176,1,82.5000025177003,2|0,0:0|0:0,0:0:0:0:
203,56,38470,2,0,L|321:47,1,82.5000025177003,8|0,0:0|0:0,0:0:0:0:
410,113,38803,6,0,L|514:113,1,82.5000025177003,2|0,0:0|0:0,0:0:0:0:
364,260,39136,6,0,L|260:260,1,82.5000025177003,8|0,0:0|0:0,0:0:0:0:
204,113,39469,6,0,L|308:113,1,82.5000025177003,2|0,0:0|0:0,0:0:0:0:
158,260,39802,6,0,L|54:260,1,82.5000025177003,8|0,0:0|0:0,0:0:0:0:
60,72,40136,1,2,0:0:0:0:
60,72,40302,1,0,0:0:0:0:
178,106,40469,2,0,L|265:106,1,82.5000025177003,8|0,0:0|0:0,0:0:0:0:
41,184,40802,1,2,0:0:0:0:
41,184,40968,1,0,0:0:0:0:
159,218,41135,2,0,L|247:218,1,82.5000025177003,8|0,0:0|0:0,0:0:0:0:
394,336,41468,6,0,P|357:347|312:336,1,82.5000025177003,2|0,0:0|0:0,0:0:0:0:
428,138,41801,6,0,P|456:164|469:209,1,82.5000025177003,8|0,0:0|0:0,0:0:0:0:
241,216,42135,6,0,P|249:178|282:144,1,82.5000025177003,2|0,0:0|0:0,0:0:0:0:
394,336,42468,6,0,L|198:335,1,165.000005035401,8|2,0:0|0:0,0:0:0:0:
145,190,42967,1,0,0:0:0:0:
145,190,43051,1,0,0:0:0:0:
145,190,43134,1,8,0:0:0:0:
79,337,43301,1,0,0:0:0:0:
240,244,43467,2,0,L|324:241,1,82.5000025177003,2|0,0:0|0:0,0:0:0:0:
401,113,43800,2,0,L|317:116,1,82.5000025177003,8|0,0:0|0:0,0:0:0:0:
163,103,44133,6,0,P|168:185|131:251,1,123.75000377655,2|0,0:0|0:0,0:0:0:0:
155,255,44467,2,0,P|224:239|303:250,1,123.75000377655,8|0,0:0|0:0,0:0:0:0:
368,237,44800,6,0,L|371:195,3,41.2500012588501,2|0|0|0,0:0|0:0|0:0|0:0,0:0:0:0:
459,252,45133,2,0,L|456:294,3,41.2500012588501,8|0|0|0,0:0|0:0|0:0|0:0,0:0:0:0:
466,156,45466,6,0,P|467:105|422:61,1,89.9999972534181,6|0,0:0|0:0,0:0:0:0:
437,64,45701,1,0,0:0:0:0:
427,54,45779,1,8,0:0:0:0:
326,190,45937,1,0,0:0:0:0:
231,51,46094,2,0,P|175:43|136:52,1,89.9999972534181,2|0,0:0|0:0,0:0:0:0:
228,225,46409,2,0,P|239:179|226:111,1,89.9999972534181,8|0,0:0|0:0,0:0:0:0:
363,81,46723,6,0,P|416:74|464:83,1,89.9999972534181,2|0,0:0|0:0,0:0:0:0:
350,278,47038,6,0,P|297:285|249:276,1,89.9999972534181,8|0,0:0|0:0,0:0:0:0:
451,79,47352,6,0,P|466:130|460:177,1,89.9999972534181,2|0,0:0|0:0,0:0:0:0:
261,279,47667,6,0,P|245:187|260:99,1,179.999994506836,8|2,0:0|0:0,0:0:0:0:
464,186,48138,1,0,0:0:0:0:
464,186,48217,1,0,0:0:0:0:
464,186,48296,1,8,0:0:0:0:
387,322,48453,1,0,0:0:0:0:
322,183,48610,2,0,L|207:172,1,89.9999972534181,2|0,0:0|0:0,0:0:0:0:
173,49,48925,2,0,L|288:38,1,89.9999972534181,8|0,0:0|0:0,0:0:0:0:
415,107,49239,6,0,L|415:233,1,89.9999972534181,2|0,0:0|0:0,0:0:0:0:
97,277,49554,6,0,L|97:151,1,89.9999972534181,8|0,0:0|0:0,0:0:0:0:
329,151,49868,6,0,L|329:277,1,89.9999972534181,2|0,0:0|0:0,0:0:0:0:
194,227,50182,6,0,L|194:101,1,89.9999972534181,8|0,0:0|0:0,0:0:0:0:
323,41,50497,1,2,0:0:0:0:
446,100,50654,1,0,0:0:0:0:
321,164,50811,2,0,L|316:293,1,89.9999972534181,8|0,0:0|0:0,0:0:0:0:
189,41,51126,1,2,0:0:0:0:
66,100,51283,1,0,0:0:0:0:
191,164,51440,2,0,L|196:293,1,89.9999972534181,8|0,0:0|0:0,0:0:0:0:
332,343,51755,6,0,L|425:338,1,89.9999972534181,2|0,0:0|0:0,0:0:0:0:
179,283,52069,6,0,L|86:278,1,89.9999972534181,8|0,0:0|0:0,0:0:0:0:
346,217,52384,6,0,L|439:212,1,89.9999972534181,2|0,0:0|0:0,0:0:0:0:
193,157,52698,6,0,L|12:144,1,179.999994506836,8|2,0:0|0:0,0:0:0:0:
109,59,53170,1,0,0:0:0:0:
109,59,53249,1,0,0:0:0:0:
109,59,53327,1,8,0:0:0:0:
59,237,53484,1,0,0:0:0:0:
193,157,53642,2,0,L|296:163,1,89.9999972534181,2|0,0:0|0:0,0:0:0:0:
347,290,53956,2,0,L|244:296,1,89.9999972534181,8|0,0:0|0:0,0:0:0:0:
59,237,54271,6,0,P|53:190|58:135,1,89.9999972534181,2|0,0:0|0:0,0:0:0:0:
383,138,54585,6,0,P|389:185|384:240,1,89.9999972534181,8|0,0:0|0:0,0:0:0:0:
177,149,54899,6,0,P|171:102|176:47,1,89.9999972534181,2|0,0:0|0:0,0:0:0:0:
285,250,55214,5,8,0:0:0:0:
285,250,55293,1,0,0:0:0:0:
285,250,55371,2,0,P|291:297|286:352,1,89.9999972534181,0|2,0:0|0:0,0:0:0:0:
97,343,55686,2,0,L|47:346,2,44.999998626709,0|0|8,0:0|0:0|0:0,0:0:0:0:
195,208,56000,1,0,0:0:0:0:
288,339,56157,2,0,L|413:336,1,89.9999972534181,2|0,0:0|0:0,0:0:0:0:
276,165,56472,2,0,P|269:218|282:259,1,89.9999972534181,8|0,0:0|0:0,0:0:0:0:
328,65,56786,6,0,L|204:81,1,89.9999972534181,2|0,0:0|0:0,0:0:0:0:
183,318,57101,6,0,L|307:302,1,89.9999972534181,8|0,0:0|0:0,0:0:0:0:
302,46,57415,6,0,L|195:35,1,89.9999972534181,2|0,0:0|0:0,0:0:0:0:
210,338,57730,6,0,L|397:354,1,179.999994506836,8|2,0:0|0:0,0:0:0:0:
478,217,58201,1,0,0:0:0:0:
478,217,58280,1,0,0:0:0:0:
478,217,58359,1,8,0:0:0:0:
312,203,58516,1,0,0:0:0:0:
478,217,58673,2,0,L|485:112,1,89.9999972534181,2|0,0:0|0:0,0:0:0:0:
323,43,58988,2,0,L|316:148,1,89.9999972534181,8|0,0:0|0:0,0:0:0:0:
152,288,59302,6,0,L|25:287,1,89.9999972534181,2|0,0:0|0:0,0:0:0:0:
360,288,59616,6,0,L|487:287,1,89.9999972534181,8|0,0:0|0:0,0:0:0:0:
133,161,59931,6,0,L|6:160,1,89.9999972534181,2|0,0:0|0:0,0:0:0:0:
379,161,60245,6,0,L|506:160,1,89.9999972534181,8|0,0:0|0:0,0:0:0:0:
370,312,60560,1,2,0:0:0:0:
295,159,60717,1,0,0:0:0:0:
462,251,60874,2,0,P|475:297|455:354,1,89.9999972534181,8|0,0:0|0:0,0:0:0:0:
297,255,61189,1,2,0:0:0:0:
468,160,61346,1,0,0:0:0:0:
304,99,61503,2,0,L|215:88,1,89.9999972534181,8|0,0:0|0:0,0:0:0:0:
135,319,61818,6,0,P|189:328|242:313,1,89.9999972534181,2|0,0:0|0:0,0:0:0:0:
132,85,62132,6,0,P|78:76|25:91,1,89.9999972534181,8|0,0:0|0:0,0:0:0:0:
203,233,62447,6,0,P|212:179|197:126,1,89.9999972534181,2|0,0:0|0:0,0:0:0:0:
4,160,62761,6,0,P|-16:253|49:335,1,179.999994506836,8|2,0:0|0:0,0:0:0:0:
142,162,63233,1,0,0:0:0:0:
142,162,63311,1,0,0:0:0:0:
142,162,63390,1,8,0:0:0:0:
26,321,63547,1,0,0:0:0:0:
213,260,63704,1,2,0:0:0:0:
26,199,63862,1,0,0:0:0:0:
142,358,64019,1,8,0:0:0:0:
138,163,64176,1,0,0:0:0:0:
270,310,64333,6,0,P|302:237|291:160,1,134.999995880127,2|0,0:0|0:0,0:0:0:0:
292,146,64648,2,0,P|371:166|455:147,1,134.999995880127,8|0,0:0|0:0,0:0:0:0:
431,256,64962,6,0,L|492:247,3,44.999998626709,2|0|0|0,0:0|0:0|0:0|0:0,0:0:0:0:
376,336,65277,2,0,L|314:344,3,44.999998626709,8|0|0|0,0:0|0:0|0:0|0:0,0:0:0:0:
339,236,65591,5,6,0:0:0:0:
214,262,65739,1,0,0:0:0:0:
214,262,65813,1,0,0:0:0:0:
214,262,65887,2,0,L|116:271,1,97.4999955368044,8|0,0:0|0:0,0:0:0:0:
330,138,66185,5,2,0:0:0:0:
205,164,66333,1,0,0:0:0:0:
205,164,66407,1,0,0:0:0:0:
205,164,66481,2,0,L|107:173,1,97.4999955368044,8|0,0:0|0:0,0:0:0:0:
320,34,66777,5,2,0:0:0:0:
195,60,66925,1,0,0:0:0:0:
195,60,66999,1,0,0:0:0:0:
195,60,67074,2,0,L|52:74,1,97.4999955368044,8|0,0:0|0:0,0:0:0:0:
114,184,67371,6,0,L|128:292,1,97.4999955368044,2|0,0:0|0:0,0:0:0:0:
273,266,67668,2,0,L|259:158,1,97.4999955368044,8|0,0:0|0:0,0:0:0:0:
114,184,67964,6,0,L|53:271,1,97.4999955368044,2|0,0:0|0:0,0:0:0:0:
273,266,68261,2,0,L|334:179,1,97.4999955368044,8|0,0:0|0:0,0:0:0:0:
114,184,68558,6,0,L|-6:214,1,97.4999955368044,2|0,0:0|0:0,0:0:0:0:
273,266,68855,2,0,L|393:236,1,97.4999955368044,8|0,0:0|0:0,0:0:0:0:
114,184,69151,6,0,L|18:131,1,97.4999955368044,2|0,0:0|0:0,0:0:0:0:
273,266,69448,2,0,L|369:319,1,97.4999955368044,8|0,0:0|0:0,0:0:0:0:
398,222,69745,5,2,0:0:0:0:
420,108,69893,1,0,0:0:0:0:
420,108,69967,1,0,0:0:0:0:
420,108,70042,2,0,L|428:0,1,97.4999955368044,8|0,0:0|0:0,0:0:0:0:
291,221,70338,5,2,0:0:0:0:
313,107,70486,1,0,0:0:0:0:
313,107,70560,1,0,0:0:0:0:
313,107,70635,2,0,L|321:-1,1,97.4999955368044,8|0,0:0|0:0,0:0:0:0:
182,218,70932,5,2,0:0:0:0:
204,104,71080,1,0,0:0:0:0:
204,104,71154,1,0,0:0:0:0:
204,104,71229,2,0,L|212:-4,1,97.4999955368044,8|0,0:0|0:0,0:0:0:0:
75,217,71525,5,2,0:0:0:0:
97,103,71673,1,0,0:0:0:0:
97,103,71747,1,0,0:0:0:0:
97,103,71822,2,0,L|105:-5,1,97.4999955368044,8|0,0:0|0:0,0:0:0:0:
191,204,72119,6,0,P|184:260|210:322,1,97.4999955368044,2|0,0:0|0:0,0:0:0:0:
344,192,72415,2,0,P|351:136|325:74,1,97.4999955368044,8|0,0:0|0:0,0:0:0:0:
159,201,72712,6,0,P|180:255|230:293,1,97.4999955368044,2|0,0:0|0:0,0:0:0:0:
388,177,73009,2,0,P|367:123|317:85,1,97.4999955368044,8|0,0:0|0:0,0:0:0:0:
130,205,73306,6,0,P|164:249|217:253,1,97.4999955368044,2|0,0:0|0:0,0:0:0:0:
428,176,73602,2,0,P|394:132|341:128,1,97.4999955368044,8|0,0:0|0:0,0:0:0:0:
130,205,73899,6,0,L|16:209,1,97.4999955368044,2|0,0:0|0:0,0:0:0:0:
208,57,74196,2,0,L|322:53,1,97.4999955368044,8|0,0:0|0:0,0:0:0:0:
444,197,74493,6,0,L|452:275,3,48.7499977684022,2|0|0|0,0:0|0:0|0:0|0:0,0:0:0:0:
346,199,74789,2,0,L|338:121,3,48.7499977684022,8|0|0|0,0:0|0:0|0:0|0:0,0:0:0:0:
352,296,75086,5,6,0:0:0:0:
208,312,75226,1,0,0:0:0:0:
208,312,75296,1,0,0:0:0:0:
208,312,75366,2,0,L|88:312,1,104.999996795654,8|0,0:0|0:0,0:0:0:0:
40,176,75646,5,2,0:0:0:0:
180,164,75786,1,0,0:0:0:0:
180,164,75856,1,0,0:0:0:0:
180,164,75926,2,0,L|300:164,1,104.999996795654,8|0,0:0|0:0,0:0:0:0:
352,296,76207,5,2,0:0:0:0:
208,312,76347,1,0,0:0:0:0:
208,312,76417,1,0,0:0:0:0:
208,312,76487,2,0,L|88:312,1,104.999996795654,8|0,0:0|0:0,0:0:0:0:
120,152,76768,6,0,L|168:39,1,104.999996795654,2|0,0:0|0:0,0:0:0:0:
284,92,77048,2,0,L|236:205,1,104.999996795654,8|0,0:0|0:0,0:0:0:0:
120,152,77328,6,0,L|80:48,1,104.999996795654,2|0,0:0|0:0,0:0:0:0:
284,92,77609,2,0,L|324:196,1,104.999996795654,8|0,0:0|0:0,0:0:0:0:
120,152,77889,6,0,L|0:96,1,104.999996795654,2|0,0:0|0:0,0:0:0:0:
284,92,78170,2,0,L|404:148,1,104.999996795654,8|0,0:0|0:0,0:0:0:0:
120,152,78450,6,0,L|-4:192,1,104.999996795654,2|0,0:0|0:0,0:0:0:0:
284,92,78730,2,0,L|408:52,1,104.999996795654,8|0,0:0|0:0,0:0:0:0:
336,204,79011,5,2,0:0:0:0:
212,240,79151,1,0,0:0:0:0:
212,240,79221,1,0,0:0:0:0:
212,240,79291,2,0,L|244:348,1,104.999996795654,8|0,0:0|0:0,0:0:0:0:
336,204,79571,5,2,0:0:0:0:
296,88,79711,1,0,0:0:0:0:
296,88,79781,1,0,0:0:0:0:
296,88,79851,2,0,L|188:120,1,104.999996795654,8|0,0:0|0:0,0:0:0:0:
336,204,80132,5,2,0:0:0:0:
464,156,80272,1,0,0:0:0:0:
464,156,80342,1,0,0:0:0:0:
464,156,80412,2,0,L|432:48,1,104.999996795654,8|0,0:0|0:0,0:0:0:0:
336,204,80693,5,2,0:0:0:0:
380,336,80833,1,0,0:0:0:0:
380,336,80903,1,0,0:0:0:0:
380,336,80973,2,0,L|488:304,1,104.999996795654,8|0,0:0|0:0,0:0:0:0:
436,116,81254,6,0,P|380:96|316:100,1,104.999996795654,2|0,0:0|0:0,0:0:0:0:
248,248,81534,2,0,P|312:264|380:244,1,104.999996795654,8|0,0:0|0:0,0:0:0:0:
436,116,81814,6,0,P|396:80|328:64,1,104.999996795654,2|0,0:0|0:0,0:0:0:0:
248,248,82095,2,0,P|296:288|360:288,1,104.999996795654,8|0,0:0|0:0,0:0:0:0:
436,116,82375,6,0,P|420:64|380:20,1,104.999996795654,2|0,0:0|0:0,0:0:0:0:
248,248,82656,2,0,P|272:312|312:352,1,104.999996795654,8|0,0:0|0:0,0:0:0:0:
408,192,82936,6,0,L|532:184,1,104.999996795654,2|0,0:0|0:0,0:0:0:0:
236,104,83216,2,0,L|100:108,1,104.999996795654,8|0,0:0|0:0,0:0:0:0:
36,211,83497,5,2,0:0:0:0:
36,243,83567,1,0,0:0:0:0:
36,276,83637,1,0,0:0:0:0:
36,308,83707,1,0,0:0:0:0:
35,341,83777,2,0,P|150:314|241:360,1,209.999993591309,8|2,0:0|0:0,0:0:0:0:
373,299,84189,6,0,B|341:253|399:198|399:198|344:149|381:75,1,225.000008583069,4|0,0:0|0:0,0:0:0:0:
185,48,84585,2,0,L|71:56,1,112.500004291535,2|0,0:0|0:0,0:0:0:0:
17,222,84850,2,0,L|131:214,1,112.500004291535,8|0,0:0|0:0,0:0:0:0:
357,205,85114,6,0,P|374:284|330:365,1,112.500004291535,2|0,0:0|0:0,0:0:0:0:
155,179,85378,6,0,P|138:100|182:19,1,112.500004291535,8|0,0:0|0:0,0:0:0:0:
340,79,85643,6,0,P|402:63|463:91,1,112.500004291535,2|0,0:0|0:0,0:0:0:0:
172,305,85907,6,0,P|110:321|49:293,1,112.500004291535,8|0,0:0|0:0,0:0:0:0:
118,184,86172,5,2,0:0:0:0:
118,184,86304,1,0,0:0:0:0:
104,50,86436,1,8,0:0:0:0:
104,50,86568,1,0,0:0:0:0:
213,150,86700,5,2,0:0:0:0:
324,70,86832,2,0,P|431:64|419:183,1,225.000008583069
292,158,87229,5,2,0:0:0:0:
292,158,87361,1,8,0:0:0:0:
317,308,87493,1,0,0:0:0:0:
317,308,87626,1,0,0:0:0:0:
168,246,87758,2,0,P|135:168|165:77,1,168.750006437302,2|0,0:0|0:0,0:0:0:0:
191,62,88022,2,0,L|371:57,1,168.750006437302,8|0,0:0|0:0,0:0:0:0:
400,55,88287,1,2,0:0:0:0:
425,269,88419,6,0,B|342:222|284:339|201:272,1,225.000008583069
37,225,88815,2,0,P|20:175|39:105,1,112.500004291535,2|0,0:0|0:0,0:0:0:0:
213,33,89080,2,0,P|230:83|211:153,1,112.500004291535,8|0,0:0|0:0,0:0:0:0:
224,335,89344,6,0,L|375:311,1,112.500004291535,2|0,0:0|0:0,0:0:0:0:
289,58,89608,6,0,L|138:34,1,112.500004291535,8|0,0:0|0:0,0:0:0:0:
349,236,89873,6,0,L|500:212,1,112.500004291535,2|0,0:0|0:0,0:0:0:0:
141,122,90137,6,0,L|-10:98,1,112.500004291535,8|0,0:0|0:0,0:0:0:0:
127,221,90402,5,2,0:0:0:0:
127,221,90534,1,0,0:0:0:0:
108,330,90666,1,8,0:0:0:0:
108,330,90798,1,0,0:0:0:0:
219,174,90930,5,2,0:0:0:0:
219,174,91062,1,0,0:0:0:0:
263,288,91195,1,8,0:0:0:0:
263,288,91327,1,0,0:0:0:0:
351,201,91459,6,0,L|482:197,1,112.500004291535,2|0,0:0|0:0,0:0:0:0:
368,55,91723,2,0,L|237:59,1,112.500004291535,8|0,0:0|0:0,0:0:0:0:
102,62,91988,1,2,0:0:0:0:
163,206,92120,1,0,0:0:0:0:
163,206,92186,1,0,0:0:0:0:
163,206,92252,2,0,L|287:210,1,112.500004291535,8|0,0:0|0:0,0:0:0:0:
342,347,92517,5,6,0:0:0:0:
391,197,92649,2,0,L|403:140,2,56.2500021457673,0|0|8,0:0|0:0|0:0,0:0:0:0:
268,108,92913,1,0,0:0:0:0:
168,190,93045,2,0,P|145:248|171:309,1,112.500004291535,2|0,0:0|0:0,0:0:0:0:
294,341,93310,2,0,P|317:283|291:222,1,112.500004291535,8|0,0:0|0:0,0:0:0:0:
232,118,93574,6,0,P|175:102|98:132,1,112.500004291535,2|0,0:0|0:0,0:0:0:0:
187,286,93838,6,0,P|244:302|321:272,1,112.500004291535,8|0,0:0|0:0,0:0:0:0:
96,203,94103,6,0,P|81:258|101:331,1,112.500004291535,2|0,0:0|0:0,0:0:0:0:
341,210,94367,6,2,P|275:124|159:155,1,225.000008583069,10|2,0:0|0:0,0:0:0:0:
167,311,94764,2,0,P|170:338|162:371,2,56.2500021457673,0|0|8,0:0|0:0|0:0,0:0:0:0:
95,192,95028,1,0,0:0:0:0:
250,239,95160,2,0,P|315:248|384:224,1,112.500004291535,2|0,0:0|0:0,0:0:0:0:
397,83,95425,2,0,P|332:74|263:98,1,112.500004291535,8|0,0:0|0:0,0:0:0:0:
250,239,95689,6,0,P|238:306|263:361,1,112.500004291535,2|0,0:0|0:0,0:0:0:0:
447,278,95953,6,0,P|462:224|449:170,1,112.500004291535,8|0,0:0|0:0,0:0:0:0:
227,147,96218,6,0,P|183:179|161:269,1,112.500004291535,2|0,0:0|0:0,0:0:0:0:
446,277,96482,6,0,P|461:223|448:169,1,112.500004291535,8|0,0:0|0:0,0:0:0:0:
379,66,96747,2,0,L|257:66,1,112.500004291535,2|0,0:0|0:0,0:0:0:0:
139,66,97011,1,8,0:0:0:0:
139,66,97143,1,0,0:0:0:0:
305,171,97275,2,0,L|183:171,1,112.500004291535,2|0,0:0|0:0,0:0:0:0:
65,171,97539,1,8,0:0:0:0:
65,171,97671,1,0,0:0:0:0:
160,303,97804,6,0,P|229:325|305:311,1,112.500004291535,2|0,0:0|0:0,0:0:0:0:
320,88,98068,6,0,P|251:71|169:94,1,112.500004291535,8|0,0:0|0:0,0:3:0:0:
362,277,98333,6,0,P|380:213|353:150,1,112.500004291535,2|0,0:0|0:0,0:0:0:0:
211,77,98597,6,0,P|137:168|178:288,1,225.000008583069,8|2,0:0|0:0,0:0:0:0:
269,317,98994,2,0,P|266:348|264:381,2,56.2500021457673,0|0|8,0:0|0:0|0:0,0:0:0:0:
367,222,99258,1,0,0:0:0:0:
261,150,99390,2,0,L|128:143,1,112.500004291535,2|0,0:0|0:0,0:0:0:0:
269,37,99655,2,0,L|390:45,1,112.500004291535,8|0,0:0|0:0,0:0:0:0:
432,151,99919,6,0,L|423:274,1,112.500004291535,2|0,0:0|0:0,0:0:0:0:
281,273,100183,6,0,L|293:136,1,112.500004291535,8|0,0:0|0:0,0:0:0:0:
460,155,100448,6,0,L|510:289,1,112.500004291535,2|0,0:0|0:0,0:0:0:0:
282,274,100712,6,0,B|199:227|141:344|58:277,1,225.000008583069,8|2,0:0|0:0,0:0:0:0:
56,91,101109,2,0,P|62:57|50:13,2,56.2500021457673,0|0|8,0:0|0:0|0:0,0:0:0:0:
158,170,101373,1,0,0:0:0:0:
18,205,101505,2,0,P|16:276|-7:323,1,112.500004291535,2|0,0:0|0:0,0:0:0:0:
158,170,101770,2,0,P|160:99|183:52,1,112.500004291535,8|0,0:0|0:0,0:0:0:0:
314,57,102034,6,0,L|455:64,1,112.500004291535,2|0,0:0|0:0,0:0:0:0:
266,190,102298,6,0,L|125:183,1,112.500004291535,8|0,0:0|0:0,0:0:0:0:
284,329,102563,6,0,L|425:336,1,112.500004291535,2|0,0:0|0:0,0:0:0:0:
266,190,102827,6,0,L|25:178,1,225.000008583069,8|2,0:0|0:0,0:0:0:0:
142,78,103224,2,0,L|205:82,2,56.2500021457673,0|0|8,0:0|0:0|0:0,0:0:0:0:
137,270,103488,1,0,0:0:0:0:
266,190,103620,2,0,L|389:195,1,112.500004291535,2|0,0:0|0:0,0:0:0:0:
303,343,103885,2,0,L|180:338,1,112.500004291535,8|0,0:0|0:0,0:0:0:0:
84,242,104149,6,0,L|85:87,1,112.500004291535,2|0,0:0|0:0,0:0:0:0:
428,142,104413,6,0,L|427:297,1,112.500004291535,8|0,0:0|0:0,0:0:0:0:
192,189,104678,6,0,L|193:34,1,112.500004291535,2|0,0:0|0:0,0:0:0:0:
320,195,104942,6,0,L|319:350,1,112.500004291535,8|0,0:0|0:0,0:0:0:0:
192,322,105207,2,0,L|53:319,1,112.500004291535,2|0,0:0|0:0,0:0:0:0:
141,219,105471,1,8,0:0:0:0:
141,219,105603,1,0,0:0:0:0:
83,107,105735,2,0,L|222:110,1,112.500004291535,2|0,0:0|0:0,0:0:0:0:
140,220,106000,1,8,0:0:0:0:
140,220,106132,1,0,0:0:0:0:
309,215,106264,6,0,P|315:154|283:87,1,112.500004291535,2|0,0:0|0:0,0:0:0:0:
134,114,106528,6,0,P|121:174|156:236,1,112.500004291535,8|0,0:0|0:0,0:0:0:0:
400,204,106793,6,0,P|406:143|374:76,1,112.500004291535,2|0,0:0|0:0,0:0:0:0:
305,304,107057,6,0,P|411:347|498:278,1,225.000008583069,8|2,0:0|0:0,0:0:0:0:
493,120,107454,2,0,L|489:64,2,56.2500021457673,0|0|8,0:0|0:0|0:0,0:0:0:0:
399,251,107718,1,0,0:0:0:0:
287,151,107850,2,0,L|158:159,1,112.500004291535,2|0,0:0|0:0,0:0:0:0:
284,27,108115,2,0,L|413:19,1,112.500004291535,8|0,0:0|0:0,0:0:0:0:
400,188,108379,6,0,P|320:216|207:167,1,168.750006437302,2|0,0:0|0:0,0:0:0:0:
314,131,108643,2,0,P|334:232|319:331,1,168.750006437302,8|0,0:0|0:0,0:0:0:0:
228,344,108908,6,0,L|155:345,3,56.2500021457673,2|0|0|0,0:0|0:0|0:0|0:0,0:0:0:0:
188,236,109172,2,0,L|261:235,3,56.2500021457673,8|0|0|0,0:0|0:0|0:0|0:0,0:0:0:0:
101,275,109437,5,6,0:0:0:0:
79,83,109569,2,0,L|72:22,2,56.2500021457673,0|0|8,0:0|0:0|0:0,0:0:0:0:
0,196,109833,1,0,0:0:0:0:
192,166,109965,2,0,L|343:151,1,112.500004291535,2|0,0:0|0:0,0:0:0:0:
259,310,110230,2,0,L|108:325,1,112.500004291535,8|0,0:0|0:0,0:0:0:0:
105,177,110494,6,0,P|90:117|125:51,1,112.500004291535,2|0,0:0|0:0,0:0:0:0:
393,164,110758,6,0,P|412:216|399:270,1,112.500004291535,8|0,0:0|0:0,0:0:0:0:
105,177,111023,6,0,P|90:117|125:51,1,112.500004291535,2|0,0:0|0:0,0:0:0:0:
393,164,111287,6,0,P|402:269|320:349,1,225.000008583069,8|2,0:0|0:0,0:0:0:0:
145,350,111684,2,0,L|69:349,2,56.2500021457673,0|0|8,0:0|0:0|0:0,0:0:0:0:
191,206,111948,1,0,0:0:0:0:
323,249,112080,2,0,P|390:264|452:246,1,112.500004291535,2|0,0:0|0:0,0:0:0:0:
371,95,112345,2,0,P|304:80|242:98,1,112.500004291535,8|0,0:0|0:0,0:0:0:0:
112,145,112609,6,0,L|-20:142,1,112.500004291535,2|0,0:0|0:0,0:0:0:0:
61,314,112873,6,0,P|126:329|196:299,1,112.500004291535,8|0,0:0|0:0,0:0:0:0:
243,127,113138,6,0,P|228:181|261:259,1,112.500004291535,2|0,0:0|0:0,0:0:0:0:
320,316,113402,6,0,P|387:329|450:309,1,112.500004291535,8|0,0:0|0:0,0:0:0:0:
446,172,113667,2,0,P|383:157|317:171,1,112.500004291535,2|0,0:0|0:0,0:0:0:0:
229,210,113931,1,8,0:0:0:0:
229,210,114063,1,0,0:0:0:0:
223,74,114195,2,0,P|286:59|352:73,1,112.500004291535,2|0,0:0|0:0,0:0:0:0:
439,78,114459,1,8,0:0:0:0:
439,78,114591,1,0,0:0:0:0:
353,227,114724,6,0,L|221:234,1,112.500004291535,2|0,0:0|0:0,0:0:0:0:
159,53,114988,6,0,L|291:46,1,112.500004291535,8|0,0:0|0:0,0:0:0:0:
357,264,115253,6,0,L|225:271,1,112.500004291535,2|0,0:0|0:0,0:0:0:0:
159,53,115517,6,0,L|386:39,1,225.000008583069,8|2,0:0|0:0,0:0:0:0:
397,246,115914,2,0,L|400:309,2,56.2500021457673,0|0|8,0:0|0:0|0:0,0:0:0:0:
484,124,116178,1,0,0:0:0:0:
310,140,116310,2,0,L|171:153,1,112.500004291535,2|0,0:0|0:0,0:0:0:0:
156,319,116575,2,0,L|295:306,1,112.500004291535,8|0,0:0|0:0,0:0:0:0:
440,226,116839,6,0,L|430:104,1,112.500004291535,2|0,0:0|0:0,0:0:0:0:
255,39,117103,6,0,L|265:161,1,112.500004291535,8|0,0:0|0:0,0:0:0:0:
97,242,117368,6,0,L|87:120,1,112.500004291535,2|0,0:0|0:0,0:0:0:0:
273,261,117632,6,0,B|356:214|414:331|497:264,1,225.000008583069,8|2,0:0|0:0,0:0:0:0:
463,77,118029,2,0,L|456:10,2,56.2500021457673,0|0|8,0:0|0:0|0:0,0:0:0:0:
364,175,118293,1,0,0:0:0:0:
265,76,118425,2,0,P|213:67|146:88,1,112.500004291535,2|0,0:0|0:0,0:0:0:0:
114,241,118690,2,0,P|166:250|233:229,1,112.500004291535,8|0,0:0|0:0,0:0:0:0:
367,91,118954,6,0,L|487:90,1,112.500004291535,2|0,0:0|0:0,0:0:0:0:
252,167,119218,6,0,L|132:166,1,112.500004291535,8|0,0:0|0:0,0:0:0:0:
373,256,119483,6,0,L|493:257,1,112.500004291535,2|0,0:0|0:0,0:0:0:0:
255,349,119747,6,0,L|18:349,1,225.000008583069,8|2,0:0|0:0,0:0:0:0:
137,172,120144,2,0,L|138:108,2,56.2500021457673,0|0|8,0:0|0:0|0:0,0:0:0:0:
233,272,120408,1,0,0:0:0:0:
37,274,120540,2,0,P|22:211|41:160,1,112.500004291535,2|0,0:0|0:0,0:0:0:0:
234,73,120805,2,0,P|249:136|230:187,1,112.500004291535,8|0,0:0|0:0,0:0:0:0:
337,336,121069,6,0,L|452:317,1,112.500004291535,2|0,0:0|0:0,0:0:0:0:
166,120,121333,6,0,L|55:101,1,112.500004291535,8|0,0:0|0:0,0:0:0:0:
330,247,121598,6,0,L|445:228,1,112.500004291535,2|0,0:0|0:0,0:0:0:0:
142,212,121862,6,0,L|31:193,1,112.500004291535,8|0,0:0|0:0,0:0:0:0:
166,56,122127,2,0,P|233:45|283:54,1,112.500004291535,2|0,0:0|0:0,0:0:0:0:
314,230,122391,1,8,0:0:0:0:
227,144,122523,1,0,0:0:0:0:
406,144,122655,2,0,L|402:290,1,112.500004291535,2|0,0:0|0:0,0:0:0:0:
313,138,122920,1,8,0:0:0:0:
490,135,123052,1,0,0:0:0:0:
402,256,123184,6,0,P|332:271|268:238,1,112.500004291535,2|0,0:0|0:0,0:0:0:0:
195,125,123448,6,0,P|192:60|225:2,1,112.500004291535,8|0,0:0|0:0,0:0:0:0:
471,103,123713,6,0,P|488:160|467:231,1,112.500004291535,2|0,0:0|0:0,0:0:0:0:
200,333,123977,6,0,P|124:284|130:155,1,225.000008583069,8|2,0:0|0:0,0:0:0:0:
303,44,124374,2,0,L|391:53,2,56.2500021457673,0|0|8,0:0|0:0|0:0,0:0:0:0:
141,38,124638,1,0,0:0:0:0:
322,151,124770,2,0,L|465:160,1,112.500004291535,2|0,0:0|0:0,0:0:0:0:
155,141,125035,2,0,L|12:132,1,112.500004291535,8|0,0:0|0:0,0:0:0:0:
0,284,125299,6,0,P|88:274|192:325,1,168.750006437302,2|0,0:0|0:0,0:0:0:0:
228,320,125563,2,0,P|204:229|280:152,1,168.750006437302,8|0,0:0|0:0,0:0:0:0:
304,112,125828,38,0,B|336:72|416:64|457:77|492:119|511:175|525:196|517:236|481:271|474:307|413:332|351:311|296:296|296:244|321:192|372:152|420:208,1,600,2|0,0:0|2:0,0:0:0:0:
